<?xml version="1.0" standalone="no"?>
<!DOCTYPE svg PUBLIC "-//W3C//DTD SVG 1.1//EN" "http://www.w3.org/Graphics/SVG/1.1/DTD/svg11.dtd" >
<svg>
<metadata>
Created by FontForge 20090622 at Wed Jul 15 09:34:52 2015
 By deploy user
Copyright &#194;&#169; 2000 Adobe Systems Incorporated. All Rights Reserved. Patent Des. pending.
</metadata>
<defs>
<font id="WarnockPro-Semibold" horiz-adv-x="354" >
  <font-face 
    font-family="Warnock Pro SmBd"
    font-weight="600"
    font-stretch="normal"
    units-per-em="1000"
    panose-1="2 10 7 3 6 5 11 2 2 4"
    ascent="735"
    descent="-265"
    x-height="444"
    cap-height="659"
    bbox="-181 -579 1573 1006"
    underline-thickness="50"
    underline-position="-75"
    unicode-range="U+0020-U+FB06"
  />
<missing-glyph horiz-adv-x="500" 
d="M0 0v700h500v-700h-500zM250 395l170 255h-340zM280 350l170 -255v510zM80 50h340l-170 255zM50 605v-510l170 255z" />
    <glyph glyph-name="T_h" unicode="Th" horiz-adv-x="1149" 
d="M281 334v278l-158 6q-35 -68 -72 -116l-19 -4q-2 21 -0.5 84.5t5.5 86.5l6 4q12 -1 78 -14h473q31 2 60 10v14l120 19l7 -3q-3 -127 -3 -297l2 -1q70 55 134 55q73 0 112 -47.5t39 -108.5v-221q0 -12 4.5 -17.5t16.5 -11.5l48 -28l-8 -25q-110 -2 -194 8q11 92 11 256
q0 125 -92 125q-40 0 -73 -26q0 -283 3 -303l70 -34l-7 -24q-21 0 -64 0.5t-65 0.5q-21 0 -61 -0.5t-61 -0.5l7 24l53 34q3 22 3 227q0 197 -2 317q-36 17 -61 17l-186 -6v-245q0 -229 6 -307l98 -36l-7 -25q-24 0 -76 0.5t-80 0.5q-29 0 -83 -0.5t-78 -0.5l7 25l84 36
q3 31 3 274z" />
    <glyph glyph-name="T_h.caron" unicode="&#x164;h" horiz-adv-x="1149" 
d="M281 334v278l-158 6q-35 -68 -72 -116l-19 -4q-2 21 -0.5 84.5t5.5 86.5l6 4q12 -1 78 -14h473q31 2 60 10v14l120 19l7 -3q-3 -127 -3 -297l2 -1q70 55 134 55q73 0 112 -47.5t39 -108.5v-221q0 -12 4.5 -17.5t16.5 -11.5l48 -28l-8 -25q-110 -2 -194 8q11 92 11 256
q0 125 -92 125q-40 0 -73 -26q0 -283 3 -303l70 -34l-7 -24q-21 0 -64 0.5t-65 0.5q-21 0 -61 -0.5t-61 -0.5l7 24l53 34q3 22 3 227q0 197 -2 317q-36 17 -61 17l-186 -6v-245q0 -229 6 -307l98 -36l-7 -25q-24 0 -76 0.5t-80 0.5q-29 0 -83 -0.5t-78 -0.5l7 25l84 36
q3 31 3 274zM353 699h-20l-138 125l19 25l129 -64l131 64l16 -25z" />
    <glyph glyph-name="T_h.commaaccent" unicode="&#x162;h" horiz-adv-x="1149" 
d="M281 334v278l-158 6q-35 -68 -72 -116l-19 -4q-2 21 -0.5 84.5t5.5 86.5l6 4q12 -1 78 -14h473q31 2 60 10v14l120 19l7 -3q-3 -127 -3 -297l2 -1q70 55 134 55q73 0 112 -47.5t39 -108.5v-221q0 -12 4.5 -17.5t16.5 -11.5l48 -28l-8 -25q-110 -2 -194 8q11 92 11 256
q0 125 -92 125q-40 0 -73 -26q0 -283 3 -303l70 -34l-7 -24q-21 0 -64 0.5t-65 0.5q-21 0 -61 -0.5t-61 -0.5l7 24l53 34q3 22 3 227q0 197 -2 317q-36 17 -61 17l-186 -6v-245q0 -229 6 -307l98 -36l-7 -25q-24 0 -76 0.5t-80 0.5q-29 0 -83 -0.5t-78 -0.5l7 25l84 36
q3 31 3 274zM296 -233l-19 25q51 38 51 71q0 23 -16 36l-28 17v18l67 34h15q38 -20 39 -71q0 -37 -29.5 -73t-79.5 -57z" />
    <glyph glyph-name="f_f_j" unicode="ffj" horiz-adv-x="871" 
d="M384 394h-171q-2 -42 -2 -135q0 -181 3 -203l60 -31l-6 -26q-19 0 -58.5 0.5t-59.5 0.5t-63 -0.5t-67 -0.5l6 26l60 31q0 4 1 29t1.5 69.5t0.5 96.5v142l-67 13l16 36h51q0 102 80 173q35 30 81 46.5t88 16.5q87 0 131 -44q74 66 174 66q88 0 129 -42q-16 -63 -40 -98
l-21 -8q-16 25 -45 103q-18 5 -31 5q-54 0 -85.5 -46.5t-38.5 -116.5q-3 -28 -3 -55h175q21 4 118 12v-342q0 -95 -38 -167q-34 -65 -72.5 -103t-92.5 -67l-30 21v6q31 20 53 49.5t33 57t17 67t7 65t1 66.5v296l-171 -10q-2 -42 -2 -134q0 -179 3 -203l65 -31l-6 -26
q-20 0 -60 0.5t-61 0.5q-20 0 -60 -0.5t-61 -0.5l6 26l49 28q3 54 3 198v143zM214 442h170q0 66 39 133q-15 24 -43.5 42.5t-66.5 18.5q-44 0 -69.5 -38t-27.5 -106q-2 -42 -2 -50z" />
    <glyph glyph-name="f_j" unicode="fj" horiz-adv-x="577" 
d="M39 442h52q2 121 91 196q71 62 171 62q84 0 125 -38q-16 -60 -41 -100l-19 -7q-19 28 -45 103q-12 5 -32 5q-53 0 -85.5 -48t-38.5 -117q-2 -40 -2 -56h172q57 9 120 12v-342q0 -98 -37 -168q-34 -64 -73.5 -102t-93.5 -67l-29 20v6q38 26 62.5 61.5t34 81t12.5 80
t3 84.5q0 198 -1 295l-170 -10q-3 -81 -3 -130q0 -189 3 -206l77 -32l-7 -26q-25 0 -69.5 0.5t-65.5 0.5q-20 0 -63 -0.5t-67 -0.5l4 25l63 31q5 76 4 201l-1 137l-62 14z" />
    <glyph glyph-name="ff" unicode="ff" horiz-adv-x="619" 
d="M384 394h-171q-2 -42 -2 -135q0 -179 3 -203l60 -31l-6 -26q-19 0 -58 0.5t-59 0.5q-21 0 -64 -0.5t-66 -0.5l4 26l60 32q4 34 4 194v142l-64 13l13 36h52q0 104 82 175q70 61 163 61q82 0 126 -41q64 63 147 63q59 0 85 -28q-15 -58 -38 -95l-18 -8q-21 34 -43 88
q-4 1 -12 1q-29 0 -49.5 -37t-24.5 -105v-28.5v-26.5v-19h131l-13 -35l-118 -13q-2 -42 -2 -135q0 -187 2 -201l89 -33l-6 -26q-23 0 -71.5 0.5t-72.5 0.5q-19 0 -58.5 -0.5t-59.5 -0.5l6 26l46 29q3 54 3 197v143zM214 442h170q2 70 33 134q-35 60 -105 60q-40 0 -66.5 -36
t-29.5 -103q-3 -38 -2 -55z" />
    <glyph glyph-name="fi" unicode="fi" horiz-adv-x="589" 
d="M35 442h55q0 122 89 197q73 61 174 61q83 0 124 -38q-18 -64 -41 -99l-18 -8q-23 32 -46 100q-12 5 -32 5q-54 0 -86.5 -47t-37.5 -116q-3 -54 -3 -55h173q27 6 120 12v-204q0 -161 2 -193l71 -32l-7 -26q-19 0 -58.5 1t-60.5 1q-19 0 -57 -1t-57 -1l6 26l36 33
q3 108 3 194v151l-171 -10q-2 -54 -2 -134q0 -184 3 -202l59 -32l-7 -26q-20 0 -59 1t-58 1q-21 0 -63 -1t-66 -1l3 26l62 28q4 56 4 199v141l-67 14z" />
    <glyph glyph-name="fl" unicode="fl" horiz-adv-x="591" 
d="M332 442l-16 -36l-101 -13q-2 -48 -2 -134q0 -190 2 -203l62 -31l-7 -26q-23 0 -65 0.5t-62 0.5q-18 0 -56.5 -0.5t-60.5 -0.5l4 26l58 28q3 42 3 198v142l-66 13l15 36h52q0 118 76 191q70 67 168 67q48 0 87 -17q47 13 85 17v-299q0 -221 2 -347l64 -29l-10 -26
q-19 0 -58 0.5t-58 0.5q-20 0 -58 -0.5t-56 -0.5l5 26l45 28q2 70 2 327v245q-26 33 -70 33t-68.5 -37.5t-29.5 -103.5q-2 -27 -2 -75h116z" />
    <glyph glyph-name="ffi" unicode="ffi" horiz-adv-x="883" 
d="M384 394h-171q-2 -42 -2 -135q0 -183 3 -203l60 -31l-6 -26q-19 0 -58.5 0.5t-59.5 0.5t-63 -0.5t-67 -0.5l5 25l61 30q3 48 3 197v142l-65 13l13 36h52q0 102 80 172q74 64 171 64q85 0 129 -43q73 65 173 65q88 0 129 -42q-15 -60 -38 -95l-20 -8q-24 34 -45 99
q-16 6 -35 6q-54 0 -85 -44.5t-37 -113.5q-3 -35 -3 -60h175q22 5 118 12v-205q0 -139 2 -193l71 -31l-6 -26q-21 0 -61 0.5t-60 0.5q-19 0 -57 -0.5t-56 -0.5l5 25l37 34q3 111 3 193v152l-171 -10q-2 -42 -2 -134q0 -183 3 -203l65 -31l-7 -26q-20 0 -59.5 0.5t-60.5 0.5
q-20 0 -60 -0.5t-61 -0.5l6 26l48 27q4 32 4 199v143zM214 442h170q0 71 39 134q-43 60 -110 60q-89 0 -97 -144q-2 -24 -2 -50z" />
    <glyph glyph-name="ffl" unicode="ffl" horiz-adv-x="883" 
d="M506 264v-1q0 -190 3 -208l63 -31l-8 -25q-20 0 -60.5 0.5t-59.5 0.5q-20 0 -58.5 -0.5t-58.5 -0.5l6 25l48 28q3 48 3 204v139h-171q-2 -44 -2 -132q0 -177 3 -206l65 -32l-7 -26q-22 0 -65 0.5t-64 0.5q-19 0 -60 -0.5t-64 -0.5l5 26l62 31q3 22 3 200v137l-68 13
l16 36h53q0 103 81 174q32 29 79 45.5t92 16.5q81 0 124 -37q68 60 162 60q47 0 81 -16q39 13 92 16v-299q0 -223 2 -349l63 -29l-9 -25q-22 0 -60.5 0.5t-56.5 0.5q-20 0 -59 -0.5t-61 -0.5l7 25l49 29q3 102 3 329v244q-26 33 -67 33q-43 0 -69.5 -41.5t-31.5 -107.5
q-2 -20 -2 -68h121l-17 -35l-105 -13q-2 -50 -2 -130zM213 442h171q1 79 36 138q-15 23 -42.5 39.5t-60.5 16.5q-43 0 -70.5 -36.5t-31.5 -104.5q-2 -24 -2 -53z" />
    <glyph glyph-name=".notdef" horiz-adv-x="500" 
d="M0 0v700h500v-700h-500zM250 395l170 255h-340zM280 350l170 -255v510zM80 50h340l-170 255zM50 605v-510l170 255z" />
    <glyph glyph-name=".null" horiz-adv-x="0" 
 />
    <glyph glyph-name="nonmarkingreturn" horiz-adv-x="333" 
 />
    <glyph glyph-name="space" unicode=" " horiz-adv-x="229" 
 />
    <glyph glyph-name="exclam" unicode="!" horiz-adv-x="267" 
d="M160 224l-35 -16q-35 264 -53 356l-24 48q60 37 169 40l7 -8q-27 -201 -64 -420zM140 150l10 4q15 -7 38 -33t32 -46l-3 -11q-7 -18 -31 -43t-40 -34l-11 -3q-19 10 -40 33.5t-31 43.5l3 11q37 55 73 78z" />
    <glyph glyph-name="quotedbl" unicode="&#x22;" horiz-adv-x="371" 
d="M131 428l-37 -18q-23 165 -34 214l-21 35q56 28 111 37h16q-12 -141 -35 -268zM300 433l-38 -19q-15 108 -33 214l-22 35q53 26 111 38h16q-11 -132 -34 -268z" />
    <glyph glyph-name="numbersign" unicode="#" horiz-adv-x="530" 
d="M337 398h-115l-32 -126h115zM106 478h92l39 158l46 5l-41 -163h115l40 158l45 5l-42 -163h95l-31 -81l-84 1l-32 -126h94l-30 -79l-82 1l-44 -176l-45 -5l45 181h-115l-43 -176l-46 -5l46 181l-106 -1l31 79h93l32 126h-103z" />
    <glyph glyph-name="dollar" unicode="$" horiz-adv-x="530" 
d="M244 633v86l36 9v-95q64 -3 103 -34q25 17 77 29l6 -5q-1 -20 -15 -73.5t-25 -80.5l-15 -6q-26 43 -39 96q-25 28 -92 33v-206l51.5 -18t46.5 -19t45 -26t32.5 -31.5t25 -43t7.5 -54.5q0 -47 -20 -82.5t-53 -55t-66 -30t-69 -13.5v-93l-36 -11v102q-54 1 -117 22t-90 48
q4 22 22 65.5t27 56.5l13 5q9 -23 39 -134q37 -22 106 -22v217q-93 30 -142.5 71.5t-49.5 119.5q0 72 51 120t141 53zM244 398v194q-46 -5 -72 -30.5t-26 -65.5q0 -39 25 -60t73 -38zM280 257v-202q45 6 71.5 32t26.5 66q0 41 -24 63.5t-74 40.5z" />
    <glyph glyph-name="percent" unicode="%" horiz-adv-x="749" 
d="M196 654h1q72 0 113 -51.5t41 -125.5q0 -83 -44.5 -134t-111.5 -51q-69 0 -112 45.5t-43 130.5t47.5 135.5t108.5 50.5zM197 621h-1q-59 0 -59 -147q0 -55 13.5 -102t47.5 -47q57 0 57 149q0 147 -58 147zM565 671l35 -28l-419 -682l-33 30zM555 351h1q72 0 113.5 -52.5
t41.5 -126.5q0 -81 -44.5 -132t-112.5 -51t-112 45.5t-44 128.5q0 85 47.5 136.5t109.5 51.5zM556 318h-1q-34 0 -47 -45.5t-13 -101.5q0 -31 4 -61.5t19.5 -59t39.5 -28.5q56 0 56 149q0 20 -1.5 39.5t-7 46.5t-18 44t-31.5 17z" />
    <glyph glyph-name="ampersand" unicode="&#x26;" horiz-adv-x="782" 
d="M203 319h-1q-39 -37 -39 -92q0 -69 49.5 -116t118.5 -47q49 0 84 28v1q-52 46 -112.5 109.5t-99.5 116.5zM755 20l-9 -18q-48 -16 -98 -16q-64 0 -107.5 19t-93.5 61q-81 -80 -182 -80q-88 0 -155 52.5t-67 143.5q0 61 54 106q15 13 84 62q-48 69 -48 138q0 66 48 117
t129 51h1q70 0 113.5 -39t43.5 -96q0 -48 -46 -86q-43 -36 -108 -74q36 -47 96 -102.5t94 -79.5q28 38 51 87.5t31 85.5l-10 71l3 6q27 -1 78.5 -15.5t71.5 -28.5l-1 -5l-76 -55q-64 -109 -116 -172q141 -110 219 -133zM288 391h3q83 61 83 135q0 38 -19.5 64.5t-51.5 26.5
h-1q-33 0 -52.5 -29t-19.5 -68q0 -57 58 -129z" />
    <glyph glyph-name="quotesingle" unicode="'" horiz-adv-x="202" 
d="M131 429l-37 -19q-29 191 -34 214l-21 35q56 28 111 37h16q-12 -143 -35 -267z" />
    <glyph glyph-name="parenleft" unicode="(" horiz-adv-x="333" 
d="M61 271v1q0 132 53.5 253.5t163.5 195.5l21 -21q-58 -60 -99 -168t-41 -261q0 -151 41 -259.5t99 -168.5l-21 -21q-110 73 -163.5 195.5t-53.5 253.5z" />
    <glyph glyph-name="parenright" unicode=")" horiz-adv-x="331" 
d="M271 273v-1q0 -131 -53.5 -253t-162.5 -197l-21 21q58 61 99 169.5t41 260.5q0 153 -41 260.5t-99 167.5l21 20q109 -74 162.5 -195.5t53.5 -252.5z" />
    <glyph glyph-name="asterisk" unicode="*" horiz-adv-x="386" 
d="M204 473l7 4l100 -41l22 -6q-3 -20 -24.5 -45.5t-38.5 -29.5l-9 22zM185 506l-12 -5l-98 40l-25 4q2 21 23 48t41 31l9 -22zM177 489l-3 -12l-88 -66l-16 -19q-14 8 -26 44t-5 52l22 -5zM210 490l2 13l88 70l16 17q14 -12 26 -48.5t8 -50.5l-24 6zM206 513l-11 -2
l-14 116l-5 21q10 6 50 0t47 -16l-15 -18zM185 467l9 4l15 -115l8 -28q-17 -4 -53 3.5t-48 19.5l17 20z" />
    <glyph glyph-name="plus" unicode="+" horiz-adv-x="596" 
d="M334 -5l-71 -11v220h-197l12 62h185v190l71 11v-201h196l-11 -62h-185v-209z" />
    <glyph glyph-name="comma" unicode="," horiz-adv-x="247" 
d="M41 -144l-22 29q81 79 81 146q0 23 -10 41l-51 26v16l94 57h20q16 -5 31 -33t16 -68q2 -56 -41 -114t-118 -100z" />
    <glyph glyph-name="hyphen" unicode="-" horiz-adv-x="373" 
d="M288 211l-246 -33l34 88l53 -1l204 13v-9z" />
    <glyph glyph-name="period" unicode="." horiz-adv-x="247" 
d="M122 150l9 4q14 -7 37.5 -33t33.5 -46l-3 -11q-8 -19 -32 -44t-40 -34l-11 -3q-19 11 -40 34t-31 43l3 12q34 54 74 78z" />
    <glyph glyph-name="slash" unicode="/" horiz-adv-x="371" 
d="M111 -56h-62l220 733h62z" />
    <glyph glyph-name="zero" unicode="0" horiz-adv-x="530" 
d="M271 654h1q101 0 165.5 -86t64.5 -243q0 -171 -69.5 -254.5t-169.5 -83.5q-97 0 -165.5 81t-68.5 247q0 164 72.5 251.5t169.5 87.5zM264 615h-1q-52 0 -80 -88t-28 -212q0 -66 11.5 -129.5t38.5 -111.5t65 -48q52 0 79 88.5t27 202.5q0 75 -10.5 139.5t-36.5 111.5
t-65 47z" />
    <glyph glyph-name="one" unicode="1" horiz-adv-x="530" 
d="M216 561l-126 5l10 24q5 2 39 11.5l90 25l98 27.5h10q0 -48 2.5 -320t2.5 -277l121 -33l-11 -25q-30 0 -89 0.5t-88 0.5q-32 0 -96 -0.5t-95 -0.5l9 25l114 33q9 144 9 504z" />
    <glyph glyph-name="two" unicode="2" horiz-adv-x="530" 
d="M35 12l37 65q17 10 26 18q96 81 169 178q63 86 63 181q0 59 -31 102t-92 43q-24 0 -63 -15q-17 -111 -35 -148l-18 -11q-8 10 -28.5 56.5t-24.5 65.5q43 46 104.5 76.5t123.5 30.5q48 0 90.5 -17t74.5 -61t33 -108q1 -69 -34 -122t-107 -116q-60 -52 -171 -138v-2
q70 0 250 5l16.5 20l27.5 34l27 34l28 -11q-6 -41 -21.5 -98.5t-26.5 -78.5q-6 0 -99.5 2.5t-146.5 2.5h-172v12z" />
    <glyph glyph-name="three" unicode="3" horiz-adv-x="530" 
d="M94 169l16 4q15 -28 41 -138q18 -6 43 -6q67 0 111 42.5t43 112.5q0 55 -30 89.5t-80 42.5q-64 -15 -100 -17l-7 11q4 11 17.5 29t22.5 23q19 0 67 -4q86 30 86 124q0 57 -30.5 90t-84.5 33q-34 0 -57 -14q-18 -88 -34 -118l-16 -7q-31 39 -52 101q109 88 218 88
q92 0 139 -44t47 -104q0 -65 -43 -100.5t-114 -56.5v-6q191 -16 193 -155q0 -66 -41.5 -113.5t-100.5 -68t-125 -20.5q-57 0 -107 16.5t-76 37.5q26 84 54 128z" />
    <glyph glyph-name="four" unicode="4" horiz-adv-x="530" 
d="M398 188l2 -133l87 -31l-9 -25q-24 0 -72 0.5t-72 0.5q-27 0 -81 -0.5t-81 -0.5l8 25l90 31q0 6 2 51t2 79l-240 -3l-19 37q37 74 138 230.5t119 173.5q15 9 55.5 19t68.5 12l2 -423h49q31 40 54 59h15q0 -15 -9 -79.5t-13 -74.5l-14 -6q-8 8 -34 59zM275 231l9 340h-5
q-138 -230 -191 -335q62 -5 187 -5z" />
    <glyph glyph-name="five" unicode="5" horiz-adv-x="530" 
d="M89 284l-16 14q18 105 50 345q39 -2 259 -2q23 0 90 18l11 -21q-28 -38 -84 -84q-16 -11 -42 -12q-72 -5 -196 -5q-3 -18 -8.5 -45.5l-13.5 -69.5l-14 -75l2 -1q81 39 152 39q59 0 102 -17.5t64.5 -46t31 -56.5t9.5 -56q0 -49 -18 -88.5t-46 -64t-64.5 -40.5t-70.5 -22.5
t-67 -6.5q-50 0 -96.5 13.5t-74.5 34.5q7 25 25.5 69.5t26.5 58.5l17 6q9 -18 24 -68t19 -69q16 -4 34 -4q62 0 108.5 46t46.5 121q0 58 -30 96t-99 38q-67 0 -132 -45z" />
    <glyph glyph-name="six" unicode="6" horiz-adv-x="530" 
d="M452 665l14 -34q-128 -22 -206.5 -99t-92.5 -192l2 -1q83 63 151 63q72 0 126.5 -50t54.5 -141q0 -105 -70 -164.5t-160 -59.5q-120 0 -180.5 78t-60.5 196q0 157 103 265q57 62 140 98t179 41zM266 335h-1q-47 0 -86 -34q-17 -15 -17 -64q0 -85 29 -148t84 -63
q36 0 59 28.5t30 61t7 67.5q0 69 -29.5 110.5t-75.5 41.5z" />
    <glyph glyph-name="seven" unicode="7" horiz-adv-x="530" 
d="M123 -13l-8 11q19 65 128 239q100 158 169 302q-49 3 -143 3q-91 0 -151 -2l-12.5 -24.5l-20 -39t-13.5 -23.5l-19 -5q-10 80 -10 196l3 3q47 -6 70 -6h197q132 0 175 1l-3 -31q-6 -40 -125.5 -274.5t-132.5 -278.5l-2 -58z" />
    <glyph glyph-name="eight" unicode="8" horiz-adv-x="530" 
d="M273 654h1q82 0 135.5 -45.5t53.5 -113.5q0 -26 -10 -48.5t-33 -43t-33 -27.5l-37 -25v-2q39 -22 64 -41q73 -53 73 -137q0 -70 -61 -127t-170 -57q-99 0 -156.5 49.5t-57.5 115.5q0 48 29.5 82t99.5 76v2q-28 18 -44 32q-61 55 -60 129q1 83 61.5 132t144.5 49zM264 616
h-1q-34 0 -63 -27.5t-29 -79.5q0 -43 35 -76q24 -22 107 -64q51 46 51 119q0 55 -27.5 91.5t-72.5 36.5zM273 26h1q42 0 71 29.5t29 78.5t-47 86q-36 29 -120 72q-57 -46 -57 -124q0 -61 35 -101.5t88 -40.5z" />
    <glyph glyph-name="nine" unicode="9" horiz-adv-x="530" 
d="M92 -20l-19 32q22 5 42.5 11.5t63.5 28.5t75 50.5t62 79t40 112.5l-2 1q-65 -49 -136 -51q-74 0 -129 51t-55 142q0 96 68 156.5t163 60.5q63 0 110 -26t72 -68t36.5 -86.5t11.5 -90.5q0 -172 -115.5 -280t-287.5 -123zM258 615h-1q-49 0 -74 -47.5t-24 -106.5
q1 -74 36.5 -113t86.5 -39q28 0 56 15q15 8 18 23q6 30 6 62q0 84 -27 145t-77 61z" />
    <glyph glyph-name="colon" unicode=":" horiz-adv-x="247" 
d="M122 150l9 4q14 -7 37.5 -33t33.5 -46l-3 -11q-8 -19 -32 -44t-40 -34l-11 -3q-19 11 -40 34t-31 43l3 12q34 54 74 78zM122 443l9 3q14 -6 37.5 -32.5t33.5 -46.5l-3 -10q-8 -19 -32 -44t-40 -34l-11 -4q-19 11 -40 34.5t-31 43.5l3 11q35 55 74 79z" />
    <glyph glyph-name="semicolon" unicode=";" horiz-adv-x="247" 
d="M121 443l10 3q14 -6 37.5 -32t33.5 -47l-3 -11q-8 -18 -32 -43t-40 -34l-11 -4q-19 11 -40.5 35t-30.5 43l2 11q35 54 74 79zM40 -144l-22 29q81 79 81 147q0 25 -10 40l-51 26v17l93 56h20q16 -6 31.5 -33.5t16.5 -67.5q2 -56 -41 -113.5t-118 -100.5z" />
    <glyph glyph-name="less" unicode="&#x3c;" horiz-adv-x="575" 
d="M78 187l7 73l412 205l-10 -77l-341 -164v-3l351 -168l-10 -72z" />
    <glyph glyph-name="equal" unicode="=" horiz-adv-x="596" 
d="M527 176l-13 -62h-444l12 62h445zM527 356l-13 -62h-444l12 62h445z" />
    <glyph glyph-name="greater" unicode="&#x3e;" horiz-adv-x="575" 
d="M497 260l-7 -73l-411 -206l9 78l334 164v3l-343 166l9 73z" />
    <glyph glyph-name="question" unicode="?" horiz-adv-x="433" 
d="M216 652h2q70 0 123 -39.5t53 -116.5q0 -61 -70 -118q-96 -82 -95 -113q1 -17 14 -42l-29 -15q-31 8 -60 41.5t-30 74.5q18 45 94 115q63 60 63 94q0 27 -22 51t-64 24q-23 0 -43 -9q-11 -67 -39 -118l-16 -7q-36 45 -54 111q37 29 87 48t86 19zM203 150l9 4
q14 -7 38 -33t34 -46l-4 -11q-7 -18 -31 -43t-40 -34l-11 -3q-19 10 -40.5 33.5t-30.5 43.5l2 11q36 54 74 78z" />
    <glyph glyph-name="at" unicode="@" horiz-adv-x="827" 
d="M491 356h-1q-37 0 -80 -44q-34 -35 -60.5 -92t-26.5 -103q0 -28 17 -28q19 0 54 29.5t66 77.5q28 38 41.5 67.5t27.5 77.5q-15 15 -38 15zM634 407l5 -5l-29 -56q-26 -94 -61 -269q-4 -11 4 -11q71 0 122 57t51 160q0 113 -75.5 180.5t-193.5 67.5q-81 0 -146 -30
t-104 -79.5t-59 -110t-20 -125.5q0 -147 88.5 -228.5t218.5 -81.5q169 0 296 123l19 -29q-139 -151 -340 -151q-161 0 -262.5 98.5t-101.5 260.5q0 164 115.5 279.5t300.5 115.5q139 0 231 -80.5t92 -213.5q0 -112 -84 -187t-209 -72q-26 0 -44 6q5 19 21.5 76.5t21.5 76.5
h-5q-49 -73 -102.5 -115.5t-98.5 -42.5q-27 0 -44 23t-17 64q0 59 35.5 129.5t103.5 118.5q62 43 116 43q37 0 61 -25l8 21z" />
    <glyph glyph-name="A" unicode="A" horiz-adv-x="726" 
d="M293 633l104 49l4 -5q0 -31 15 -72q18 -53 196 -500q14 -32 31.5 -45t72.5 -35l-8 -26q-23 0 -72 0.5t-73 0.5q-18 0 -55.5 -0.5t-57.5 -0.5l8 25l36 32q-3 10 -12.5 34l-25 64.5l-27.5 72.5q-102 -6 -217 -4l-58 -159l82 -38l-7 -27q-18 0 -56 0.5t-56 0.5t-54 -0.5
t-54 -0.5l8 27l69 39q58 114 215 510q5 12 2 27zM326 527h-2l-92 -245q16 0 89.5 -2t91.5 -2z" />
    <glyph glyph-name="B" unicode="B" horiz-adv-x="642" 
d="M40 629l8 25q130 13 249 13q267 0 267 -150q0 -68 -50 -107t-121 -48v-7q212 -20 212 -163q0 -195 -346 -195q-108 0 -222 3l7 27l69 34q6 48 6 226v319zM246 626v-257q184 2 184 136q0 70 -54 101q-37 20 -106 20h-24zM463 193v1q0 64 -46.5 100t-170.5 35v-19
q0 -210 4 -274q131 0 180 58q33 38 33 99z" />
    <glyph glyph-name="C" unicode="C" horiz-adv-x="696" 
d="M418 677h1q93 0 152 -33q44 19 90 25l6 -4q-2 -25 -18.5 -92t-24.5 -86l-22 -10q-24 57 -41 127q-36 23 -107 23q-127 0 -200.5 -86t-73.5 -211t75.5 -210.5t206.5 -85.5q29 0 47 5q84 83 140 127l20 -16q-9 -29 -36.5 -78.5t-39.5 -62.5q-26 -10 -79.5 -19t-91.5 -9
q-74 0 -140.5 20.5t-121.5 61t-87.5 107.5t-32.5 153q0 88 35.5 158t92 111.5t121 63t129.5 21.5z" />
    <glyph glyph-name="D" unicode="D" horiz-adv-x="755" 
d="M37 630l6 24q143 13 247 13q215 0 320 -83.5t105 -238.5q0 -69 -20.5 -124.5t-55 -92t-69.5 -59t-75 -37.5q-94 -35 -294 -35q-60 0 -171 3l8 27l75 30q6 26 6 286v262zM246 624v-281q0 -293 4 -307q157 0 236 74q88 83 88 228q0 143 -91 219q-45 38 -101 52.5t-136 14.5
z" />
    <glyph glyph-name="E" unicode="E" horiz-adv-x="592" 
d="M33 634l8 26q23 0 69 -0.5t69 -0.5h248q34 10 100 13l3 -4q-1 -19 -10 -76t-15 -79l-18 -7q-36 65 -57 110l-184 -10v-241q124 0 254 14l5 -12q-3 -10 -27 -37.5t-34 -27.5q-6 0 -92 5.5t-106 6.5q0 -183 4 -261l187 -10q88 112 107 131l20 -7q-2 -19 -16 -85t-22 -85
q-63 3 -177 3h-173q-24 0 -76.5 -0.5t-76.5 -0.5l8 26l82 35q6 24 6 284v257z" />
    <glyph glyph-name="F" unicode="F" horiz-adv-x="560" 
d="M37 634l9 26q22 0 65 -0.5t65 -0.5h259q68 12 97 12l2 -3q-1 -19 -11 -82t-16 -83l-19 -8q-27 58 -53 120l-189 -8v-258q126 0 256 14l7 -12q-3 -10 -28 -37t-33 -27q-5 0 -92.5 6t-109.5 6q0 -198 4 -238l115 -35l-10 -27q-26 0 -82.5 0.5t-86.5 0.5q-24 0 -73.5 -0.5
t-74.5 -0.5l6 26l71 35q4 19 4 281v259z" />
    <glyph glyph-name="G" unicode="G" horiz-adv-x="746" 
d="M374 285l45 35q105 7 278 7q-16 -132 -34 -232t-26 -114h-7q-53 7 -76 36q-78 -36 -153 -36q-157 0 -258.5 93t-101.5 249t110.5 255t278.5 99q90 0 155 -38q48 23 87 32l10 -7q-2 -21 -18.5 -89.5t-26.5 -93.5l-22 -11q-24 59 -43 130q-48 25 -116 25q-123 0 -198 -80.5
t-75 -213.5q0 -123 70 -207t204 -84q58 0 89 13q-1 45 11 211l-179 10z" />
    <glyph glyph-name="H" unicode="H" horiz-adv-x="791" 
d="M43 632l9 27q22 0 66 -1t65 -1t60 1t58 1l-9 -29l-46 -33v-219h299v219l-48 36l7 26q18 0 53.5 -1t52.5 -1q25 0 74.5 1t72.5 1l-7 -28l-78 -34v-256q0 -256 7 -279l88 -36l-8 -27q-23 0 -72 0.5t-74 0.5q-21 0 -61.5 -0.5t-60.5 -0.5l8 28l45 34q1 31 1 268
q-35 -7 -121 -7h-178q0 -226 1 -259l56 -37l-8 -27q-19 0 -57.5 0.5t-59.5 0.5q-24 0 -73 -0.5t-72 -0.5l8 27l72 34q6 138 6 287v251z" />
    <glyph glyph-name="I" unicode="I" horiz-adv-x="366" 
d="M44 633l9 26q21 0 64.5 -0.5t65.5 -0.5q24 0 70.5 0.5t69.5 0.5l-7 -27l-70 -33v-256q0 -253 5 -283l88 -34l-7 -27q-24 0 -74 1t-77 1t-77.5 -1t-73.5 -1l8 27l75 34q6 21 6 283v256z" />
    <glyph glyph-name="J" unicode="J" horiz-adv-x="344" 
d="M25 632l8 27q23 0 70 -0.5t72 -0.5q23 0 71.5 0.5t73.5 0.5l-6 -27l-70 -35v-434q0 -76 -21 -133q-24 -70 -78.5 -126.5t-97.5 -83.5l-28 22v8q56 45 76 93.5t22 132.5q2 64 0 278q-3 207 -4 244z" />
    <glyph glyph-name="K" unicode="K" horiz-adv-x="707" 
d="M698 659l-9 -26q-10 -4 -31 -10.5l-47.5 -15l-36.5 -11.5q-19 -5 -30 -18q-57 -56 -164 -186v-3l212 -264q99 -119 108 -133l-7 -7q-89 1 -133 21t-89 67q-91 92 -202 246v7q187 219 229 286q-2 35 2 49q51 1 84.5 0.5t70.5 -1.5t43 -1zM43 634l8 26q21 0 63 -0.5
t64 -0.5q24 0 71.5 0.5t70.5 0.5l-7 -27l-67 -34v-256q0 -253 5 -283l88 -34l-10 -27q-23 0 -73.5 0.5t-78.5 0.5q-25 0 -74 -0.5t-72 -0.5l7 27l75 34q6 22 6 283v257z" />
    <glyph glyph-name="L" unicode="L" horiz-adv-x="581" 
d="M38 633l9 26q21 0 66 -0.5t69 -0.5t70.5 0.5t69.5 0.5l-9 -28l-67 -33v-254q0 -238 4 -290l186 -12q81 117 106 142l18 -6q-1 -24 -14.5 -92t-20.5 -90q-10 0 -46.5 1t-114 2t-184.5 1q-24 0 -75.5 -0.5t-78.5 -0.5l8 27l81 34q4 18 4 283v255z" />
    <glyph glyph-name="M" unicode="M" horiz-adv-x="940" 
d="M62 631l11 26l201 2q1 -32 5 -41q9 -22 34.5 -75l74 -152l89.5 -185h2l196 409q3 7 3 44l218 -2l-7 -27l-84 -32q1 -82 11 -297.5t14 -239.5l91 -35l-7 -27q-22 0 -70.5 0.5t-72.5 0.5t-72 -0.5t-71 -0.5l8 27l60 35l-3 251t-3 234h-4l-239 -550l-23 -5l-229 538h-2
q-25 -284 -28 -466l89 -38l-6 -26q-19 0 -59 0.5t-61 0.5q-18 0 -55.5 -0.5t-55.5 -0.5l6 26l72 37q14 67 63 509q-11 25 -23 32t-73 28z" />
    <glyph glyph-name="N" unicode="N" horiz-adv-x="769" 
d="M281 25l-7 -26q-20 0 -63 0.5t-65 0.5q-19 0 -59 -0.5t-60 -0.5l5 27l79 40q9 91 19 487q-22 29 -38.5 44t-26 19t-43.5 16l11 27l174 5q4 -15 40 -60q203 -247 365 -425h2q0 79 -6 415l-98 39l9 26q21 0 61 -0.5t57 -0.5q19 0 59 0.5t60 0.5l-7 -27l-77 -38
q0 -1 -3 -100.5t-6 -212.5t-3 -195q0 -64 -5 -101l-19 -6q-123 92 -462 521h-2q-5 -376 7 -435z" />
    <glyph glyph-name="O" unicode="O" horiz-adv-x="796" 
d="M399 677h1q47 0 95 -12t95 -39t83 -65t58.5 -95.5t23.5 -126.5q1 -89 -30 -160t-83.5 -113t-114.5 -63.5t-127 -21.5q-50 0 -100 13t-97 40.5t-83 66.5t-57.5 96.5t-21.5 125.5q0 107 54 190t134.5 123.5t169.5 40.5zM388 637h-1q-96 0 -149 -85t-53 -212
q0 -81 25.5 -153t79 -119.5t123.5 -47.5q55 0 95 28t61.5 75t31.5 97t10 104q0 73 -24.5 143t-77 120t-121.5 50z" />
    <glyph glyph-name="P" unicode="P" horiz-adv-x="615" 
d="M39 626l9 26q172 15 235 15q143 0 211 -42q85 -53 85 -159q0 -46 -16.5 -83.5t-41.5 -60t-57.5 -37.5t-62.5 -20.5t-58 -5.5q-26 0 -44 5l-9 30q74 7 113.5 51.5t39.5 116.5q0 162 -196 162v-268q0 -104 1.5 -172.5t3 -93.5t1.5 -26l116 -38l-7 -27q-29 0 -88.5 0.5
t-89.5 0.5q-24 0 -72.5 -0.5t-72.5 -0.5l8 26l70 37q4 18 4 292v248z" />
    <glyph glyph-name="Q" unicode="Q" horiz-adv-x="796" 
d="M399 677h1q47 0 94.5 -12t94.5 -38.5t83 -65t59 -96.5t24 -127q1 -64 -17 -119t-43.5 -90t-60.5 -63t-61.5 -41.5t-51.5 -21.5v-2l291 -164l-11 -17q-116 -16 -230 34q-49 21 -199 109q-35 19 -56 26q-54 16 -100.5 41.5t-87 65t-64 98t-23.5 130.5q0 107 54 189.5
t134.5 123t169.5 40.5zM387 637h-1q-95 0 -148 -87t-53 -213q0 -125 61.5 -217t172.5 -109q52 8 90.5 39t60 76.5t31.5 95t10 103.5q0 75 -24.5 144.5t-77 118.5t-122.5 49z" />
    <glyph glyph-name="R" unicode="R" horiz-adv-x="654" 
d="M37 619l10 28q105 20 268 20q258 0 258 -167q0 -118 -152 -169v-1q43 -82 140 -217l87 -118l-9 -11q-75 1 -117.5 20.5t-75.5 57.5q-66 75 -166 248l2 6q76 19 116 56t40 107q0 148 -191 143v-303q0 -228 2 -259l95 -34l-7 -27q-25 0 -76 0.5t-77 0.5t-76 -0.5t-76 -0.5
l8 27l73 33q7 126 7 260v284z" />
    <glyph glyph-name="S" unicode="S" horiz-adv-x="536" 
d="M277 677h2q64 0 103 -29q19 14 75 33l13 -7q-1 -19 -13 -76.5t-24 -86.5l-17 -8q-28 50 -45 107q-26 20 -78 20q-54 0 -88.5 -29.5t-34.5 -76.5q0 -56 59 -89q19 -11 71 -37.5l78 -40.5q70 -38 96 -80t26 -92q0 -56 -24.5 -98t-64.5 -64t-81 -32t-82 -10q-62 0 -125 24
t-86 44q5 24 24.5 74t28.5 63l16 8q14 -33 40 -151q29 -18 92 -17q64 1 100.5 31.5t36.5 84.5q0 60 -66 97q-131 72 -148 82q-103 59 -103 164q1 79 60 135.5t159 56.5z" />
    <glyph glyph-name="T" unicode="T" horiz-adv-x="682" 
d="M137 659h418q70 13 94 14l4 -5q-3 -26 -15 -88.5t-18 -84.5l-17 -7q-1 3 -22.5 56.5t-28.5 74.5l-151 -8v-244q0 -156 6 -306l117 -35l-9 -27q-29 0 -86.5 0.5t-86.5 0.5q-30 0 -90 -0.5t-90 -0.5l7 27l103 35q3 30 3 274v276l-141 8q-51 -90 -76 -123l-18 -5
q-3 116 5 178l6 4q23 -1 86 -14z" />
    <glyph glyph-name="U" unicode="U" horiz-adv-x="746" 
d="M25 632l9 27q23 0 68.5 -1t67.5 -1t65 1t64 1l-7 -28l-56 -34q-1 -114 -1 -372q0 -70 26 -109q48 -69 150 -69q99 0 149 69q34 49 34 133q0 221 -4 348l-72 34l7 28q16 0 48.5 -1t47.5 -1q21 0 62.5 1t60.5 1l-5 -28l-83 -36q-5 -29 -11 -341q-2 -98 -39 -159
q-32 -52 -91 -82.5t-135 -30.5q-79 0 -144 28.5t-100 89.5q-28 49 -28 135q0 55 -0.5 134t-0.5 135t-1 94z" />
    <glyph glyph-name="V" unicode="V" horiz-adv-x="703" 
d="M259 659l-6 -28l-34 -29l179 -459h2q109 298 160 458l-35 31l9 27q11 0 34.5 -0.5t35.5 -0.5q18 0 52 1t51 1l-5 -27q-53 -22 -80 -47q-40 -76 -214 -529q-28 -44 -67 -76h-11l-237 596q-22 31 -89 57l10 26q21 0 66 -1t68 -1q19 0 56.5 0.5t54.5 0.5z" />
    <glyph glyph-name="W" unicode="W" horiz-adv-x="1039" 
d="M-1 632l10 27q21 0 65.5 -0.5t67.5 -0.5h105l-5 -26l-25 -27q24 -65 194 -465h3q14 26 94 194q-46 109 -116 256q-18 20 -75 42l7 27q19 0 58 -0.5t59 -0.5h78l1 -4l5 -48q7 -21 62 -147h3q60 131 65 144l3 51l2 4h44q17 0 50.5 0.5t49.5 0.5l-7 -27q-65 -25 -90 -49
q-50 -85 -97 -176l113 -262h2q79 200 166 454l-30 33l9 26h60q20 0 58 0.5t56 0.5l-8 -27q-53 -19 -86 -52q-38 -69 -211 -511q-26 -52 -64 -88h-11l-132 301h-2q-42 -81 -105 -214q-35 -59 -67 -87h-11l-118 273t-147 333q-21 24 -83 45z" />
    <glyph glyph-name="X" unicode="X" horiz-adv-x="712" 
d="M35 634l11 25q25 0 74.5 -0.5t73.5 -0.5q19 0 56 0.5t54 0.5l-6 -27l-27 -30q56 -104 104 -183h3q66 108 106 182l-31 33l10 25q10 0 36 -0.5t38 -0.5q21 0 62 0.5t61 0.5l-7 -27q-77 -23 -114 -55q-64 -83 -140 -199q160 -271 171 -287q15 -22 53 -35l75 -31l-8 -26
q-28 0 -84 1t-84 1q-18 0 -55.5 -1t-56.5 -1l5 27l24 30q-24 53 -118 215h-2q-110 -177 -126 -210l44 -35l-7 -27q-15 0 -45.5 1t-45.5 1q-21 0 -61 -1t-60 -1l8 27l66 28q26 9 44 31q99 135 161 228q-124 221 -151 262q-20 29 -46 36z" />
    <glyph glyph-name="Y" unicode="Y" horiz-adv-x="648" 
d="M3 634l10 25q23 0 68 -1t67 -1q18 0 54 0.5t53 0.5l-7 -29l-27 -22q5 -11 143 -264h2q116 227 131 260l-41 29l12 26q12 0 36 -0.5t35 -0.5q19 0 56.5 1t56.5 1l-6 -28l-55 -23q-26 -8 -44 -33q-86 -135 -152 -260q-9 -18 -9 -33q0 -207 4 -223l113 -33l-7 -27
q-26 0 -83.5 0.5t-87.5 0.5q-31 0 -92 -0.5t-90 -0.5l7 26l104 34q6 84 6 216q0 15 -14 39q-88 161 -157 275q-25 24 -86 45z" />
    <glyph glyph-name="Z" unicode="Z" horiz-adv-x="655" 
d="M620 659v-14l-399 -596l1 -2q27 0 149.5 -1.5t139.5 -1.5q16 19 54 72t50 68l20 3q-1 -28 -11 -100t-17 -92q-9 0 -94.5 1.5t-216 2.5t-250.5 1l-9 10l416 599l-2 3q-251 4 -279 3l-62 -124l-23 -7q-5 55 -9 181l4 2q90 -8 91 -8h447z" />
    <glyph glyph-name="bracketleft" unicode="[" horiz-adv-x="333" 
d="M182 654v-765l114 -26l-8 -30h-184v877h194l-9 -31z" />
    <glyph glyph-name="backslash" unicode="\" horiz-adv-x="359" 
d="M315 -56h-62l-213 733h62z" />
    <glyph glyph-name="bracketright" unicode="]" horiz-adv-x="333" 
d="M151 -111v765l-116 26l11 30h183v-877h-194l9 30z" />
    <glyph glyph-name="asciicircum" unicode="^" horiz-adv-x="539" 
d="M475 274l-70 -10l-137 315h-2l-131 -305l-71 -10l170 374l68 11z" />
    <glyph glyph-name="underscore" unicode="_" horiz-adv-x="483" 
d="M483 -99v-48h-483v48h483z" />
    <glyph glyph-name="grave" unicode="`" horiz-adv-x="386" 
d="M244 518l-26 -24l-153 157v15q43 22 104 19z" />
    <glyph glyph-name="a" unicode="a" horiz-adv-x="480" 
d="M281 266l1 28q1 107 -87 107q-24 0 -53 -12q-8 -77 -18 -116l-9 -6q-12 3 -41.5 34t-38.5 59q58 49 139 79q44 17 70 17q43 0 75 -15t48.5 -38.5t24.5 -48.5t8 -50q0 -94 -2 -222q19 -33 74 -53l-5 -15q-31 -25 -78 -25q-83 0 -105 54h-2q-72 -56 -118 -56q-60 0 -95 39
t-35 85q0 59 42 81q21 14 85 36.5t120 37.5zM157 132v-1q0 -38 22 -56t49 -18q25 0 43 18q8 7 8 22l2 132q-60 -22 -92 -40q-32 -21 -32 -57z" />
    <glyph glyph-name="b" unicode="b" horiz-adv-x="550" 
d="M70 -12v393q0 145 -3 238l-59 27l8 22q18 8 76.5 19t102.5 12q-3 -132 -3 -290q76 47 111 47q85 0 149.5 -59t64.5 -160q0 -65 -24.5 -115.5t-62 -78.5t-77.5 -42t-77 -14q-38 0 -101 35q-20 -12 -53.5 -22.5t-51.5 -11.5zM192 377v-322q23 -13 56 -13q56 0 97.5 47
t41.5 131q0 72 -37.5 121t-103.5 49q-22 0 -54 -13z" />
    <glyph glyph-name="c" unicode="c" horiz-adv-x="463" 
d="M33 213v1q0 78 41.5 135t100.5 82t125 25q46 0 83 -12t54 -27q-4 -19 -17 -57.5t-25 -59.5l-17 -5q-20 36 -39 115q-10 5 -29 5q-70 0 -109 -54.5t-39 -129.5q0 -80 42.5 -132t116.5 -52q14 0 26 6q54 40 86 56l9 -20q-7 -19 -30 -48.5t-37 -36.5q-43 -17 -95 -17
q-100 0 -173.5 56.5t-73.5 169.5z" />
    <glyph glyph-name="d" unicode="d" horiz-adv-x="565" 
d="M479 400v-324q28 -36 74 -57l-8 -17q-23 -15 -66 -15q-87 0 -114 54l-2 -1l-13 -9l-23 -14.5t-24 -13.5t-30.5 -12t-29.5 -4q-78 0 -144 58.5t-66 162.5q0 60 24 109t61.5 78.5t80.5 45t84 15.5q29 0 73 -27l1 1q0 111 -3 189l-63 27l7 21q83 26 184 32q-3 -126 -3 -299z
M357 76v312q-22 14 -53 14q-57 0 -99.5 -50t-42.5 -125q0 -74 40.5 -121t100.5 -47q27 0 54 17z" />
    <glyph glyph-name="e" unicode="e" horiz-adv-x="475" 
d="M331 226h-169q-1 -5 -1 -13q-1 -74 40 -120t105 -46q16 0 28 4q60 47 95 64l6 -16q-4 -22 -29 -51t-42 -40q-57 -21 -105 -21q-102 0 -164 61.5t-62 167.5q0 102 67 171t160 69q80 0 132.5 -48t52.5 -132q0 -26 -10 -32q-32 -18 -104 -18zM162 269h157q5 17 5 32
q0 51 -18.5 83t-51.5 32q-42 0 -67 -49t-25 -98z" />
    <glyph glyph-name="f" unicode="f" horiz-adv-x="324" 
d="M18 -1l3 24l66 34q3 45 3 199v137l-64 13l15 36h49q0 123 77 197q62 61 148 61q53 0 83 -25q-17 -64 -39 -101l-17 -7q-25 38 -45 90q-5 2 -15 2q-28 0 -47.5 -36.5t-21.5 -107.5q-1 -17 0 -43.5t1 -29.5h123l-15 -35l-108 -13q-2 -42 -2 -130q0 -185 3 -206l88 -33
l-6 -26q-23 0 -72 0.5t-74 0.5q-21 0 -65 -0.5t-68 -0.5z" />
    <glyph glyph-name="g" unicode="g" horiz-adv-x="502" 
d="M466 394l-67 -4v-2q11 -11 20.5 -34.5t9.5 -49.5q0 -72 -52.5 -115t-138.5 -43q-54 0 -98 22q-17 -23 -17 -35q0 -15 14 -30.5t29 -17.5q147 7 232 0q42 -4 70 -35q29 -31 29 -75q0 -41 -26 -80t-72 -69q-86 -58 -187 -58q-81 0 -130.5 30t-49.5 75q0 19 23 44l71 67v2
q-32 13 -60 44q-27 32 -27 66q0 13 24.5 40t49.5 46q-59 40 -59 115q0 68 57.5 113.5t142.5 45.5q35 0 80 -9q62 -10 82 -13l87 36l4 -8zM245 419h-1q-37 0 -54.5 -36.5t-17.5 -80.5q0 -46 18.5 -82t54.5 -36t53 34.5t17 81.5q0 43 -16.5 81t-53.5 38zM241 -23h-1
q-66 0 -80 -9q-27 -25 -27 -53q0 -41 37 -67t90 -26q59 0 98 25.5t39 72.5q0 42 -48 52q-35 5 -108 5z" />
    <glyph glyph-name="h" unicode="h" horiz-adv-x="573" 
d="M490 300v-221q0 -19 21 -30l48 -25l-7 -27q-111 -2 -194 8q10 70 10 256q0 126 -90 126q-39 0 -73 -25q0 -288 2 -302l71 -34l-7 -27q-21 0 -64 1t-65 1q-20 0 -61 -1t-61 -1l7 27l54 34q2 11 2 224q0 240 -3 333l-58 29l7 21q58 23 179 32q-3 -128 -3 -297l2 -1
q68 55 133 55q74 0 112 -47.5t38 -108.5z" />
    <glyph glyph-name="i" unicode="i" horiz-adv-x="293" 
d="M143 670l8 2q12 -4 32.5 -26.5t29.5 -41.5l-2 -11q-8 -15 -29 -37t-35 -31l-10 -3q-16 10 -35 31t-27 38l2 10q30 47 66 69zM32 402l6 23q78 24 171 31v-206q0 -145 2 -193l68 -30l-7 -28q-21 0 -62 0.5t-64 0.5q-19 0 -60 -0.5t-61 -0.5l6 28l54 30q2 70 2 195v123z" />
    <glyph glyph-name="j" unicode="j" horiz-adv-x="279" 
d="M139 670l9 2q12 -4 32 -27t29 -41l-2 -10q-8 -16 -29 -38t-35 -31l-10 -3q-37 24 -62 69l2 10q30 47 66 69zM30 401l8 22q17 8 75.5 20t92.5 13v-343q0 -95 -37 -167q-34 -65 -72 -103t-90 -68l-28 20v6q37 26 60 61.5t32 82t11.5 79t2.5 84.5q0 209 -4 269
q-24 12 -51 24z" />
    <glyph glyph-name="k" unicode="k" horiz-adv-x="532" 
d="M534 -11l-6 -5q-116 2 -167 51q-57 55 -141 195v7q96 110 130 160l21 59q104 0 149 -15l-14 -27q-33 -16 -118 -44q-28 -26 -65 -70v-3q23 -38 211 -308zM208 56l67 -28l-8 -29q-20 0 -61.5 1t-62.5 1q-20 0 -60 -1t-61 -1l5 27l55 31q2 60 2 324q0 186 -3 242l-57 24
l9 24q112 26 176 28q-3 -141 -3 -303q0 -254 2 -340z" />
    <glyph glyph-name="l" unicode="l" horiz-adv-x="288" 
d="M208 58l70 -30l-7 -29q-21 0 -62.5 1t-61.5 1q-22 0 -65.5 -1t-64.5 -1l5 27l59 33q2 66 2 338q0 175 -3 224l-56 27l8 23q21 9 79 17.5t97 10.5q-3 -125 -3 -298q0 -151 3 -343z" />
    <glyph glyph-name="m" unicode="m" horiz-adv-x="861" 
d="M90 274v94l-51 23l8 23q13 9 78.5 25.5t86.5 16.5l-7 -75l2 -1q54 40 88 58t69 18q41 0 71.5 -22.5t43.5 -56.5q102 79 163 79q67 0 102 -45.5t35 -106.5v-234q0 -9 21 -22l49 -23l-7 -26q-20 0 -60.5 0.5t-61.5 0.5q-19 0 -57 -0.5t-58 -0.5l6 27l42 33q4 120 4 216
q0 51 -22.5 78t-56.5 27q-40 0 -90 -40q8 -27 8 -71v-211l54 -32l-7 -27q-17 0 -53 0.5t-54 0.5q-19 0 -59 -0.5t-60 -0.5l6 26l48 33q3 39 3 227q0 44 -22 68.5t-60 24.5q-35 0 -80 -35q0 -267 2 -285l52 -32l-7 -27q-17 0 -54.5 0.5t-57.5 0.5t-61 -0.5t-60 -0.5l5 26
l56 33q3 21 3 216z" />
    <glyph glyph-name="n" unicode="n" horiz-adv-x="581" 
d="M89 284v84l-51 24l8 22q12 9 78 25.5t87 16.5l-7 -75l2 -1q95 76 151 76q74 0 107.5 -47t33.5 -111v-225q0 -15 18 -22l53 -25l-7 -27q-20 0 -63 0.5t-65 0.5q-17 0 -53 -0.5t-55 -0.5l6 27l40 32q4 116 4 226q0 47 -21.5 71.5t-57.5 24.5q-43 0 -86 -38q0 -267 2 -286
l51 -30l-6 -27q-35 1 -110 1q-21 0 -62 -0.5t-61 -0.5l7 27l54 30q3 21 3 228z" />
    <glyph glyph-name="o" unicode="o" horiz-adv-x="543" 
d="M272 456h1q104 0 170 -64.5t66 -165.5q0 -107 -67 -173t-171 -66q-99 0 -168.5 62.5t-69.5 167.5q0 107 72 173t167 66zM269 417h-1q-34 0 -57.5 -30t-33 -70.5t-9.5 -84.5q0 -48 11 -93t37 -79t63 -34q28 0 47.5 18.5t29.5 49t14 60.5t4 61q0 46 -10 89.5t-34.5 78
t-60.5 34.5z" />
    <glyph glyph-name="p" unicode="p" horiz-adv-x="560" 
d="M204 456l-3 -60h2q93 59 129 59q70 0 132.5 -58t62.5 -155q0 -65 -24 -116.5t-61.5 -80.5t-77.5 -43.5t-78 -14.5q-25 0 -80 29l-2 -2q0 -87 4 -169l92 -34l-7 -27q-25 0 -74 0.5t-73 0.5q-20 0 -62.5 -0.5t-63.5 -0.5l9 29l50 29q4 100 4 265v267l-55 34l8 22
q12 5 74 15t94 11zM205 361v-305q24 -13 54 -13q58 0 100 47.5t42 127.5q0 74 -40 118.5t-95 44.5q-27 0 -61 -20z" />
    <glyph glyph-name="q" unicode="q" horiz-adv-x="556" 
d="M478 368v-233q0 -64 0.5 -170t0.5 -119l81 -34l-6 -28q-23 0 -69.5 0.5t-70.5 0.5q-22 0 -66 -0.5t-67 -0.5l5 27l65 34q5 145 5 181l-2 1q-67 -40 -100 -40q-96 0 -158.5 63t-62.5 165q0 96 72.5 168.5t169.5 72.5q49 0 98 -35q21 13 64 23.5t70 11.5l4 -7
q-7 -31 -33 -81zM356 67v317q-21 16 -51 16q-59 0 -100 -50.5t-41 -124.5t42.5 -122t102.5 -48q26 0 47 12z" />
    <glyph glyph-name="r" unicode="r" horiz-adv-x="406" 
d="M36 395l7 22q13 7 70.5 22.5t84.5 16.5q12 -41 10 -89h3q25 41 60.5 65t70.5 24q36 0 54 -20q-1 -21 -16 -63.5t-29 -66.5l-15 -6q-20 29 -41 71q-5 4 -15 4q-18 0 -38 -17.5t-31 -41.5v-258l100 -31l-6 -27q-25 0 -78 1t-80 1q-20 0 -61 -1t-60 -1l4 27l55 31
q5 129 5 309z" />
    <glyph glyph-name="s" unicode="s" horiz-adv-x="405" 
d="M204 456h1q41 0 76 -24q24 17 58 29l10 -6q-7 -93 -25 -134l-17 -6q-21 33 -37 78q-22 18 -59 18q-31 0 -48.5 -17.5t-17.5 -39.5q0 -29 38 -49l120 -60q73 -39 73 -109q0 -43 -20 -74t-51.5 -46.5t-61.5 -22t-60 -6.5q-41 0 -83.5 12.5t-65.5 28.5q1 19 10 63.5t15 58.5
l15 7q10 -17 33 -68t25 -54q25 -10 55 -10q34 0 57 19t23 45q0 33 -36 52l-90 46q-96 46 -96 128q0 57 42 99t117 42z" />
    <glyph glyph-name="t" unicode="t" horiz-adv-x="351" 
d="M200 442h149l-18 -39l-131 -15q0 -23 -0.5 -115t-0.5 -156q0 -28 12 -42q19 -15 48 -15q47 0 80 25l5 -1l-1 -35q-18 -27 -53 -44.5t-79 -17.5q-75 0 -112 45q-22 29 -22 105v251l-63 16l15 38h50q6 24 21 64t25 56q13 9 40.5 17.5t38.5 8.5z" />
    <glyph glyph-name="u" unicode="u" horiz-adv-x="565" 
d="M81 380l-56 29l9 23q61 16 174 18q-7 -126 -7 -282q0 -57 16 -79q24 -26 62 -26q49 0 82 39v263q-1 11 -13 18.5t-58 26.5l10 23q89 19 186 17q-3 -46 -3 -372q20 -36 72 -53l-5 -14q-7 -7 -30.5 -14.5t-46.5 -7.5q-87 0 -107 70h-2q-67 -72 -143 -72q-62 0 -100 36
q-42 38 -42 121q0 38 1 122t1 114z" />
    <glyph glyph-name="v" unicode="v" horiz-adv-x="474" 
d="M-9 419l9 25q19 0 57.5 -0.5t58.5 -0.5q18 0 53 0.5t52 0.5l-8 -28l-26 -32q3 -10 91 -248h2q44 117 85 244l-30 38l7 26q19 -1 62 -1q14 0 42.5 0.5t41.5 0.5l-7 -28q-36 -21 -59 -42q-34 -64 -137 -329q-28 -42 -59 -63h-11q-3 7 -22.5 56.5l-58.5 146.5l-79 194
q-27 21 -64 40z" />
    <glyph glyph-name="w" unicode="w" horiz-adv-x="718" 
d="M229 444l-5 -28l-33 -30q12 -43 78 -241h2q50 130 70 194l-10 70q8 7 41 19t53 16l9 -3l7 -82l91 -222h2q41 137 70 247l-41 34l9 26q11 0 35 -1t37 -1q14 0 42 1t42 1l-6 -26q-37 -22 -60 -40q-29 -62 -122 -340q-29 -35 -60 -56h-6l-114 272h-2l-88 -214
q-25 -35 -58 -58h-7q-129 362 -146 401q-28 19 -62 34l8 27q18 0 57.5 -1t60.5 -1q17 0 53 1t53 1z" />
    <glyph glyph-name="x" unicode="x" horiz-adv-x="507" 
d="M216 409l60 -106h2q39 62 46 76q10 22 8 65q10 0 30.5 -0.5t30.5 -0.5q14 0 44 0.5t47 0.5l-7 -27q-81 -32 -103 -55q-64 -80 -76 -97q12 -23 104 -176q16 -25 47 -39l60 -24l-9 -26l-67 -2q-67 -3 -124 -3q-32 71 -87 166h-2q-42 -67 -57 -98q-4 -11 0 -17t22 -25
l-4 -22q-12 0 -39 0.5t-41 0.5q-16 0 -48.5 -0.5t-47.5 -0.5l6 25l55 27q32 16 45 34q53 66 89 118q-76 134 -101 173q-11 14 -86 41l9 27q19 0 58 -0.5t59 -0.5q12 0 37.5 0.5t39.5 0.5v-35z" />
    <glyph glyph-name="y" unicode="y" horiz-adv-x="477" 
d="M325 418l9 26q11 0 33.5 -0.5t34.5 -0.5q18 0 49 0.5t44 0.5l-7 -27q-29 -15 -61 -37q-15 -30 -49.5 -112.5l-82 -198l-75.5 -181.5q-26 -118 -27 -120q-8 -4 -23 -4q-27 0 -54 16t-33 30q12 27 98 105l38 81q-1 3 -67 163.5t-91 214.5q-9 16 -66 43l8 27q20 0 58.5 -0.5
t58.5 -0.5q17 0 52 0.5t53 0.5l-6 -27l-27 -27q13 -37 91 -243h3q62 177 79 239z" />
    <glyph glyph-name="z" unicode="z" horiz-adv-x="462" 
d="M419 442l6 -10q-28 -50 -127 -210.5l-109 -177.5v-2q110 0 158 8q54 76 78 96l17 4q-1 -22 -9.5 -78.5t-14.5 -77.5q-15 0 -91.5 3t-131.5 3h-168l-5 8l251 390v2q-60 0 -146 -5q-34 -60 -58 -89l-16 -4q-4 13 -6.5 72t-0.5 74l3 3l79 -9h291z" />
    <glyph glyph-name="braceleft" unicode="{" horiz-adv-x="333" 
d="M223 347l-105 -66v-2l105 -67q-12 -118 -12 -209q0 -54 20 -89t68 -63l-10 -29q-66 17 -118 63t-52 99q0 77 31 225l-98 63l4 15l94 63q-31 116 -31 209q0 52 54.5 99t115.5 63l10 -28q-50 -27 -69 -62.5t-19 -90.5q0 -107 12 -193z" />
    <glyph glyph-name="bar" unicode="|" horiz-adv-x="343" 
d="M132 724h77v-965h-77v965z" />
    <glyph glyph-name="braceright" unicode="}" horiz-adv-x="331" 
d="M111 211l107 67v1l-107 67q13 95 13 198q0 53 -20 87.5t-68 61.5l9 28q66 -15 118.5 -62t52.5 -100q0 -93 -32 -210l99 -62l-5 -15l-94 -64q32 -126 32 -219q0 -54 -53.5 -102t-117.5 -65l-9 29q49 26 68.5 64t19.5 92q0 126 -13 204z" />
    <glyph glyph-name="asciitilde" unicode="~" horiz-adv-x="635" 
d="M545 322l34 -29q-37 -75 -74 -107t-84 -32q-44 0 -119 49q-69 45 -100 45q-53 0 -109 -96l-38 25q67 142 163 142q20 0 43.5 -9t38.5 -18l47 -29q59 -38 91 -38q53 0 107 97z" />
    <glyph glyph-name="uni00A0" unicode="&#xa0;" horiz-adv-x="229" 
 />
    <glyph glyph-name="exclamdown" unicode="&#xa1;" horiz-adv-x="267" 
d="M128 285l-9 -4q-14 6 -37.5 32t-32.5 46l3 12q7 18 31 43t40 34l11 3q18 -10 38.5 -33.5t31.5 -43.5l-2 -11q-35 -54 -74 -78zM109 206l35 16l20.5 -144.5l18 -125.5t13.5 -82l25 -48q-62 -37 -169 -40l-7 8q1 8 10 70.5l23.5 156.5z" />
    <glyph glyph-name="cent" unicode="&#xa2;" horiz-adv-x="530" 
d="M299 546v79l36 11v-89q44 -1 90 -16t67 -35q-22 -70 -44 -101l-17 -8q-18 41 -32 106q-23 12 -64 11v-364q29 -1 50 4q66 48 94 63l10 -15q-6 -22 -33 -52t-45 -38q-37 -12 -76 -15v-78l-36 -13v89q-47 1 -89.5 14t-79 38.5t-58 70t-21.5 103.5q0 74 40.5 128.5
t94.5 78.5t113 28zM299 145v355q-58 -14 -87 -61t-29 -116q0 -71 31 -117t85 -61z" />
    <glyph glyph-name="sterling" unicode="&#xa3;" horiz-adv-x="530" 
d="M479 184l23 -14q-2 -24 -14 -80t-27 -95q-5 0 -90 2.5t-142 2.5h-221v12l38 60q28 11 34 21q43 53 38 212l-99 8l18 39h81l-1 28q0 35 5.5 70t31 86.5t69.5 81.5q54 36 124 36q78 0 112 -32q-3 -20 -16 -59t-22 -56l-20 -10q-24 55 -40 115q-8 2 -16 2q-44 0 -73.5 -44
t-25.5 -143q0 -9 0.5 -35.5t1.5 -39.5h160l-17 -39l-144 -8q-1 -77 -29 -123t-83 -86l1 -2q111 -4 278 5l27 36.5t38 48.5z" />
    <glyph glyph-name="currency" unicode="&#xa4;" horiz-adv-x="530" 
d="M483 509l-65 -59q41 -55 41 -122q0 -73 -48 -127l66 -54l-45 -50l-58 69q-44 -38 -114 -38q-29 0 -63.5 10t-54.5 28l-57 -68l-42 48l64 52q-45 53 -45 130q0 72 41 121l-66 56l44 50l60 -70q56 43 123 43t117 -44l58 70zM261 478h-1q-57 0 -91 -43t-34 -107
q0 -65 36 -107.5t90 -42.5q57 0 91 42t34 108q0 64 -36 107t-89 43z" />
    <glyph glyph-name="yen" unicode="&#xa5;" horiz-adv-x="530" 
d="M71 348h116l-123 241l-56 27l9 26q20 0 59.5 -0.5t59.5 -0.5t61.5 0.5t62.5 0.5l-9 -27l-51 -26l95 -221h2l98 217l-66 32l12 25q14 0 43.5 -0.5t45.5 -0.5t47 0.5t46 0.5l-7 -26l-59 -32q-84 -148 -127 -236h130l-14 -40h-129l1 -75h142l-14 -37h-128q0 -33 1 -66
t1.5 -53t0.5 -21l92 -32l-8 -25q-25 0 -74.5 0.5t-74.5 0.5q-24 0 -74 -0.5t-75 -0.5l6 25l79 32q4 11 6 140h-140l13 37h126l1 75h-138z" />
    <glyph glyph-name="brokenbar" unicode="&#xa6;" horiz-adv-x="343" 
d="M132 666h77v-366h-77v366zM132 -183v367h77v-367h-77z" />
    <glyph glyph-name="section" unicode="&#xa7;" horiz-adv-x="475" 
d="M101 45l15 5q7 -17 35 -107q16 -8 44 -8q30 0 55 17.5t25 43.5q0 38 -59 101l-104 118q-78 90 -78 175q0 126 133 205q50 31 97 31q30 0 53 -14q15 13 55 26l12 -6q0 -17 -11 -63.5t-20 -63.5l-14 -6q-17 30 -32 78q-16 10 -45 10t-45 -15t-16 -35q0 -21 25 -53
q17 -23 121 -141q90 -98 90 -188q0 -55 -31.5 -112.5t-95.5 -102.5q-57 -42 -118 -42q-74 0 -126 38q-1 13 12.5 55t22.5 54zM335 7h2q37 46 37 106q0 70 -68 148q-106 122 -124 147q-39 54 -39 98q0 22 6 37h-3q-50 -46 -50 -113q0 -63 59 -135l62 -70.5l58 -65.5
q37 -42 49.5 -70t12.5 -57q0 -11 -2 -25z" />
    <glyph glyph-name="dieresis" unicode="&#xa8;" horiz-adv-x="386" 
d="M96 651l8 2q11 -5 29.5 -26t25.5 -36l-2 -9q-11 -30 -56 -63l-10 -2q-33 21 -56 62l2 10q26 40 59 62zM288 651l9 2q10 -5 28.5 -26t26.5 -36l-2 -9q-7 -15 -24.5 -33.5t-31.5 -29.5l-10 -2q-15 10 -31.5 28.5t-24.5 33.5l1 10q29 42 59 62z" />
    <glyph glyph-name="copyright" unicode="&#xa9;" horiz-adv-x="685" 
d="M343 628h1q126 0 213.5 -91t87.5 -222q0 -130 -87.5 -219.5t-214.5 -89.5t-214.5 89.5t-87.5 219.5q0 131 87.5 222t214.5 91zM345 587h-1q-108 0 -180.5 -78t-72.5 -193q0 -114 73 -191.5t181 -77.5q107 0 178.5 77.5t71.5 191.5q0 115 -71 193t-179 78zM367 478h1
q36 0 60 -14q6 3 49 14l6 -3q0 -12 -7.5 -52.5t-10.5 -47.5l-13 -7q-16 22 -32 67q-13 9 -38 9q-46 0 -76.5 -36t-30.5 -89t31 -88.5t82 -35.5q12 0 23 4q9 7 23 20.5t24.5 22.5t15.5 12l13 -10q-2 -11 -16 -39t-21 -35q-36 -14 -79 -14q-86 0 -136.5 43.5t-50.5 114.5
q0 47 19 81t49.5 51t59 24.5t55.5 7.5z" />
    <glyph glyph-name="ordfeminine" unicode="&#xaa;" horiz-adv-x="321" 
d="M183 465v11q1 26 -13.5 37.5t-35.5 11.5q-22 0 -34 -9q-7 -33 -20 -60l-10 -3q-5 1 -18.5 19.5t-19.5 35.5q34 28 81 43q30 11 50 11q54 0 79.5 -27t25.5 -61q0 -41 -2 -113q10 -20 43 -36l-3 -12q-17 -12 -55 -12q-55 0 -67 35q-47 -35 -79 -35q-36 0 -57.5 23t-21.5 51
q0 32 26 48q33 19 131 42zM182 369l1 67q-32 -7 -54 -21q-19 -12 -19 -30q0 -16 11.5 -26t26.5 -10q17 0 28 8q6 4 6 12z" />
    <glyph glyph-name="guillemotleft" unicode="&#xab;" horiz-adv-x="534" 
d="M270 44l-27 -18q-47 60 -100.5 114.5t-88.5 82.5q92 81 185 196l28 -19q-58 -118 -95 -177q65 -101 98 -179zM478 44l-29 -18q-51 62 -104.5 117.5t-83.5 79.5q101 94 184 196l27 -19q-77 -149 -94 -177q60 -90 100 -179z" />
    <glyph glyph-name="logicalnot" unicode="&#xac;" horiz-adv-x="596" 
d="M441 55v215h-361l17 62h416v-262z" />
    <glyph glyph-name="uni00AD" unicode="&#xad;" horiz-adv-x="373" 
d="M288 211l-246 -33l34 88l53 -1l204 13v-9z" />
    <glyph glyph-name="registered" unicode="&#xae;" horiz-adv-x="305" 
d="M154 659h1q51 0 86.5 -36t35.5 -89q0 -54 -35.5 -89.5t-87.5 -35.5t-87.5 35.5t-35.5 89.5q0 53 35.5 89t87.5 36zM154 634h-1q-38 0 -65 -29.5t-27 -70.5t27 -70.5t66 -29.5t66 29.5t27 71.5q0 41 -27.5 70t-65.5 29zM96 579l2 13q22 5 54 5q51 0 51 -30q0 -5 -1.5 -9.5
t-4.5 -8t-5 -5t-6 -4t-5 -3.5q8 -18 23 -36q9 -15 15 -23l-1 -2q-27 0 -42 13q-14 12 -30 46q9 4 13.5 6.5t7.5 7.5t3 12q0 23 -29 21v-88l20 -6l-4 -10h-61l2 10l14 5v87z" />
    <glyph glyph-name="macron" unicode="&#xaf;" horiz-adv-x="386" 
d="M297 547h-226l18 68h227z" />
    <glyph glyph-name="degree" unicode="&#xb0;" horiz-adv-x="284" 
d="M143 647h1q47 0 78.5 -32.5t31.5 -80.5t-32 -80t-79 -32q-48 0 -79.5 32t-32.5 80q0 48 32 80.5t80 32.5zM141 607h-1q-24 0 -41.5 -20.5t-17.5 -51.5q1 -33 18.5 -53t43.5 -20t44 20.5t18 52.5q0 30 -18 51t-46 21z" />
    <glyph glyph-name="plusminus" unicode="&#xb1;" horiz-adv-x="596" 
d="M527 62l-12 -62h-452l12 62h452zM331 120l-71 -11v199h-197l12 62h185v173l71 13v-186h196l-12 -62h-184v-188z" />
    <glyph glyph-name="twosuperior" unicode="&#xb2;" 
d="M300 546l20 -14q-11 -67 -29 -110q-2 0 -58 1.5t-90 1.5h-109v13l23 45q14 7 21 13q119 87 119 167q0 31 -16.5 49.5t-44.5 18.5q-14 0 -24 -5q-11 -49 -29 -85l-15 -8q-22 31 -35 79q71 59 143 59q51 0 86.5 -27t35.5 -78q0 -16 -4 -30t-14 -27.5t-18.5 -23t-28 -23.5
t-30.5 -21l-37.5 -23t-38.5 -24q13 0 65.5 2t67.5 2q26 33 40 48z" />
    <glyph glyph-name="threesuperior" unicode="&#xb3;" 
d="M89 658l-13 -5q-20 23 -32 66q25 22 62.5 37t71.5 15q56 0 87 -23t31 -60q0 -54 -86 -77l-1 -3q108 -10 108 -82q-1 -50 -49 -79t-111 -29q-79 0 -119 34q2 11 14.5 39t18.5 35l13 5q19 -48 28 -75q9 -4 26 -4q34 0 54.5 20.5t20.5 51.5q0 30 -14.5 44t-33.5 16
q-54 -9 -61 -9l-5 9q0 4 8.5 18t15.5 20q5 1 19 0t21 -1q35 13 35 53q0 27 -17 43.5t-42 16.5q-13 0 -25 -6q-12 -47 -25 -70z" />
    <glyph glyph-name="acute" unicode="&#xb4;" horiz-adv-x="386" 
d="M176 493l-28 22l89 170q56 4 96 -19v-15z" />
    <glyph glyph-name="mu" unicode="&#xb5;" horiz-adv-x="564" 
d="M473 387v-314q11 -18 84 -26l-10 -29q-33 -29 -101 -31q-29 0 -55.5 16.5t-35.5 55.5l-2 1q-61 -73 -116 -73q-39 0 -63 25l-2 -1q-12 -167 9 -235l-10 -8q-58 4 -79 35t-22 98v74v90v104q0 40 0.5 140t0.5 124q11 7 53.5 15t73.5 8l2 -3q0 -3 -7 -108.5t-11 -198.5
q-1 -30 13 -51q23 -31 68 -31q51 0 88 42v327q11 6 59 14.5t81 8.5l5 -8z" />
    <glyph glyph-name="paragraph" unicode="&#xb6;" horiz-adv-x="529" 
d="M423 655l-35 -117v-489q0 -71 -11.5 -125.5t-29.5 -86.5t-42 -52t-45.5 -26.5t-44.5 -6.5q-21 0 -36 7q-34 34 -49 66l10 15q24 -8 55 -8q62 0 103 47t41 162v31q-41 -14 -55 -14q-41 0 -83 15.5t-79 43.5t-60.5 74.5t-23.5 102.5q0 114 82 180t200 66h16l4 101z" />
    <glyph glyph-name="periodcentered" unicode="&#xb7;" horiz-adv-x="244" 
d="M120 321l9 3q14 -7 37.5 -33t33.5 -46l-3 -11q-8 -18 -31.5 -43t-40.5 -35l-11 -3q-19 11 -40 34.5t-31 43.5l3 11q35 55 74 79z" />
    <glyph glyph-name="cedilla" unicode="&#xb8;" horiz-adv-x="386" 
d="M202 2h43l-39 -54q36 -18 50 -36t14 -42q0 -70 -123 -102l-14 32q66 25 66 56q0 14 -14.5 24t-53.5 26z" />
    <glyph glyph-name="onesuperior" unicode="&#xb9;" 
d="M134 698l-78 1l7 24q2 1 25.5 8.5l58 18.5t69.5 21h12q0 -36 2 -166t2 -135l68 -21l-9 -24q-19 0 -56 0.5t-55 0.5q-20 0 -61 -0.5t-61 -0.5l9 24l60 21q7 136 7 228z" />
    <glyph glyph-name="ordmasculine" unicode="&#xba;" horiz-adv-x="351" 
d="M176 563h1q64 0 106.5 -34.5t42.5 -93.5q0 -60 -42.5 -97t-110.5 -37q-62 0 -105 34t-43 94t45.5 97t105.5 37zM174 532h-1q-26 0 -39 -31t-13 -64q0 -38 15 -71.5t42 -33.5q52 0 52 100q0 37 -13 68.5t-43 31.5z" />
    <glyph glyph-name="guillemotright" unicode="&#xbb;" horiz-adv-x="534" 
d="M262 401l28 18q47 -61 102 -116t87 -81q-92 -81 -185 -196l-28 19q58 118 96 177q-67 104 -100 179zM55 401l29 18q50 -62 104 -117.5t83 -79.5q-113 -109 -183 -196l-27 19q87 165 94 177q-60 90 -100 179z" />
    <glyph glyph-name="onequarter" unicode="&#xbc;" horiz-adv-x="754" 
d="M137 581l-78 1l7 24q2 1 25.5 8.5l58 18.5t69.5 21h12q0 -36 2 -166t2 -135l68 -21l-9 -24q-18 0 -55 0.5t-56 0.5q-21 0 -61 -0.5t-61 -0.5l9 24l60 21q7 136 7 228zM569 671l36 -26l-420 -684l-33 30zM624 99l1 -58l60 -20l-9 -22q-16 0 -50 0.5t-51 0.5t-53 -0.5
t-54 -0.5l8 22l52 20l3 55l-141 -2l-10 19q24 42 79.5 122t66.5 90q17 11 98 20v-213h31q9 11 29 26h11q1 -10 -3 -44.5t-7 -42.5l-11 -3q-14 14 -23 32zM532 133l8 153h-5q-29 -43 -94 -152z" />
    <glyph glyph-name="onehalf" unicode="&#xbd;" horiz-adv-x="754" 
d="M129 581l-78 1l7 24q2 1 25.5 8.5l58 18.5t69.5 21h12q0 -36 2 -166t2 -135l68 -21l-9 -24q-18 0 -55 0.5t-56 0.5q-21 0 -61 -0.5t-61 -0.5l9 24l60 21q7 136 7 228zM559 671l36 -26l-420 -684l-33 30zM697 120l20 -14q-11 -67 -29 -110q-2 0 -58 1.5t-90 1.5h-109v13
l23 45q14 7 21 13q119 87 119 167q0 31 -16.5 49.5t-44.5 18.5q-14 0 -24 -5q-11 -50 -29 -85l-15 -8q-22 31 -35 79q71 59 143 59q51 0 86.5 -27t35.5 -78q0 -16 -4 -30t-14 -27.5t-18.5 -23t-28 -23.5t-30.5 -21l-37.5 -23t-38.5 -24q13 0 65.5 2t67.5 2q26 33 40 48z" />
    <glyph glyph-name="threequarters" unicode="&#xbe;" horiz-adv-x="754" 
d="M101 541l-13 -5q-20 23 -32 66q25 22 62.5 37t71.5 15q56 0 87 -23t31 -60q0 -54 -86 -77l-1 -3q108 -10 108 -82q-1 -50 -49 -79t-111 -29q-79 0 -119 34q2 11 14.5 39t18.5 35l13 5q19 -48 28 -75q9 -4 26 -4q34 0 54.5 20.5t20.5 51.5q0 30 -14.5 44t-33.5 16
q-54 -9 -61 -9l-5 9q0 4 8.5 18t15.5 20q5 1 19 0t21 -1q35 13 35 53q0 27 -17 43.5t-42 16.5q-13 0 -25 -6q-12 -47 -25 -70zM577 671l36 -26l-420 -684l-33 30zM625 99l1 -58l60 -20l-9 -22q-16 0 -50 0.5t-51 0.5t-53 -0.5t-54 -0.5l8 22l52 20l3 55l-141 -2l-10 19
q24 42 79.5 122t66.5 90q17 11 98 20v-213h31q9 11 29 26h11q1 -10 -3 -44.5t-7 -42.5l-11 -3q-14 14 -23 32zM533 133l8 153h-5q-29 -43 -94 -152z" />
    <glyph glyph-name="questiondown" unicode="&#xbf;" horiz-adv-x="433" 
d="M230 284l-9 -3q-14 6 -37.5 32t-33.5 46l3 12q7 18 31 43t40 34l12 3q19 -10 39.5 -33.5t30.5 -43.5l-2 -11q-33 -51 -74 -79zM217 -218h-1q-70 0 -123.5 39t-53.5 117q0 59 70 119q96 82 95 112q-1 16 -14 43l28 14q31 -10 60.5 -43t30.5 -73q-10 -25 -29.5 -48.5
t-64.5 -66.5q-62 -59 -62 -96q0 -26 22 -49.5t63 -23.5q25 0 43 9q17 74 40 116l15 6q37 -45 54 -109q-37 -29 -86.5 -47.5t-86.5 -18.5z" />
    <glyph glyph-name="Agrave" unicode="&#xc0;" horiz-adv-x="726" 
d="M293 633l104 49l4 -5q0 -31 15 -72q18 -53 196 -500q14 -32 31.5 -45t72.5 -35l-8 -26q-23 0 -72 0.5t-73 0.5q-18 0 -55.5 -0.5t-57.5 -0.5l8 25l36 32q-3 10 -12.5 34l-25 64.5l-27.5 72.5q-102 -6 -217 -4l-58 -159l82 -38l-7 -27q-18 0 -56 0.5t-56 0.5t-54 -0.5
t-54 -0.5l8 27l69 39q58 114 215 510q5 12 2 27zM326 527h-2l-92 -245q16 0 89.5 -2t91.5 -2zM417 745l-18 -30l-206 77l-1 12q27 53 64 67z" />
    <glyph glyph-name="Aacute" unicode="&#xc1;" horiz-adv-x="726" 
d="M293 633l104 49l4 -5q0 -31 15 -72q18 -53 196 -500q14 -32 31.5 -45t72.5 -35l-8 -26q-23 0 -72 0.5t-73 0.5q-18 0 -55.5 -0.5t-57.5 -0.5l8 25l36 32q-3 10 -12.5 34l-25 64.5l-27.5 72.5q-102 -6 -217 -4l-58 -159l82 -38l-7 -27q-18 0 -56 0.5t-56 0.5t-54 -0.5
t-54 -0.5l8 27l69 39q58 114 215 510q5 12 2 27zM326 527h-2l-92 -245q16 0 89.5 -2t91.5 -2zM307 704l-17 28l160 127q18 -2 39 -22t32 -44l-1 -13z" />
    <glyph glyph-name="Acircumflex" unicode="&#xc2;" horiz-adv-x="726" 
d="M293 633l104 49l4 -5q0 -31 15 -72q18 -53 196 -500q14 -32 31.5 -45t72.5 -35l-8 -26q-23 0 -72 0.5t-73 0.5q-18 0 -55.5 -0.5t-57.5 -0.5l8 25l36 32q-3 10 -12.5 34l-25 64.5l-27.5 72.5q-102 -6 -217 -4l-58 -159l82 -38l-7 -27q-18 0 -56 0.5t-56 0.5t-54 -0.5
t-54 -0.5l8 27l69 39q58 114 215 510q5 12 2 27zM326 527h-2l-92 -245q16 0 89.5 -2t91.5 -2zM346 854h20l137 -123l-16 -27l-131 64l-131 -64l-16 27z" />
    <glyph glyph-name="Atilde" unicode="&#xc3;" horiz-adv-x="726" 
d="M293 633l104 49l4 -5q0 -31 15 -72q18 -53 196 -500q14 -32 31.5 -45t72.5 -35l-8 -26q-23 0 -72 0.5t-73 0.5q-18 0 -55.5 -0.5t-57.5 -0.5l8 25l36 32q-3 10 -12.5 34l-25 64.5l-27.5 72.5q-102 -6 -217 -4l-58 -159l82 -38l-7 -27q-18 0 -56 0.5t-56 0.5t-54 -0.5
t-54 -0.5l8 27l69 39q58 114 215 510q5 12 2 27zM326 527h-2l-92 -245q16 0 89.5 -2t91.5 -2zM494 823l26 -20q-56 -94 -108 -94q-14 0 -66 25q-36 20 -50 20q-25 0 -67 -49l-25 22q58 99 107 99q19 0 61 -24q40 -22 55 -22q24 0 67 43z" />
    <glyph glyph-name="Adieresis" unicode="&#xc4;" horiz-adv-x="726" 
d="M293 633l104 49l4 -5q0 -31 15 -72q18 -53 196 -500q14 -32 31.5 -45t72.5 -35l-8 -26q-23 0 -72 0.5t-73 0.5q-18 0 -55.5 -0.5t-57.5 -0.5l8 25l36 32q-3 10 -12.5 34l-25 64.5l-27.5 72.5q-102 -6 -217 -4l-58 -159l82 -38l-7 -27q-18 0 -56 0.5t-56 0.5t-54 -0.5
t-54 -0.5l8 27l69 39q58 114 215 510q5 12 2 27zM326 527h-2l-92 -245q16 0 89.5 -2t91.5 -2zM249 842l9 2q10 -4 29 -25t27 -38l-2 -9q-6 -15 -24.5 -34.5t-32.5 -29.5l-10 -2q-16 9 -32.5 28t-25.5 35l2 9q27 42 60 64zM460 842l8 2q11 -4 30 -25t27 -38l-3 -9
q-6 -15 -24.5 -34.5t-32.5 -29.5l-10 -2q-15 10 -32 29t-25 34l2 9q24 40 60 64z" />
    <glyph glyph-name="Aring" unicode="&#xc5;" horiz-adv-x="726" 
d="M293 633l104 49l4 -5q0 -31 15 -72q18 -53 196 -500q14 -32 31.5 -45t72.5 -35l-8 -26q-23 0 -72 0.5t-73 0.5q-18 0 -55.5 -0.5t-57.5 -0.5l8 25l36 32q-3 10 -12.5 34l-25 64.5l-27.5 72.5q-102 -6 -217 -4l-58 -159l82 -38l-7 -27q-18 0 -56 0.5t-56 0.5t-54 -0.5
t-54 -0.5l8 27l69 39q58 114 215 510q5 12 2 27zM326 527h-2l-92 -245q16 0 89.5 -2t91.5 -2zM351 884h1q37 0 64.5 -24.5t27.5 -65.5t-27.5 -65t-65.5 -24t-65.5 24t-27.5 65t27.5 65.5t65.5 24.5zM351 846h-1q-20 0 -32.5 -13t-12.5 -39t13 -39t33 -13q46 0 46 52t-46 52z
" />
    <glyph glyph-name="AE" unicode="&#xc6;" horiz-adv-x="966" 
d="M487 298h-209l-23 -46.5l-40.5 -83.5l-49.5 -108l89 -35l-8 -26q-16 0 -56.5 1t-62.5 1q-18 0 -57.5 -1t-58.5 -1l8 27l72 35l283 543l-115 29l9 27q114 -2 166 -2h385q59 12 93 13l3 -3q-11 -102 -27 -164l-18 -7q-21 37 -55 117l-212 -8l9 -258q116 0 261 13l5 -12
q-3 -10 -26.5 -36t-33.5 -26q-3 0 -94 5.5t-111 5.5q0 -76 11 -245l189 -10q59 75 109 132l17 -6q-2 -20 -16.5 -87t-22.5 -85q-84 4 -182 4h-173q-25 0 -75 -1t-76 -1l6 27l88 34q2 21 -1 238zM302 348h184l1 263h-55q-47 -87 -130 -263z" />
    <glyph glyph-name="Ccedilla" unicode="&#xc7;" horiz-adv-x="696" 
d="M439 -18l-24 -33q36 -18 50 -36t14 -42q0 -72 -123 -102l-14 31q66 26 66 56q0 14 -14.5 24.5t-53.5 26.5l56 76q-71 3 -133.5 25.5t-113 63t-80 105.5t-29.5 147q0 87 35.5 157t92.5 111.5t122 63t130 21.5h1q96 0 150 -34q45 18 90 24l6 -4q-1 -24 -18 -89.5t-25 -82.5
l-22 -10q-22 43 -41 123q-38 23 -107 23q-127 0 -200.5 -86t-73.5 -210q0 -125 75.5 -210.5t206.5 -85.5q27 0 47 5q87 85 141 127l19 -16q-8 -28 -36 -78t-40 -63q-24 -9 -71 -18t-83 -10z" />
    <glyph glyph-name="Egrave" unicode="&#xc8;" horiz-adv-x="592" 
d="M33 634l8 26q23 0 69 -0.5t69 -0.5h248q34 10 100 13l3 -4q-1 -19 -10 -76t-15 -79l-18 -7q-36 65 -57 110l-184 -10v-241q124 0 254 14l5 -12q-3 -10 -27 -37.5t-34 -27.5q-6 0 -92 5.5t-106 6.5q0 -183 4 -261l187 -10q88 112 107 131l20 -7q-2 -19 -16 -85t-22 -85
q-63 3 -177 3h-173q-24 0 -76.5 -0.5t-76.5 -0.5l8 26l82 35q6 24 6 284v257zM375 734l-18 -30l-206 77l-1 12q27 53 64 67z" />
    <glyph glyph-name="Eacute" unicode="&#xc9;" horiz-adv-x="592" 
d="M33 634l8 26q23 0 69 -0.5t69 -0.5h248q34 10 100 13l3 -4q-1 -19 -10 -76t-15 -79l-18 -7q-36 65 -57 110l-184 -10v-241q124 0 254 14l5 -12q-3 -10 -27 -37.5t-34 -27.5q-6 0 -92 5.5t-106 6.5q0 -183 4 -261l187 -10q88 112 107 131l20 -7q-2 -19 -16 -85t-22 -85
q-63 3 -177 3h-173q-24 0 -76.5 -0.5t-76.5 -0.5l8 26l82 35q6 24 6 284v257zM243 704l-17 28l160 127q18 -2 39 -22t32 -44l-1 -13z" />
    <glyph glyph-name="Ecircumflex" unicode="&#xca;" horiz-adv-x="592" 
d="M33 634l8 26q23 0 69 -0.5t69 -0.5h248q34 10 100 13l3 -4q-1 -19 -10 -76t-15 -79l-18 -7q-36 65 -57 110l-184 -10v-241q124 0 254 14l5 -12q-3 -10 -27 -37.5t-34 -27.5q-6 0 -92 5.5t-106 6.5q0 -183 4 -261l187 -10q88 112 107 131l20 -7q-2 -19 -16 -85t-22 -85
q-63 3 -177 3h-173q-24 0 -76.5 -0.5t-76.5 -0.5l8 26l82 35q6 24 6 284v257zM294 854h20l137 -123l-16 -27l-131 64l-131 -64l-16 27z" />
    <glyph glyph-name="Edieresis" unicode="&#xcb;" horiz-adv-x="592" 
d="M33 634l8 26q23 0 69 -0.5t69 -0.5h248q34 10 100 13l3 -4q-1 -19 -10 -76t-15 -79l-18 -7q-36 65 -57 110l-184 -10v-241q124 0 254 14l5 -12q-3 -10 -27 -37.5t-34 -27.5q-6 0 -92 5.5t-106 6.5q0 -183 4 -261l187 -10q88 112 107 131l20 -7q-2 -19 -16 -85t-22 -85
q-63 3 -177 3h-173q-24 0 -76.5 -0.5t-76.5 -0.5l8 26l82 35q6 24 6 284v257zM193 846l9 2q10 -4 29 -25t27 -38l-2 -9q-6 -15 -24.5 -34.5t-32.5 -29.5l-10 -2q-16 9 -32.5 28t-25.5 35l2 9q27 42 60 64zM404 846l8 2q11 -4 30 -25t27 -38l-3 -9q-6 -15 -24.5 -34.5
t-32.5 -29.5l-10 -2q-15 10 -32 29t-25 34l2 9q24 40 60 64z" />
    <glyph glyph-name="Igrave" unicode="&#xcc;" horiz-adv-x="366" 
d="M44 633l9 26q21 0 64.5 -0.5t65.5 -0.5q24 0 70.5 0.5t69.5 0.5l-7 -27l-70 -33v-256q0 -253 5 -283l88 -34l-7 -27q-24 0 -74 1t-77 1t-77.5 -1t-73.5 -1l8 27l75 34q6 21 6 283v256zM261 734l-18 -30l-206 77l-1 12q27 53 64 67z" />
    <glyph glyph-name="Iacute" unicode="&#xcd;" horiz-adv-x="366" 
d="M44 633l9 26q21 0 64.5 -0.5t65.5 -0.5q24 0 70.5 0.5t69.5 0.5l-7 -27l-70 -33v-256q0 -253 5 -283l88 -34l-7 -27q-24 0 -74 1t-77 1t-77.5 -1t-73.5 -1l8 27l75 34q6 21 6 283v256zM126 704l-17 28l160 127q18 -2 39 -22t32 -44l-1 -13z" />
    <glyph glyph-name="Icircumflex" unicode="&#xce;" horiz-adv-x="366" 
d="M44 633l9 26q21 0 64.5 -0.5t65.5 -0.5q24 0 70.5 0.5t69.5 0.5l-7 -27l-70 -33v-256q0 -253 5 -283l88 -34l-7 -27q-24 0 -74 1t-77 1t-77.5 -1t-73.5 -1l8 27l75 34q6 21 6 283v256zM172 859h20l137 -123l-16 -27l-131 64l-131 -64l-16 27z" />
    <glyph glyph-name="Idieresis" unicode="&#xcf;" horiz-adv-x="366" 
d="M44 633l9 26q21 0 64.5 -0.5t65.5 -0.5q24 0 70.5 0.5t69.5 0.5l-7 -27l-70 -33v-256q0 -253 5 -283l88 -34l-7 -27q-24 0 -74 1t-77 1t-77.5 -1t-73.5 -1l8 27l75 34q6 21 6 283v256zM77 846l9 2q10 -4 29 -25t27 -38l-2 -9q-6 -15 -24.5 -34.5t-32.5 -29.5l-10 -2
q-16 9 -32.5 28t-25.5 35l2 9q27 42 60 64zM288 846l8 2q11 -4 30 -25t27 -38l-3 -9q-6 -15 -24.5 -34.5t-32.5 -29.5l-10 -2q-15 10 -32 29t-25 34l2 9q24 40 60 64z" />
    <glyph glyph-name="Eth" unicode="&#xd0;" horiz-adv-x="769" 
d="M45 368h88v238l-85 24l9 24q143 13 247 13q215 0 320 -83.5t105 -237.5q0 -69 -20.5 -125t-55.5 -92.5t-70.5 -59t-75.5 -37.5q-93 -35 -283 -35q-67 0 -181 3l9 27l75 31q6 21 6 266h-102zM260 368h168l-20 -44h-148q0 -273 4 -287q156 0 236 75q89 81 89 227
q0 142 -90 216q-79 68 -239 68v-255z" />
    <glyph glyph-name="Ntilde" unicode="&#xd1;" horiz-adv-x="769" 
d="M281 25l-7 -26q-20 0 -63 0.5t-65 0.5q-19 0 -59 -0.5t-60 -0.5l5 27l79 40q9 91 19 487q-22 29 -38.5 44t-26 19t-43.5 16l11 27l174 5q4 -15 40 -60q203 -247 365 -425h2q0 79 -6 415l-98 39l9 26q21 0 61 -0.5t57 -0.5q19 0 59 0.5t60 0.5l-7 -27l-77 -38
q0 -1 -3 -100.5t-6 -212.5t-3 -195q0 -64 -5 -101l-19 -6q-123 92 -462 521h-2q-5 -376 7 -435zM531 821l26 -20q-56 -94 -108 -94q-14 0 -66 25q-36 20 -50 20q-25 0 -67 -49l-25 22q58 99 107 99q19 0 61 -24q40 -22 55 -22q24 0 67 43z" />
    <glyph glyph-name="Ograve" unicode="&#xd2;" horiz-adv-x="796" 
d="M399 677h1q47 0 95 -12t95 -39t83 -65t58.5 -95.5t23.5 -126.5q1 -89 -30 -160t-83.5 -113t-114.5 -63.5t-127 -21.5q-50 0 -100 13t-97 40.5t-83 66.5t-57.5 96.5t-21.5 125.5q0 107 54 190t134.5 123.5t169.5 40.5zM388 637h-1q-96 0 -149 -85t-53 -212
q0 -81 25.5 -153t79 -119.5t123.5 -47.5q55 0 95 28t61.5 75t31.5 97t10 104q0 73 -24.5 143t-77 120t-121.5 50zM480 741l-18 -30l-206 77l-1 12q27 53 64 67z" />
    <glyph glyph-name="Oacute" unicode="&#xd3;" horiz-adv-x="796" 
d="M399 677h1q47 0 95 -12t95 -39t83 -65t58.5 -95.5t23.5 -126.5q1 -89 -30 -160t-83.5 -113t-114.5 -63.5t-127 -21.5q-50 0 -100 13t-97 40.5t-83 66.5t-57.5 96.5t-21.5 125.5q0 107 54 190t134.5 123.5t169.5 40.5zM388 637h-1q-96 0 -149 -85t-53 -212
q0 -81 25.5 -153t79 -119.5t123.5 -47.5q55 0 95 28t61.5 75t31.5 97t10 104q0 73 -24.5 143t-77 120t-121.5 50zM337 714l-17 28l160 127q18 -2 39 -22t32 -44l-1 -13z" />
    <glyph glyph-name="Ocircumflex" unicode="&#xd4;" horiz-adv-x="796" 
d="M399 677h1q47 0 95 -12t95 -39t83 -65t58.5 -95.5t23.5 -126.5q1 -89 -30 -160t-83.5 -113t-114.5 -63.5t-127 -21.5q-50 0 -100 13t-97 40.5t-83 66.5t-57.5 96.5t-21.5 125.5q0 107 54 190t134.5 123.5t169.5 40.5zM388 637h-1q-96 0 -149 -85t-53 -212
q0 -81 25.5 -153t79 -119.5t123.5 -47.5q55 0 95 28t61.5 75t31.5 97t10 104q0 73 -24.5 143t-77 120t-121.5 50zM387 855h20l137 -123l-16 -27l-131 64l-131 -64l-16 27z" />
    <glyph glyph-name="Otilde" unicode="&#xd5;" horiz-adv-x="796" 
d="M399 677h1q47 0 95 -12t95 -39t83 -65t58.5 -95.5t23.5 -126.5q1 -89 -30 -160t-83.5 -113t-114.5 -63.5t-127 -21.5q-50 0 -100 13t-97 40.5t-83 66.5t-57.5 96.5t-21.5 125.5q0 107 54 190t134.5 123.5t169.5 40.5zM388 637h-1q-96 0 -149 -85t-53 -212
q0 -81 25.5 -153t79 -119.5t123.5 -47.5q55 0 95 28t61.5 75t31.5 97t10 104q0 73 -24.5 143t-77 120t-121.5 50zM532 833l26 -20q-56 -94 -108 -94q-14 0 -66 25q-36 20 -50 20q-25 0 -67 -49l-25 22q58 99 107 99q19 0 61 -24q40 -22 55 -22q24 0 67 43z" />
    <glyph glyph-name="Odieresis" unicode="&#xd6;" horiz-adv-x="796" 
d="M399 677h1q47 0 95 -12t95 -39t83 -65t58.5 -95.5t23.5 -126.5q1 -89 -30 -160t-83.5 -113t-114.5 -63.5t-127 -21.5q-50 0 -100 13t-97 40.5t-83 66.5t-57.5 96.5t-21.5 125.5q0 107 54 190t134.5 123.5t169.5 40.5zM388 637h-1q-96 0 -149 -85t-53 -212
q0 -81 25.5 -153t79 -119.5t123.5 -47.5q55 0 95 28t61.5 75t31.5 97t10 104q0 73 -24.5 143t-77 120t-121.5 50zM292 846l9 2q10 -4 29 -25t27 -38l-2 -9q-6 -15 -24.5 -34.5t-32.5 -29.5l-10 -2q-16 9 -32.5 28t-25.5 35l2 9q27 42 60 64zM503 846l8 2q11 -4 30 -25
t27 -38l-3 -9q-6 -15 -24.5 -34.5t-32.5 -29.5l-10 -2q-15 10 -32 29t-25 34l2 9q24 40 60 64z" />
    <glyph glyph-name="multiply" unicode="&#xd7;" horiz-adv-x="596" 
d="M510 396l-164 -168l163 -166l-47 -52l-165 168l-162 -168l-49 52l162 166l-163 165l50 51l162 -167l165 169z" />
    <glyph glyph-name="Oslash" unicode="&#xd8;" horiz-adv-x="796" 
d="M599 620l59 76l26 -24l-55 -74q126 -96 127 -258q1 -91 -30.5 -162t-84.5 -113t-114.5 -63t-126.5 -21q-118 0 -210 59l-68 -88l-27 26l65 84q-120 97 -120 259q0 82 32 151t83.5 113t115 68t128.5 24q110 0 200 -57zM230 144l313 410q-58 83 -156 83q-95 0 -150.5 -87.5
t-55.5 -211.5q0 -118 47 -194h2zM563 519l-314 -410q57 -89 163 -89q54 0 95.5 28.5t63.5 75.5t33 97.5t11 103.5q0 115 -50 194h-2z" />
    <glyph glyph-name="Ugrave" unicode="&#xd9;" horiz-adv-x="746" 
d="M25 632l9 27q23 0 68.5 -1t67.5 -1t65 1t64 1l-7 -28l-56 -34q-1 -114 -1 -372q0 -70 26 -109q48 -69 150 -69q99 0 149 69q34 49 34 133q0 221 -4 348l-72 34l7 28q16 0 48.5 -1t47.5 -1q21 0 62.5 1t60.5 1l-5 -28l-83 -36q-5 -29 -11 -341q-2 -98 -39 -159
q-32 -52 -91 -82.5t-135 -30.5q-79 0 -144 28.5t-100 89.5q-28 49 -28 135q0 55 -0.5 134t-0.5 135t-1 94zM466 734l-18 -30l-206 77l-1 12q27 53 64 67z" />
    <glyph glyph-name="Uacute" unicode="&#xda;" horiz-adv-x="746" 
d="M25 632l9 27q23 0 68.5 -1t67.5 -1t65 1t64 1l-7 -28l-56 -34q-1 -114 -1 -372q0 -70 26 -109q48 -69 150 -69q99 0 149 69q34 49 34 133q0 221 -4 348l-72 34l7 28q16 0 48.5 -1t47.5 -1q21 0 62.5 1t60.5 1l-5 -28l-83 -36q-5 -29 -11 -341q-2 -98 -39 -159
q-32 -52 -91 -82.5t-135 -30.5q-79 0 -144 28.5t-100 89.5q-28 49 -28 135q0 55 -0.5 134t-0.5 135t-1 94zM334 704l-17 28l160 127q18 -2 39 -22t32 -44l-1 -13z" />
    <glyph glyph-name="Ucircumflex" unicode="&#xdb;" horiz-adv-x="746" 
d="M25 632l9 27q23 0 68.5 -1t67.5 -1t65 1t64 1l-7 -28l-56 -34q-1 -114 -1 -372q0 -70 26 -109q48 -69 150 -69q99 0 149 69q34 49 34 133q0 221 -4 348l-72 34l7 28q16 0 48.5 -1t47.5 -1q21 0 62.5 1t60.5 1l-5 -28l-83 -36q-5 -29 -11 -341q-2 -98 -39 -159
q-32 -52 -91 -82.5t-135 -30.5q-79 0 -144 28.5t-100 89.5q-28 49 -28 135q0 55 -0.5 134t-0.5 135t-1 94zM386 854h20l137 -123l-16 -27l-131 64l-131 -64l-16 27z" />
    <glyph glyph-name="Udieresis" unicode="&#xdc;" horiz-adv-x="746" 
d="M25 632l9 27q23 0 68.5 -1t67.5 -1t65 1t64 1l-7 -28l-56 -34q-1 -114 -1 -372q0 -70 26 -109q48 -69 150 -69q99 0 149 69q34 49 34 133q0 221 -4 348l-72 34l7 28q16 0 48.5 -1t47.5 -1q21 0 62.5 1t60.5 1l-5 -28l-83 -36q-5 -29 -11 -341q-2 -98 -39 -159
q-32 -52 -91 -82.5t-135 -30.5q-79 0 -144 28.5t-100 89.5q-28 49 -28 135q0 55 -0.5 134t-0.5 135t-1 94zM292 846l9 2q10 -4 29 -25t27 -38l-2 -9q-6 -15 -24.5 -34.5t-32.5 -29.5l-10 -2q-16 9 -32.5 28t-25.5 35l2 9q27 42 60 64zM503 846l8 2q11 -4 30 -25t27 -38
l-3 -9q-6 -15 -24.5 -34.5t-32.5 -29.5l-10 -2q-15 10 -32 29t-25 34l2 9q24 40 60 64z" />
    <glyph glyph-name="Yacute" unicode="&#xdd;" horiz-adv-x="648" 
d="M3 634l10 25q23 0 68 -1t67 -1q18 0 54 0.5t53 0.5l-7 -29l-27 -22q5 -11 143 -264h2q116 227 131 260l-41 29l12 26q12 0 36 -0.5t35 -0.5q19 0 56.5 1t56.5 1l-6 -28l-55 -23q-26 -8 -44 -33q-86 -135 -152 -260q-9 -18 -9 -33q0 -207 4 -223l113 -33l-7 -27
q-26 0 -83.5 0.5t-87.5 0.5q-31 0 -92 -0.5t-90 -0.5l7 26l104 34q6 84 6 216q0 15 -14 39q-88 161 -157 275q-25 24 -86 45zM300 704l-17 28l160 127q18 -2 39 -22t32 -44l-1 -13z" />
    <glyph glyph-name="Thorn" unicode="&#xde;" horiz-adv-x="597" 
d="M49 23l64 32q4 16 4 289v263l-75 28l9 24q21 0 63 -0.5t62 -0.5q24 0 74 0.5t74 0.5l-7 -25l-73 -28v-84q23 2 67 4q51 1 94.5 -7.5t80 -28t57.5 -56t21 -86.5q0 -54 -22.5 -94.5t-57.5 -61t-69.5 -30t-66.5 -9.5q-36 0 -59 10l-4 28h18q59 0 92 39.5t33 107.5
q0 69 -38 109t-106 40q-25 0 -40 -5v-124q0 -67 0.5 -121t1.5 -85t2 -52l1.5 -31.5t0.5 -12.5l91 -32l-8 -25q-25 0 -76 0.5t-77 0.5q-23 0 -68.5 -0.5t-69.5 -0.5z" />
    <glyph glyph-name="germandbls" unicode="&#xdf;" horiz-adv-x="575" 
d="M38 442h52q7 130 84 199q65 59 157 59q80 0 128 -44.5t48 -109.5q0 -14 -3 -22q-50 -31 -78 -66t-28 -65q0 -17 10.5 -31.5t43.5 -45.5q49 -46 70.5 -79.5t21.5 -77.5q0 -78 -58.5 -125t-138.5 -47q-50 0 -82 16q21 76 24 83l16 9q19 -29 36 -68q3 -1 14 -1q30 0 57.5 22
t27.5 57q0 32 -44 79l-79 84q-19 20 -19 48q0 33 20 69.5t38 57t50 52.5q8 12 8 22q1 65 -27.5 104t-69.5 39q-91 0 -101 -157q-4 -61 -4 -248q0 -181 5 -201l18 -35l-6 -20q-11 0 -36 1t-39 1q-21 0 -65 -1t-68 -1l4 23l59 30q6 36 6 197v145l-64 12z" />
    <glyph glyph-name="agrave" unicode="&#xe0;" horiz-adv-x="480" 
d="M281 266l1 28q1 107 -87 107q-24 0 -53 -12q-8 -77 -18 -116l-9 -6q-12 3 -41.5 34t-38.5 59q58 49 139 79q44 17 70 17q43 0 75 -15t48.5 -38.5t24.5 -48.5t8 -50q0 -94 -2 -222q19 -33 74 -53l-5 -15q-31 -25 -78 -25q-83 0 -105 54h-2q-72 -56 -118 -56q-60 0 -95 39
t-35 85q0 59 42 81q21 14 85 36.5t120 37.5zM157 132v-1q0 -38 22 -56t49 -18q25 0 43 18q8 7 8 22l2 132q-60 -22 -92 -40q-32 -21 -32 -57zM280 518l-26 -24l-153 157v15q43 22 104 19z" />
    <glyph glyph-name="aacute" unicode="&#xe1;" horiz-adv-x="480" 
d="M281 266l1 28q1 107 -87 107q-24 0 -53 -12q-8 -77 -18 -116l-9 -6q-12 3 -41.5 34t-38.5 59q58 49 139 79q44 17 70 17q43 0 75 -15t48.5 -38.5t24.5 -48.5t8 -50q0 -94 -2 -222q19 -33 74 -53l-5 -15q-31 -25 -78 -25q-83 0 -105 54h-2q-72 -56 -118 -56q-60 0 -95 39
t-35 85q0 59 42 81q21 14 85 36.5t120 37.5zM157 132v-1q0 -38 22 -56t49 -18q25 0 43 18q8 7 8 22l2 132q-60 -22 -92 -40q-32 -21 -32 -57zM214 493l-28 22l89 170q56 4 96 -19v-15z" />
    <glyph glyph-name="acircumflex" unicode="&#xe2;" horiz-adv-x="480" 
d="M281 266l1 28q1 107 -87 107q-24 0 -53 -12q-8 -77 -18 -116l-9 -6q-12 3 -41.5 34t-38.5 59q58 49 139 79q44 17 70 17q43 0 75 -15t48.5 -38.5t24.5 -48.5t8 -50q0 -94 -2 -222q19 -33 74 -53l-5 -15q-31 -25 -78 -25q-83 0 -105 54h-2q-72 -56 -118 -56q-60 0 -95 39
t-35 85q0 59 42 81q21 14 85 36.5t120 37.5zM157 132v-1q0 -38 22 -56t49 -18q25 0 43 18q8 7 8 22l2 132q-60 -22 -92 -40q-32 -21 -32 -57zM214 684l22 5l108 -173l-25 -20l-94 88l-93 -88l-25 20z" />
    <glyph glyph-name="atilde" unicode="&#xe3;" horiz-adv-x="480" 
d="M281 266l1 28q1 107 -87 107q-24 0 -53 -12q-8 -77 -18 -116l-9 -6q-12 3 -41.5 34t-38.5 59q58 49 139 79q44 17 70 17q43 0 75 -15t48.5 -38.5t24.5 -48.5t8 -50q0 -94 -2 -222q19 -33 74 -53l-5 -15q-31 -25 -78 -25q-83 0 -105 54h-2q-72 -56 -118 -56q-60 0 -95 39
t-35 85q0 59 42 81q21 14 85 36.5t120 37.5zM157 132v-1q0 -38 22 -56t49 -18q25 0 43 18q8 7 8 22l2 132q-60 -22 -92 -40q-32 -21 -32 -57zM361 637l28 -20q-55 -94 -105 -94q-15 0 -65 25q-36 20 -50 20q-24 0 -65 -49l-25 22q58 96 106 96q20 0 59 -22q36 -22 53 -22
q27 0 64 44z" />
    <glyph glyph-name="adieresis" unicode="&#xe4;" horiz-adv-x="480" 
d="M281 266l1 28q1 107 -87 107q-24 0 -53 -12q-8 -77 -18 -116l-9 -6q-12 3 -41.5 34t-38.5 59q58 49 139 79q44 17 70 17q43 0 75 -15t48.5 -38.5t24.5 -48.5t8 -50q0 -94 -2 -222q19 -33 74 -53l-5 -15q-31 -25 -78 -25q-83 0 -105 54h-2q-72 -56 -118 -56q-60 0 -95 39
t-35 85q0 59 42 81q21 14 85 36.5t120 37.5zM157 132v-1q0 -38 22 -56t49 -18q25 0 43 18q8 7 8 22l2 132q-60 -22 -92 -40q-32 -21 -32 -57zM136 651l8 2q11 -5 29.5 -26t25.5 -36l-2 -9q-11 -30 -56 -63l-10 -2q-33 21 -56 62l2 10q26 40 59 62zM328 651l9 2
q10 -5 28.5 -26t26.5 -36l-2 -9q-7 -15 -24.5 -33.5t-31.5 -29.5l-10 -2q-15 10 -31.5 28.5t-24.5 33.5l1 10q29 42 59 62z" />
    <glyph glyph-name="aring" unicode="&#xe5;" horiz-adv-x="480" 
d="M281 266l1 28q1 107 -87 107q-24 0 -53 -12q-8 -77 -18 -116l-9 -6q-12 3 -41.5 34t-38.5 59q58 49 139 79q44 17 70 17q43 0 75 -15t48.5 -38.5t24.5 -48.5t8 -50q0 -94 -2 -222q19 -33 74 -53l-5 -15q-31 -25 -78 -25q-83 0 -105 54h-2q-72 -56 -118 -56q-60 0 -95 39
t-35 85q0 59 42 81q21 14 85 36.5t120 37.5zM157 132v-1q0 -38 22 -56t49 -18q25 0 43 18q8 7 8 22l2 132q-60 -22 -92 -40q-32 -21 -32 -57zM232 643h-1q-45 0 -45 -53q0 -26 13 -39.5t33 -13.5t33 14t13 39q0 53 -46 53zM232 681h1q38 0 65 -25t27 -66q0 -42 -27.5 -66
t-65.5 -24t-65.5 24t-27.5 65q0 42 28 67t65 25z" />
    <glyph glyph-name="ae" unicode="&#xe6;" horiz-adv-x="730" 
d="M127 275l-13 -7q-11 4 -39 37t-36 56q50 43 123 74q47 20 83 20q40 0 71 -17t48 -45q66 62 154 62q80 0 131.5 -45.5t51.5 -131.5q0 -31 -10 -35q-37 -22 -104 -22h-172v-11q0 -78 40 -122.5t111 -44.5q17 0 31 9q50 39 84 56q10 -5 11 -21q-8 -20 -30.5 -47t-36.5 -36
q-48 -17 -110 -17q-128 0 -188 86q-110 -86 -162 -86q-60 0 -95.5 39t-35.5 85q0 52 40 77q15 11 87 36.5t128 40.5v26q0 59 -25 85t-63 26q-29 0 -55 -15q-5 -53 -19 -112zM416 262h156q7 24 7 46q0 49 -19 78t-52 29q-44 0 -68 -50t-24 -103zM223 58h1q17 0 43.5 13
t43.5 32q-24 48 -22 125q-79 -25 -100 -40q-32 -21 -32 -60q0 -36 20.5 -53t45.5 -17z" />
    <glyph glyph-name="ccedilla" unicode="&#xe7;" horiz-adv-x="467" 
d="M194 -92l60 78l-1 2q-101 7 -160.5 67.5t-59.5 158.5q0 76 40 132.5t98 83t121 26.5q47 0 88 -12.5t58 -26.5q-14 -73 -39 -116l-19 -7q-24 45 -41 116q-12 6 -32 6q-65 0 -105 -53t-40 -131q0 -74 41.5 -130t116.5 -57q12 0 28 8q57 41 83 53l11 -17q-6 -19 -30 -49.5
t-37 -37.5q-34 -11 -80 -14l-29 -40q35 -17 48.5 -34.5t13.5 -40.5q0 -67 -119 -97l-12 29q62 27 62 54q0 14 -14 24t-51 25z" />
    <glyph glyph-name="egrave" unicode="&#xe8;" horiz-adv-x="475" 
d="M331 226h-169q-1 -5 -1 -13q-1 -74 40 -120t105 -46q16 0 28 4q60 47 95 64l6 -16q-4 -22 -29 -51t-42 -40q-57 -21 -105 -21q-102 0 -164 61.5t-62 167.5q0 102 67 171t160 69q80 0 132.5 -48t52.5 -132q0 -26 -10 -32q-32 -18 -104 -18zM162 269h157q5 17 5 32
q0 51 -18.5 83t-51.5 32q-42 0 -67 -49t-25 -98zM300 518l-26 -24l-153 157v15q43 22 104 19z" />
    <glyph glyph-name="eacute" unicode="&#xe9;" horiz-adv-x="475" 
d="M331 226h-169q-1 -5 -1 -13q-1 -74 40 -120t105 -46q16 0 28 4q60 47 95 64l6 -16q-4 -22 -29 -51t-42 -40q-57 -21 -105 -21q-102 0 -164 61.5t-62 167.5q0 102 67 171t160 69q80 0 132.5 -48t52.5 -132q0 -26 -10 -32q-32 -18 -104 -18zM162 269h157q5 17 5 32
q0 51 -18.5 83t-51.5 32q-42 0 -67 -49t-25 -98zM235 493l-28 22l89 170q56 4 96 -19v-15z" />
    <glyph glyph-name="ecircumflex" unicode="&#xea;" horiz-adv-x="475" 
d="M331 226h-169q-1 -5 -1 -13q-1 -74 40 -120t105 -46q16 0 28 4q60 47 95 64l6 -16q-4 -22 -29 -51t-42 -40q-57 -21 -105 -21q-102 0 -164 61.5t-62 167.5q0 102 67 171t160 69q80 0 132.5 -48t52.5 -132q0 -26 -10 -32q-32 -18 -104 -18zM162 269h157q5 17 5 32
q0 51 -18.5 83t-51.5 32q-42 0 -67 -49t-25 -98zM250 684l22 5l108 -173l-25 -20l-94 88l-93 -88l-25 20z" />
    <glyph glyph-name="edieresis" unicode="&#xeb;" horiz-adv-x="475" 
d="M331 226h-169q-1 -5 -1 -13q-1 -74 40 -120t105 -46q16 0 28 4q60 47 95 64l6 -16q-4 -22 -29 -51t-42 -40q-57 -21 -105 -21q-102 0 -164 61.5t-62 167.5q0 102 67 171t160 69q80 0 132.5 -48t52.5 -132q0 -26 -10 -32q-32 -18 -104 -18zM162 269h157q5 17 5 32
q0 51 -18.5 83t-51.5 32q-42 0 -67 -49t-25 -98zM160 651l8 2q11 -5 29.5 -26t25.5 -36l-2 -9q-11 -30 -56 -63l-10 -2q-33 21 -56 62l2 10q26 40 59 62zM352 651l9 2q10 -5 28.5 -26t26.5 -36l-2 -9q-7 -15 -24.5 -33.5t-31.5 -29.5l-10 -2q-15 10 -31.5 28.5t-24.5 33.5
l1 10q29 42 59 62z" />
    <glyph glyph-name="igrave" unicode="&#xec;" horiz-adv-x="293" 
d="M32 402l6 23q78 24 171 31v-206q0 -127 2 -193l68 -30l-7 -28q-21 0 -62 0.5t-64 0.5q-19 0 -60 -0.5t-61 -0.5l6 28l54 30q2 76 2 195v123zM190 518l-26 -24l-153 157v15q43 22 104 19z" />
    <glyph glyph-name="iacute" unicode="&#xed;" horiz-adv-x="293" 
d="M32 402l6 23q78 24 171 31v-206q0 -127 2 -193l68 -30l-7 -28q-21 0 -62 0.5t-64 0.5q-19 0 -60 -0.5t-61 -0.5l6 28l54 30q2 76 2 195v123zM124 493l-28 22l89 170q56 4 96 -19v-15z" />
    <glyph glyph-name="icircumflex" unicode="&#xee;" horiz-adv-x="293" 
d="M32 402l6 23q78 24 171 31v-206q0 -127 2 -193l68 -30l-7 -28q-21 0 -62 0.5t-64 0.5q-19 0 -60 -0.5t-61 -0.5l6 28l54 30q2 76 2 195v123zM127 684l22 5l108 -173l-25 -20l-94 88l-93 -88l-25 20z" />
    <glyph glyph-name="idieresis" unicode="&#xef;" horiz-adv-x="293" 
d="M32 402l6 23q78 24 171 31v-206q0 -127 2 -193l68 -30l-7 -28q-21 0 -62 0.5t-64 0.5q-19 0 -60 -0.5t-61 -0.5l6 28l54 30q2 76 2 195v123zM39 651l8 2q11 -5 29.5 -26t25.5 -36l-2 -9q-11 -30 -56 -63l-10 -2q-33 21 -56 62l2 10q26 40 59 62zM231 651l9 2
q10 -5 28.5 -26t26.5 -36l-2 -9q-7 -15 -24.5 -33.5t-31.5 -29.5l-10 -2q-15 10 -31.5 28.5t-24.5 33.5l1 10q29 42 59 62z" />
    <glyph glyph-name="eth" unicode="&#xf0;" horiz-adv-x="533" 
d="M92 666l11 34q118 -16 210 -74l120 65l24 -31l-108 -60q65 -51 108 -140.5t43 -191.5q0 -137 -65 -209t-173 -72q-95 0 -162 61.5t-67 170.5q0 111 70 174t163 63q51 0 88 -24l2 1q-29 80 -79 130l-133 -72l-27 29l129 71q-60 48 -154 75zM272 416h-1q-37 0 -62 -32
t-34 -72.5t-9 -84.5q0 -76 25 -138.5t78 -62.5q29 0 50 20t31 53t14.5 66t4.5 67q0 111 -32 151q-25 33 -65 33z" />
    <glyph glyph-name="ntilde" unicode="&#xf1;" horiz-adv-x="581" 
d="M89 284v84l-51 24l8 22q12 9 78 25.5t87 16.5l-7 -75l2 -1q95 76 151 76q74 0 107.5 -47t33.5 -111v-225q0 -15 18 -22l53 -25l-7 -27q-20 0 -63 0.5t-65 0.5q-17 0 -53 -0.5t-55 -0.5l6 27l40 32q4 116 4 226q0 47 -21.5 71.5t-57.5 24.5q-43 0 -86 -38q0 -267 2 -286
l51 -30l-6 -27q-35 1 -110 1q-21 0 -62 -0.5t-61 -0.5l7 27l54 30q3 21 3 228zM418 637l28 -20q-55 -94 -105 -94q-15 0 -65 25q-36 20 -50 20q-24 0 -65 -49l-25 22q58 96 106 96q20 0 59 -22q36 -22 53 -22q27 0 64 44z" />
    <glyph glyph-name="ograve" unicode="&#xf2;" horiz-adv-x="543" 
d="M272 456h1q104 0 170 -64.5t66 -165.5q0 -107 -67 -173t-171 -66q-99 0 -168.5 62.5t-69.5 167.5q0 107 72 173t167 66zM269 417h-1q-34 0 -57.5 -30t-33 -70.5t-9.5 -84.5q0 -48 11 -93t37 -79t63 -34q28 0 47.5 18.5t29.5 49t14 60.5t4 61q0 46 -10 89.5t-34.5 78
t-60.5 34.5zM322 518l-26 -24l-153 157v15q43 22 104 19z" />
    <glyph glyph-name="oacute" unicode="&#xf3;" horiz-adv-x="543" 
d="M272 456h1q104 0 170 -64.5t66 -165.5q0 -107 -67 -173t-171 -66q-99 0 -168.5 62.5t-69.5 167.5q0 107 72 173t167 66zM269 417h-1q-34 0 -57.5 -30t-33 -70.5t-9.5 -84.5q0 -48 11 -93t37 -79t63 -34q28 0 47.5 18.5t29.5 49t14 60.5t4 61q0 46 -10 89.5t-34.5 78
t-60.5 34.5zM255 493l-28 22l89 170q56 4 96 -19v-15z" />
    <glyph glyph-name="ocircumflex" unicode="&#xf4;" horiz-adv-x="543" 
d="M272 456h1q104 0 170 -64.5t66 -165.5q0 -107 -67 -173t-171 -66q-99 0 -168.5 62.5t-69.5 167.5q0 107 72 173t167 66zM269 417h-1q-34 0 -57.5 -30t-33 -70.5t-9.5 -84.5q0 -48 11 -93t37 -79t63 -34q28 0 47.5 18.5t29.5 49t14 60.5t4 61q0 46 -10 89.5t-34.5 78
t-60.5 34.5zM261 684l22 5l108 -173l-25 -20l-94 88l-93 -88l-25 20z" />
    <glyph glyph-name="otilde" unicode="&#xf5;" horiz-adv-x="543" 
d="M272 456h1q104 0 170 -64.5t66 -165.5q0 -107 -67 -173t-171 -66q-99 0 -168.5 62.5t-69.5 167.5q0 107 72 173t167 66zM269 417h-1q-34 0 -57.5 -30t-33 -70.5t-9.5 -84.5q0 -48 11 -93t37 -79t63 -34q28 0 47.5 18.5t29.5 49t14 60.5t4 61q0 46 -10 89.5t-34.5 78
t-60.5 34.5zM394 637l28 -20q-55 -94 -105 -94q-15 0 -65 25q-36 20 -50 20q-24 0 -65 -49l-25 22q58 96 106 96q20 0 59 -22q36 -22 53 -22q27 0 64 44z" />
    <glyph glyph-name="odieresis" unicode="&#xf6;" horiz-adv-x="543" 
d="M272 456h1q104 0 170 -64.5t66 -165.5q0 -107 -67 -173t-171 -66q-99 0 -168.5 62.5t-69.5 167.5q0 107 72 173t167 66zM269 417h-1q-34 0 -57.5 -30t-33 -70.5t-9.5 -84.5q0 -48 11 -93t37 -79t63 -34q28 0 47.5 18.5t29.5 49t14 60.5t4 61q0 46 -10 89.5t-34.5 78
t-60.5 34.5zM175 651l8 2q11 -5 29.5 -26t25.5 -36l-2 -9q-11 -30 -56 -63l-10 -2q-33 21 -56 62l2 10q26 40 59 62zM367 651l9 2q10 -5 28.5 -26t26.5 -36l-2 -9q-7 -15 -24.5 -33.5t-31.5 -29.5l-10 -2q-15 10 -31.5 28.5t-24.5 33.5l1 10q29 42 59 62z" />
    <glyph glyph-name="divide" unicode="&#xf7;" horiz-adv-x="596" 
d="M78 265h452l-12 -62h-453zM296 146l9 1q10 -4 27.5 -24t24.5 -35l-2 -9q-7 -14 -26 -33.5t-30 -25.5l-9 -3q-15 8 -30.5 26t-21.5 33l1 10q29 42 57 60zM300 451l7 1q10 -4 27.5 -24t24.5 -36l-1 -8q-7 -14 -26 -34t-30 -26l-10 -3q-15 8 -30.5 26t-21.5 34l2 10
q25 38 58 60z" />
    <glyph glyph-name="oslash" unicode="&#xf8;" horiz-adv-x="546" 
d="M405 422l43 56l28 -20l-42 -56q37 -30 58 -77t21 -99q0 -108 -67.5 -173.5t-172.5 -65.5q-77 0 -132 35l-49 -64l-26 24l45 60q-36 29 -57 75t-21 100q0 107 73 173t168 66q75 0 131 -34zM179 122l173 239q-28 56 -79 56q-38 0 -64 -31t-36.5 -72.5t-10.5 -88.5
q0 -65 16 -102zM369 322l-173 -236q11 -27 34 -43.5t50 -16.5q30 0 52 19.5t32.5 51t15 62t4.5 61.5q0 54 -14 102h-1z" />
    <glyph glyph-name="ugrave" unicode="&#xf9;" horiz-adv-x="565" 
d="M81 380l-56 29l9 23q61 16 174 18q-7 -126 -7 -282q0 -57 16 -79q24 -26 62 -26q49 0 82 39v263q-1 11 -13 18.5t-58 26.5l10 23q89 19 186 17q-3 -46 -3 -372q20 -36 72 -53l-5 -14q-7 -7 -30.5 -14.5t-46.5 -7.5q-87 0 -107 70h-2q-67 -72 -143 -72q-62 0 -100 36
q-42 38 -42 121q0 38 1 122t1 114zM311 518l-26 -24l-153 157v15q43 22 104 19z" />
    <glyph glyph-name="uacute" unicode="&#xfa;" horiz-adv-x="565" 
d="M81 380l-56 29l9 23q61 16 174 18q-7 -126 -7 -282q0 -57 16 -79q24 -26 62 -26q49 0 82 39v263q-1 11 -13 18.5t-58 26.5l10 23q89 19 186 17q-3 -46 -3 -372q20 -36 72 -53l-5 -14q-7 -7 -30.5 -14.5t-46.5 -7.5q-87 0 -107 70h-2q-67 -72 -143 -72q-62 0 -100 36
q-42 38 -42 121q0 38 1 122t1 114zM255 493l-28 22l89 170q56 4 96 -19v-15z" />
    <glyph glyph-name="ucircumflex" unicode="&#xfb;" horiz-adv-x="565" 
d="M81 380l-56 29l9 23q61 16 174 18q-7 -126 -7 -282q0 -57 16 -79q24 -26 62 -26q49 0 82 39v263q-1 11 -13 18.5t-58 26.5l10 23q89 19 186 17q-3 -46 -3 -372q20 -36 72 -53l-5 -14q-7 -7 -30.5 -14.5t-46.5 -7.5q-87 0 -107 70h-2q-67 -72 -143 -72q-62 0 -100 36
q-42 38 -42 121q0 38 1 122t1 114zM263 684l22 5l108 -173l-25 -20l-94 88l-93 -88l-25 20z" />
    <glyph glyph-name="udieresis" unicode="&#xfc;" horiz-adv-x="565" 
d="M81 380l-56 29l9 23q61 16 174 18q-7 -126 -7 -282q0 -57 16 -79q24 -26 62 -26q49 0 82 39v263q-1 11 -13 18.5t-58 26.5l10 23q89 19 186 17q-3 -46 -3 -372q20 -36 72 -53l-5 -14q-7 -7 -30.5 -14.5t-46.5 -7.5q-87 0 -107 70h-2q-67 -72 -143 -72q-62 0 -100 36
q-42 38 -42 121q0 38 1 122t1 114zM171 651l8 2q11 -5 29.5 -26t25.5 -36l-2 -9q-11 -30 -56 -63l-10 -2q-33 21 -56 62l2 10q26 40 59 62zM363 651l9 2q10 -5 28.5 -26t26.5 -36l-2 -9q-7 -15 -24.5 -33.5t-31.5 -29.5l-10 -2q-15 10 -31.5 28.5t-24.5 33.5l1 10
q29 42 59 62z" />
    <glyph glyph-name="yacute" unicode="&#xfd;" horiz-adv-x="477" 
d="M325 418l9 26q11 0 33.5 -0.5t34.5 -0.5q18 0 49 0.5t44 0.5l-7 -27q-29 -15 -61 -37q-15 -30 -49.5 -112.5l-82 -198l-75.5 -181.5q-26 -118 -27 -120q-8 -4 -23 -4q-27 0 -54 16t-33 30q12 27 98 105l38 81q-1 3 -67 163.5t-91 214.5q-9 16 -66 43l8 27q20 0 58.5 -0.5
t58.5 -0.5q17 0 52 0.5t53 0.5l-6 -27l-27 -27q13 -37 91 -243h3q62 177 79 239zM244 493l-28 22l89 170q56 4 96 -19v-15z" />
    <glyph glyph-name="thorn" unicode="&#xfe;" horiz-adv-x="555" 
d="M71 109v288q0 180 -3 226l-54 26l10 27q26 9 83 18t89 10q-3 -130 -3 -303l2 -1q87 54 133 56q69 0 131 -57.5t62 -159.5q0 -66 -24.5 -117t-63 -79t-78.5 -42t-78 -14q-34 0 -82 30l-2 -1q0 -63 4 -173l93 -34l-9 -25q-24 0 -74.5 0.5t-75.5 0.5q-21 0 -63 -0.5
t-63 -0.5l8 27l54 29q4 156 4 269zM193 363v-305q30 -16 61 -16q57 0 98 48t41 128q0 74 -39 118.5t-96 44.5q-34 0 -65 -18z" />
    <glyph glyph-name="ydieresis" unicode="&#xff;" horiz-adv-x="477" 
d="M325 418l9 26q11 0 33.5 -0.5t34.5 -0.5q18 0 49 0.5t44 0.5l-7 -27q-29 -15 -61 -37q-15 -30 -49.5 -112.5l-82 -198l-75.5 -181.5q-26 -118 -27 -120q-8 -4 -23 -4q-27 0 -54 16t-33 30q12 27 98 105l38 81q-1 3 -67 163.5t-91 214.5q-9 16 -66 43l8 27q20 0 58.5 -0.5
t58.5 -0.5q17 0 52 0.5t53 0.5l-6 -27l-27 -27q13 -37 91 -243h3q62 177 79 239zM156 651l8 2q11 -5 29.5 -26t25.5 -36l-2 -9q-11 -30 -56 -63l-10 -2q-33 21 -56 62l2 10q26 40 59 62zM348 651l9 2q10 -5 28.5 -26t26.5 -36l-2 -9q-7 -15 -24.5 -33.5t-31.5 -29.5l-10 -2
q-15 10 -31.5 28.5t-24.5 33.5l1 10q29 42 59 62z" />
    <glyph glyph-name="Amacron" unicode="&#x100;" horiz-adv-x="726" 
d="M293 633l104 49l4 -5q0 -31 15 -72q18 -53 196 -500q14 -32 31.5 -45t72.5 -35l-8 -26q-23 0 -72 0.5t-73 0.5q-18 0 -55.5 -0.5t-57.5 -0.5l8 25l36 32q-3 10 -12.5 34l-25 64.5l-27.5 72.5q-102 -6 -217 -4l-58 -159l82 -38l-7 -27q-18 0 -56 0.5t-56 0.5t-54 -0.5
t-54 -0.5l8 27l69 39q58 114 215 510q5 12 2 27zM326 527h-2l-92 -245q16 0 89.5 -2t91.5 -2zM468 717h-237l20 69h237z" />
    <glyph glyph-name="amacron" unicode="&#x101;" horiz-adv-x="480" 
d="M281 266l1 28q1 107 -87 107q-24 0 -53 -12q-8 -77 -18 -116l-9 -6q-12 3 -41.5 34t-38.5 59q58 49 139 79q44 17 70 17q43 0 75 -15t48.5 -38.5t24.5 -48.5t8 -50q0 -94 -2 -222q19 -33 74 -53l-5 -15q-31 -25 -78 -25q-83 0 -105 54h-2q-72 -56 -118 -56q-60 0 -95 39
t-35 85q0 59 42 81q21 14 85 36.5t120 37.5zM157 132v-1q0 -38 22 -56t49 -18q25 0 43 18q8 7 8 22l2 132q-60 -22 -92 -40q-32 -21 -32 -57zM328 547h-226l18 68h227z" />
    <glyph glyph-name="Abreve" unicode="&#x102;" horiz-adv-x="726" 
d="M293 633l104 49l4 -5q0 -31 15 -72q18 -53 196 -500q14 -32 31.5 -45t72.5 -35l-8 -26q-23 0 -72 0.5t-73 0.5q-18 0 -55.5 -0.5t-57.5 -0.5l8 25l36 32q-3 10 -12.5 34l-25 64.5l-27.5 72.5q-102 -6 -217 -4l-58 -159l82 -38l-7 -27q-18 0 -56 0.5t-56 0.5t-54 -0.5
t-54 -0.5l8 27l69 39q58 114 215 510q5 12 2 27zM326 527h-2l-92 -245q16 0 89.5 -2t91.5 -2zM356 721h-1q-65 0 -97 36.5t-32 97.5l35 6q6 -20 13.5 -33t28.5 -24t53 -11q31 0 52 10.5t28.5 22t15.5 30.5l35 5q-1 -64 -34.5 -102t-96.5 -38z" />
    <glyph glyph-name="abreve" unicode="&#x103;" horiz-adv-x="480" 
d="M281 266l1 28q1 107 -87 107q-24 0 -53 -12q-8 -77 -18 -116l-9 -6q-12 3 -41.5 34t-38.5 59q58 49 139 79q44 17 70 17q43 0 75 -15t48.5 -38.5t24.5 -48.5t8 -50q0 -94 -2 -222q19 -33 74 -53l-5 -15q-31 -25 -78 -25q-83 0 -105 54h-2q-72 -56 -118 -56q-60 0 -95 39
t-35 85q0 59 42 81q21 14 85 36.5t120 37.5zM157 132v-1q0 -38 22 -56t49 -18q25 0 43 18q8 7 8 22l2 132q-60 -22 -92 -40q-32 -21 -32 -57zM114 656l37 9q4 -22 10.5 -37t23 -27.5t42.5 -12.5q22 0 37.5 6.5t24 18t13 21t7.5 22.5l37 9q0 -67 -30.5 -107t-90.5 -40
q-61 0 -87.5 39t-23.5 99z" />
    <glyph glyph-name="Aogonek" unicode="&#x104;" horiz-adv-x="726" 
d="M326 527h-2l-91 -245q15 0 88.5 -2t91.5 -2zM523 -130l12 -30q-50 -50 -112 -50q-40 0 -65.5 22t-25.5 59q0 22 11 43.5t23 36.5t39.5 36t42 30.5l47.5 30.5q-29 85 -66 179q-102 -6 -217 -4q-38 -100 -57 -159l81 -38l-7 -27q-18 0 -55.5 1t-56.5 1q-17 0 -53.5 -1
t-54.5 -1l8 27l69 39q55 105 216 510q5 14 1 27l-10 31l104 49l4 -5q0 -27 15 -72q23 -62 197 -500q14 -31 31 -44t73 -36l-9 -26q-23 0 -72 1t-72 1q-13 0 -31.5 -0.5t-30.5 -0.5q-86 -50 -86 -102q0 -18 12.5 -29.5t34.5 -11.5q27 0 60 13z" />
    <glyph glyph-name="aogonek" unicode="&#x105;" horiz-adv-x="483" 
d="M157 132v-1q0 -38 22.5 -56t48.5 -18q22 0 44 19q8 7 8 22l2 131q-64 -23 -93 -41q-32 -19 -32 -56zM378 -128l8 -28q-46 -53 -108 -53q-38 0 -64.5 20.5t-26.5 57.5q0 69 117 148q-13 11 -19 26h-2q-73 -56 -119 -56q-60 0 -95 38.5t-35 84.5q0 60 41 82q21 13 86.5 36
t120.5 38l1 29q1 107 -86 107q-27 0 -55 -14q-8 -77 -18 -115l-9 -6q-11 2 -41 33t-39 60q58 49 139 79q44 17 70 17q43 0 75.5 -15t49 -39t24.5 -48.5t8 -49.5q0 -93 -2 -223q8 -14 30 -29.5t45 -22.5l-5 -16q-29 -24 -78 -24q-34 0 -54 11q-69 -70 -69 -106t48 -36
q29 0 62 14z" />
    <glyph glyph-name="Cacute" unicode="&#x106;" horiz-adv-x="696" 
d="M418 677h1q93 0 152 -33q44 19 90 25l6 -4q-2 -25 -18.5 -92t-24.5 -86l-22 -10q-24 57 -41 127q-36 23 -107 23q-127 0 -200.5 -86t-73.5 -211t75.5 -210.5t206.5 -85.5q29 0 47 5q84 83 140 127l20 -16q-9 -29 -36.5 -78.5t-39.5 -62.5q-26 -10 -79.5 -19t-91.5 -9
q-74 0 -140.5 20.5t-121.5 61t-87.5 107.5t-32.5 153q0 88 35.5 158t92 111.5t121 63t129.5 21.5zM349 717l-17 28l160 127q18 -2 39 -22t32 -44l-1 -13z" />
    <glyph glyph-name="cacute" unicode="&#x107;" horiz-adv-x="463" 
d="M33 213v1q0 78 41.5 135t100.5 82t125 25q46 0 83 -12t54 -27q-4 -19 -17 -57.5t-25 -59.5l-17 -5q-20 36 -39 115q-10 5 -29 5q-70 0 -109 -54.5t-39 -129.5q0 -80 42.5 -132t116.5 -52q14 0 26 6q54 40 86 56l9 -20q-7 -19 -30 -48.5t-37 -36.5q-43 -17 -95 -17
q-100 0 -173.5 56.5t-73.5 169.5zM243 493l-28 22l89 170q56 4 96 -19v-15z" />
    <glyph glyph-name="Ccircumflex" unicode="&#x108;" horiz-adv-x="696" 
d="M418 677h1q93 0 152 -33q44 19 90 25l6 -4q-2 -25 -18.5 -92t-24.5 -86l-22 -10q-24 57 -41 127q-36 23 -107 23q-127 0 -200.5 -86t-73.5 -211t75.5 -210.5t206.5 -85.5q29 0 47 5q84 83 140 127l20 -16q-9 -29 -36.5 -78.5t-39.5 -62.5q-26 -10 -79.5 -19t-91.5 -9
q-74 0 -140.5 20.5t-121.5 61t-87.5 107.5t-32.5 153q0 88 35.5 158t92 111.5t121 63t129.5 21.5zM405 864h20l137 -123l-16 -27l-131 64l-131 -64l-16 27z" />
    <glyph glyph-name="ccircumflex" unicode="&#x109;" horiz-adv-x="463" 
d="M33 213v1q0 78 41.5 135t100.5 82t125 25q46 0 83 -12t54 -27q-4 -19 -17 -57.5t-25 -59.5l-17 -5q-20 36 -39 115q-10 5 -29 5q-70 0 -109 -54.5t-39 -129.5q0 -80 42.5 -132t116.5 -52q14 0 26 6q54 40 86 56l9 -20q-7 -19 -30 -48.5t-37 -36.5q-43 -17 -95 -17
q-100 0 -173.5 56.5t-73.5 169.5zM254 684l22 5l108 -173l-25 -20l-94 88l-93 -88l-25 20z" />
    <glyph glyph-name="Cdotaccent" unicode="&#x10a;" horiz-adv-x="696" 
d="M418 677h1q93 0 152 -33q44 19 90 25l6 -4q-2 -25 -18.5 -92t-24.5 -86l-22 -10q-24 57 -41 127q-36 23 -107 23q-127 0 -200.5 -86t-73.5 -211t75.5 -210.5t206.5 -85.5q29 0 47 5q84 83 140 127l20 -16q-9 -29 -36.5 -78.5t-39.5 -62.5q-26 -10 -79.5 -19t-91.5 -9
q-74 0 -140.5 20.5t-121.5 61t-87.5 107.5t-32.5 153q0 88 35.5 158t92 111.5t121 63t129.5 21.5zM430 859l9 3q11 -5 30.5 -26.5t27.5 -38.5l-2 -9q-15 -33 -59 -66l-11 -2q-32 19 -59 64l2 11q33 46 62 64z" />
    <glyph glyph-name="cdotaccent" unicode="&#x10b;" horiz-adv-x="463" 
d="M33 213v1q0 78 41.5 135t100.5 82t125 25q46 0 83 -12t54 -27q-4 -19 -17 -57.5t-25 -59.5l-17 -5q-20 36 -39 115q-10 5 -29 5q-70 0 -109 -54.5t-39 -129.5q0 -80 42.5 -132t116.5 -52q14 0 26 6q54 40 86 56l9 -20q-7 -19 -30 -48.5t-37 -36.5q-43 -17 -95 -17
q-100 0 -173.5 56.5t-73.5 169.5zM261 659l9 2q12 -4 31.5 -26t28.5 -40l-3 -10q-7 -15 -27.5 -36.5t-34.5 -30.5l-9 -3q-36 23 -61 67l3 10q12 19 30 38.5t33 28.5z" />
    <glyph glyph-name="Ccaron" unicode="&#x10c;" horiz-adv-x="696" 
d="M418 677h1q93 0 152 -33q44 19 90 25l6 -4q-2 -25 -18.5 -92t-24.5 -86l-22 -10q-24 57 -41 127q-36 23 -107 23q-127 0 -200.5 -86t-73.5 -211t75.5 -210.5t206.5 -85.5q29 0 47 5q84 83 140 127l20 -16q-9 -29 -36.5 -78.5t-39.5 -62.5q-26 -10 -79.5 -19t-91.5 -9
q-74 0 -140.5 20.5t-121.5 61t-87.5 107.5t-32.5 153q0 88 35.5 158t92 111.5t121 63t129.5 21.5zM428 719h-20l-138 125l19 25l129 -64l131 64l16 -25z" />
    <glyph glyph-name="ccaron" unicode="&#x10d;" horiz-adv-x="463" 
d="M33 213v1q0 78 41.5 135t100.5 82t125 25q46 0 83 -12t54 -27q-4 -19 -17 -57.5t-25 -59.5l-17 -5q-20 36 -39 115q-10 5 -29 5q-70 0 -109 -54.5t-39 -129.5q0 -80 42.5 -132t116.5 -52q14 0 26 6q54 40 86 56l9 -20q-7 -19 -30 -48.5t-37 -36.5q-43 -17 -95 -17
q-100 0 -173.5 56.5t-73.5 169.5zM281 504l-21 -4l-108 178l24 20l95 -94l93 95l24 -21z" />
    <glyph glyph-name="Dcaron" unicode="&#x10e;" horiz-adv-x="755" 
d="M37 630l6 24q143 13 247 13q215 0 320 -83.5t105 -238.5q0 -69 -20.5 -124.5t-55 -92t-69.5 -59t-75 -37.5q-94 -35 -294 -35q-60 0 -171 3l8 27l75 30q6 26 6 286v262zM246 624v-281q0 -293 4 -307q157 0 236 74q88 83 88 228q0 143 -91 219q-45 38 -101 52.5t-136 14.5
zM352 710h-20l-138 125l19 25l129 -64l131 64l16 -25z" />
    <glyph glyph-name="dcaron" unicode="&#x10f;" horiz-adv-x="565" 
d="M479 400v-324q28 -36 74 -57l-8 -17q-23 -15 -66 -15q-87 0 -114 54l-2 -1l-13 -9l-23 -14.5t-24 -13.5t-30.5 -12t-29.5 -4q-78 0 -144 58.5t-66 162.5q0 60 24 109t61.5 78.5t80.5 45t84 15.5q29 0 73 -27l1 1q0 111 -3 189l-63 27l7 21q83 26 184 32q-3 -126 -3 -299z
M357 76v312q-22 14 -53 14q-57 0 -99.5 -50t-42.5 -125q0 -74 40.5 -121t100.5 -47q27 0 54 17zM543 538l-19 25q51 38 51 71q0 23 -16 36l-28 17v18l67 34h15q38 -20 39 -71q0 -37 -29.5 -73t-79.5 -57z" />
    <glyph glyph-name="Dcroat" unicode="&#x110;" horiz-adv-x="769" 
d="M45 368h88v238l-85 24l9 24q143 13 247 13q215 0 320 -83.5t105 -237.5q0 -69 -20.5 -125t-55.5 -92.5t-70.5 -59t-75.5 -37.5q-93 -35 -283 -35q-67 0 -181 3l9 27l75 31q6 21 6 266h-102zM260 368h168l-20 -44h-148q0 -273 4 -287q156 0 236 75q89 81 89 227
q0 142 -90 216q-79 68 -239 68v-255z" />
    <glyph glyph-name="dcroat" unicode="&#x111;" horiz-adv-x="568" 
d="M258 571h101v52l-65 23l7 21q83 26 183 32q0 -16 -0.5 -58.5t-0.5 -69.5h90l-20 -42h-70q-1 -41 -1 -130v-323q28 -37 74 -56l-3 -17q-18 -16 -70 -16q-39 0 -71 13.5t-44 38.5h-2q-78 -52 -122 -52q-78 0 -144 58.5t-66 162.5q0 60 23.5 109t61 78t79.5 45t83 16
q33 0 77 -26l2 1q0 62 -1 98h-121zM360 75v313q-24 15 -54 15q-57 0 -100.5 -51t-43.5 -126q0 -74 41.5 -121.5t99.5 -47.5q27 0 57 18z" />
    <glyph glyph-name="Emacron" unicode="&#x112;" horiz-adv-x="592" 
d="M33 634l8 26q23 0 69 -0.5t69 -0.5h248q34 10 100 13l3 -4q-1 -19 -10 -76t-15 -79l-18 -7q-36 65 -57 110l-184 -10v-241q124 0 254 14l5 -12q-3 -10 -27 -37.5t-34 -27.5q-6 0 -92 5.5t-106 6.5q0 -183 4 -261l187 -10q88 112 107 131l20 -7q-2 -19 -16 -85t-22 -85
q-63 3 -177 3h-173q-24 0 -76.5 -0.5t-76.5 -0.5l8 26l82 35q6 24 6 284v257zM422 721h-237l20 69h237z" />
    <glyph glyph-name="emacron" unicode="&#x113;" horiz-adv-x="475" 
d="M331 226h-169q-1 -5 -1 -13q-1 -74 40 -120t105 -46q16 0 28 4q60 47 95 64l6 -16q-4 -22 -29 -51t-42 -40q-57 -21 -105 -21q-102 0 -164 61.5t-62 167.5q0 102 67 171t160 69q80 0 132.5 -48t52.5 -132q0 -26 -10 -32q-32 -18 -104 -18zM162 269h157q5 17 5 32
q0 51 -18.5 83t-51.5 32q-42 0 -67 -49t-25 -98zM362 547h-226l18 68h227z" />
    <glyph glyph-name="Ebreve" unicode="&#x114;" horiz-adv-x="592" 
d="M33 634l8 26q23 0 69 -0.5t69 -0.5h248q34 10 100 13l3 -4q-1 -19 -10 -76t-15 -79l-18 -7q-36 65 -57 110l-184 -10v-241q124 0 254 14l5 -12q-3 -10 -27 -37.5t-34 -27.5q-6 0 -92 5.5t-106 6.5q0 -183 4 -261l187 -10q88 112 107 131l20 -7q-2 -19 -16 -85t-22 -85
q-63 3 -177 3h-173q-24 0 -76.5 -0.5t-76.5 -0.5l8 26l82 35q6 24 6 284v257zM307 707h-1q-65 0 -97 36.5t-32 97.5l35 6q6 -20 13.5 -33t28.5 -24t53 -11q31 0 52 10.5t28.5 22t15.5 30.5l35 5q-1 -64 -34.5 -102t-96.5 -38z" />
    <glyph glyph-name="ebreve" unicode="&#x115;" horiz-adv-x="475" 
d="M331 226h-169q-1 -5 -1 -13q-1 -74 40 -120t105 -46q16 0 28 4q60 47 95 64l6 -16q-4 -22 -29 -51t-42 -40q-57 -21 -105 -21q-102 0 -164 61.5t-62 167.5q0 102 67 171t160 69q80 0 132.5 -48t52.5 -132q0 -26 -10 -32q-32 -18 -104 -18zM162 269h157q5 17 5 32
q0 51 -18.5 83t-51.5 32q-42 0 -67 -49t-25 -98zM143 656l37 9q4 -22 10.5 -37t23 -27.5t42.5 -12.5q22 0 37.5 6.5t24 18t13 21t7.5 22.5l37 9q0 -67 -30.5 -107t-90.5 -40q-61 0 -87.5 39t-23.5 99z" />
    <glyph glyph-name="Edotaccent" unicode="&#x116;" horiz-adv-x="592" 
d="M33 634l8 26q23 0 69 -0.5t69 -0.5h248q34 10 100 13l3 -4q-1 -19 -10 -76t-15 -79l-18 -7q-36 65 -57 110l-184 -10v-241q124 0 254 14l5 -12q-3 -10 -27 -37.5t-34 -27.5q-6 0 -92 5.5t-106 6.5q0 -183 4 -261l187 -10q88 112 107 131l20 -7q-2 -19 -16 -85t-22 -85
q-63 3 -177 3h-173q-24 0 -76.5 -0.5t-76.5 -0.5l8 26l82 35q6 24 6 284v257zM314 849l9 3q11 -5 30.5 -26.5t27.5 -38.5l-2 -9q-15 -33 -59 -66l-11 -2q-32 19 -59 64l2 11q33 46 62 64z" />
    <glyph glyph-name="edotaccent" unicode="&#x117;" horiz-adv-x="475" 
d="M331 226h-169q-1 -5 -1 -13q-1 -74 40 -120t105 -46q16 0 28 4q60 47 95 64l6 -16q-4 -22 -29 -51t-42 -40q-57 -21 -105 -21q-102 0 -164 61.5t-62 167.5q0 102 67 171t160 69q80 0 132.5 -48t52.5 -132q0 -26 -10 -32q-32 -18 -104 -18zM162 269h157q5 17 5 32
q0 51 -18.5 83t-51.5 32q-42 0 -67 -49t-25 -98zM257 659l9 2q12 -4 31.5 -26t28.5 -40l-3 -10q-7 -15 -27.5 -36.5t-34.5 -30.5l-9 -3q-36 23 -61 67l3 10q12 19 30 38.5t33 28.5z" />
    <glyph glyph-name="Eogonek" unicode="&#x118;" horiz-adv-x="592" 
d="M474 -129l11 -28q-46 -53 -111 -53q-38 0 -64.5 20.5t-26.5 56.5q0 61 111 133h-68h-150q-24 0 -76.5 -0.5t-76.5 -0.5l8 26l82 35q6 24 6 283v258l-86 33l8 26q23 0 69 -0.5t69 -0.5h248q34 10 100 13l3 -4q-1 -19 -10 -76t-15 -79l-18 -7q-36 65 -57 110l-184 -9v-242
q113 0 254 13l5 -11q-3 -10 -27 -37.5t-34 -27.5q-4 0 -90.5 5.5t-107.5 5.5q0 -183 4 -260l184 -10q80 100 112 131l19 -7q-2 -17 -18.5 -84t-23.5 -86q-57 3 -77 3q-82 -73 -82 -108t47 -35q30 0 63 14z" />
    <glyph glyph-name="eogonek" unicode="&#x119;" horiz-adv-x="477" 
d="M162 269h157q5 17 5 32q0 51 -18.5 83t-51.5 32q-42 0 -67 -49t-25 -98zM355 -129l11 -28q-46 -53 -111 -53q-37 0 -64 21t-27 58q0 59 78 119q-95 5 -152 66.5t-57 161.5q0 102 67.5 171t160.5 69q79 0 131.5 -48t52.5 -132q0 -26 -10 -32q-32 -18 -104 -18h-169
q-1 -5 -1 -13q-1 -74 40.5 -119.5t104.5 -45.5q16 0 28 4q57 44 95 63l6 -16q-4 -22 -29.5 -51t-41.5 -39q-22 -9 -57 -15q-62 -62 -62 -100q0 -37 47 -37q30 0 63 14z" />
    <glyph glyph-name="Ecaron" unicode="&#x11a;" horiz-adv-x="592" 
d="M33 634l8 26q23 0 69 -0.5t69 -0.5h248q34 10 100 13l3 -4q-1 -19 -10 -76t-15 -79l-18 -7q-36 65 -57 110l-184 -10v-241q124 0 254 14l5 -12q-3 -10 -27 -37.5t-34 -27.5q-6 0 -92 5.5t-106 6.5q0 -183 4 -261l187 -10q88 112 107 131l20 -7q-2 -19 -16 -85t-22 -85
q-63 3 -177 3h-173q-24 0 -76.5 -0.5t-76.5 -0.5l8 26l82 35q6 24 6 284v257zM313 704h-20l-138 125l19 25l129 -64l131 64l16 -25z" />
    <glyph glyph-name="ecaron" unicode="&#x11b;" horiz-adv-x="475" 
d="M331 226h-169q-1 -5 -1 -13q-1 -74 40 -120t105 -46q16 0 28 4q60 47 95 64l6 -16q-4 -22 -29 -51t-42 -40q-57 -21 -105 -21q-102 0 -164 61.5t-62 167.5q0 102 67 171t160 69q80 0 132.5 -48t52.5 -132q0 -26 -10 -32q-32 -18 -104 -18zM162 269h157q5 17 5 32
q0 51 -18.5 83t-51.5 32q-42 0 -67 -49t-25 -98zM269 504l-21 -4l-108 178l24 20l95 -94l93 95l24 -21z" />
    <glyph glyph-name="Gcircumflex" unicode="&#x11c;" horiz-adv-x="746" 
d="M374 285l45 35q105 7 278 7q-16 -132 -34 -232t-26 -114h-7q-53 7 -76 36q-78 -36 -153 -36q-157 0 -258.5 93t-101.5 249t110.5 255t278.5 99q90 0 155 -38q48 23 87 32l10 -7q-2 -21 -18.5 -89.5t-26.5 -93.5l-22 -11q-24 59 -43 130q-48 25 -116 25q-123 0 -198 -80.5
t-75 -213.5q0 -123 70 -207t204 -84q58 0 89 13q-1 45 11 211l-179 10zM408 864h20l137 -123l-16 -27l-131 64l-131 -64l-16 27z" />
    <glyph glyph-name="gcircumflex" unicode="&#x11d;" horiz-adv-x="502" 
d="M466 394l-67 -4v-2q11 -11 20.5 -34.5t9.5 -49.5q0 -72 -52.5 -115t-138.5 -43q-54 0 -98 22q-17 -23 -17 -35q0 -15 14 -30.5t29 -17.5q147 7 232 0q42 -4 70 -35q29 -31 29 -75q0 -41 -26 -80t-72 -69q-86 -58 -187 -58q-81 0 -130.5 30t-49.5 75q0 19 23 44l71 67v2
q-32 13 -60 44q-27 32 -27 66q0 13 24.5 40t49.5 46q-59 40 -59 115q0 68 57.5 113.5t142.5 45.5q35 0 80 -9q62 -10 82 -13l87 36l4 -8zM245 419h-1q-37 0 -54.5 -36.5t-17.5 -80.5q0 -46 18.5 -82t54.5 -36t53 34.5t17 81.5q0 43 -16.5 81t-53.5 38zM241 -23h-1
q-66 0 -80 -9q-27 -25 -27 -53q0 -41 37 -67t90 -26q59 0 98 25.5t39 72.5q0 42 -48 52q-35 5 -108 5zM230 684l22 5l108 -173l-25 -20l-94 88l-93 -88l-25 20z" />
    <glyph glyph-name="Gbreve" unicode="&#x11e;" horiz-adv-x="746" 
d="M374 285l45 35q105 7 278 7q-16 -132 -34 -232t-26 -114h-7q-53 7 -76 36q-78 -36 -153 -36q-157 0 -258.5 93t-101.5 249t110.5 255t278.5 99q90 0 155 -38q48 23 87 32l10 -7q-2 -21 -18.5 -89.5t-26.5 -93.5l-22 -11q-24 59 -43 130q-48 25 -116 25q-123 0 -198 -80.5
t-75 -213.5q0 -123 70 -207t204 -84q58 0 89 13q-1 45 11 211l-179 10zM417 718h-1q-65 0 -97 36.5t-32 97.5l35 6q6 -20 13.5 -33t28.5 -24t53 -11q31 0 52 10.5t28.5 22t15.5 30.5l35 5q-1 -64 -34.5 -102t-96.5 -38z" />
    <glyph glyph-name="gbreve" unicode="&#x11f;" horiz-adv-x="502" 
d="M466 394l-67 -4v-2q11 -11 20.5 -34.5t9.5 -49.5q0 -72 -52.5 -115t-138.5 -43q-54 0 -98 22q-17 -23 -17 -35q0 -15 14 -30.5t29 -17.5q147 7 232 0q42 -4 70 -35q29 -31 29 -75q0 -41 -26 -80t-72 -69q-86 -58 -187 -58q-81 0 -130.5 30t-49.5 75q0 19 23 44l71 67v2
q-32 13 -60 44q-27 32 -27 66q0 13 24.5 40t49.5 46q-59 40 -59 115q0 68 57.5 113.5t142.5 45.5q35 0 80 -9q62 -10 82 -13l87 36l4 -8zM245 419h-1q-37 0 -54.5 -36.5t-17.5 -80.5q0 -46 18.5 -82t54.5 -36t53 34.5t17 81.5q0 43 -16.5 81t-53.5 38zM241 -23h-1
q-66 0 -80 -9q-27 -25 -27 -53q0 -41 37 -67t90 -26q59 0 98 25.5t39 72.5q0 42 -48 52q-35 5 -108 5zM129 655l37 9q4 -22 10.5 -37t23 -27.5t42.5 -12.5q22 0 37.5 6.5t24 18t13 21t7.5 22.5l37 9q0 -67 -30.5 -107t-90.5 -40q-61 0 -87.5 39t-23.5 99z" />
    <glyph glyph-name="Gdotaccent" unicode="&#x120;" horiz-adv-x="746" 
d="M374 285l45 35q105 7 278 7q-16 -132 -34 -232t-26 -114h-7q-53 7 -76 36q-78 -36 -153 -36q-157 0 -258.5 93t-101.5 249t110.5 255t278.5 99q90 0 155 -38q48 23 87 32l10 -7q-2 -21 -18.5 -89.5t-26.5 -93.5l-22 -11q-24 59 -43 130q-48 25 -116 25q-123 0 -198 -80.5
t-75 -213.5q0 -123 70 -207t204 -84q58 0 89 13q-1 45 11 211l-179 10zM436 859l9 3q11 -5 30.5 -26.5t27.5 -38.5l-2 -9q-15 -33 -59 -66l-11 -2q-32 19 -59 64l2 11q33 46 62 64z" />
    <glyph glyph-name="gdotaccent" unicode="&#x121;" horiz-adv-x="502" 
d="M466 394l-67 -4v-2q11 -11 20.5 -34.5t9.5 -49.5q0 -72 -52.5 -115t-138.5 -43q-54 0 -98 22q-17 -23 -17 -35q0 -15 14 -30.5t29 -17.5q147 7 232 0q42 -4 70 -35q29 -31 29 -75q0 -41 -26 -80t-72 -69q-86 -58 -187 -58q-81 0 -130.5 30t-49.5 75q0 19 23 44l71 67v2
q-32 13 -60 44q-27 32 -27 66q0 13 24.5 40t49.5 46q-59 40 -59 115q0 68 57.5 113.5t142.5 45.5q35 0 80 -9q62 -10 82 -13l87 36l4 -8zM245 419h-1q-37 0 -54.5 -36.5t-17.5 -80.5q0 -46 18.5 -82t54.5 -36t53 34.5t17 81.5q0 43 -16.5 81t-53.5 38zM241 -23h-1
q-66 0 -80 -9q-27 -25 -27 -53q0 -41 37 -67t90 -26q59 0 98 25.5t39 72.5q0 42 -48 52q-35 5 -108 5zM240 659l9 2q12 -4 31.5 -26t28.5 -40l-3 -10q-7 -15 -27.5 -36.5t-34.5 -30.5l-9 -3q-36 23 -61 67l3 10q12 19 30 38.5t33 28.5z" />
    <glyph glyph-name="Gcommaaccent" unicode="&#x122;" horiz-adv-x="746" 
d="M374 285l45 35q105 7 278 7q-16 -132 -34 -232t-26 -114h-7q-53 7 -76 36q-78 -36 -153 -36q-157 0 -258.5 93t-101.5 249t110.5 255t278.5 99q90 0 155 -38q48 23 87 32l10 -7q-2 -21 -18.5 -89.5t-26.5 -93.5l-22 -11q-24 59 -43 130q-48 25 -116 25q-123 0 -198 -80.5
t-75 -213.5q0 -123 70 -207t204 -84q58 0 89 13q-1 45 11 211l-179 10zM368 -253l-19 25q51 38 51 71q0 23 -16 36l-28 17v18l67 34h15q38 -20 39 -71q0 -37 -29.5 -73t-79.5 -57z" />
    <glyph glyph-name="gcommaaccent" unicode="&#x123;" horiz-adv-x="507" 
d="M297 714l18 -20q-51 -36 -51 -75q0 -24 15 -34l29 -17v-17l-68 -33h-14q-13 7 -25 25t-13 44q-2 35 28 70.5t81 56.5zM470 398l-70 -4v-2q11 -11 22 -37t11 -52q0 -72 -53.5 -115.5t-140.5 -43.5q-57 0 -104 24q-16 -25 -16 -36q0 -15 14.5 -30.5t29.5 -17.5q150 7 236 0
q42 -4 70 -35q29 -31 29 -75q0 -86 -98 -148q-84 -58 -186 -58q-81 0 -130.5 29.5t-49.5 75.5q0 22 23 43l73 66v2q-33 13 -62 45q-28 32 -28 65q0 13 23.5 39.5t48.5 46.5q-59 40 -59 115q0 69 58.5 115t143.5 46q38 0 83 -9q62 -10 82 -13l87 36l3 -7zM246 424h-1
q-37 0 -55.5 -39t-18.5 -84q0 -46 20 -85t56 -39q37 0 54.5 37.5t17.5 84.5q0 43 -17.5 84t-55.5 41zM243 -24h-1q-68 0 -82 -9q-27 -25 -27 -52q0 -44 38.5 -71t89.5 -27q62 0 99.5 26.5t37.5 77.5q0 40 -48 50q-33 5 -107 5z" />
    <glyph glyph-name="Hcircumflex" unicode="&#x124;" horiz-adv-x="791" 
d="M43 632l9 27q22 0 66 -1t65 -1t60 1t58 1l-9 -29l-46 -33v-219h299v219l-48 36l7 26q18 0 53.5 -1t52.5 -1q25 0 74.5 1t72.5 1l-7 -28l-78 -34v-256q0 -256 7 -279l88 -36l-8 -27q-23 0 -72 0.5t-74 0.5q-21 0 -61.5 -0.5t-60.5 -0.5l8 28l45 34q1 31 1 268
q-35 -7 -121 -7h-178q0 -226 1 -259l56 -37l-8 -27q-19 0 -57.5 0.5t-59.5 0.5q-24 0 -73 -0.5t-72 -0.5l8 27l72 34q6 138 6 287v251zM388 854h20l137 -123l-16 -27l-131 64l-131 -64l-16 27z" />
    <glyph glyph-name="hcircumflex" unicode="&#x125;" horiz-adv-x="573" 
d="M490 300v-221q0 -19 21 -30l48 -25l-7 -27q-111 -2 -194 8q10 70 10 256q0 126 -90 126q-39 0 -73 -25q0 -288 2 -302l71 -34l-7 -27q-21 0 -64 1t-65 1q-20 0 -61 -1t-61 -1l7 27l54 34q2 11 2 224q0 240 -3 333l-58 29l7 21q58 23 179 32q-3 -128 -3 -297l2 -1
q68 55 133 55q74 0 112 -47.5t38 -108.5zM127 873h20l137 -123l-16 -27l-131 64l-131 -64l-16 27z" />
    <glyph glyph-name="Hbar" unicode="&#x126;" horiz-adv-x="791" 
d="M246 370h299l1 122h-300v-122zM246 533h300l-1 66l-49 35l8 26q16 0 53.5 -0.5t52.5 -0.5q23 0 74.5 0.5t72.5 0.5l-9 -27l-76 -34v-66h96l-16 -41h-80v-152q-2 -256 7 -279l88 -34l-8 -28q-21 0 -73 0.5t-73 0.5q-19 0 -62.5 -0.5t-60.5 -0.5l9 30l45 31q1 31 1 257
q-50 -4 -121 -4h-178q0 -217 1 -250l56 -38l-8 -26q-17 0 -56.5 0.5t-56.5 0.5q-22 0 -76 -0.5t-76 -0.5l10 27l73 34q6 138 6 287l1 145h-94l14 41h80l-1 67l-76 32l9 28q19 0 65.5 -0.5t65.5 -0.5q18 0 59.5 0.5t58.5 0.5l-9 -27l-46 -33v-67z" />
    <glyph glyph-name="hbar" unicode="&#x127;" horiz-adv-x="573" 
d="M14 576h69q0 31 -1 45l-59 25l6 21q58 22 178 32q-1 -39 -1 -123h131l-12 -42h-119q-1 -44 -1 -135q69 57 135 57q74 0 112 -47.5t38 -108.5v-221q0 -21 21 -29l48 -28l-7 -25q-110 -2 -194 8q10 70 10 256q0 125 -90 125q-39 0 -73 -25q0 -288 3 -304l71 -33l-8 -25
q-21 0 -64 0.5t-65 0.5q-20 0 -60.5 -0.5t-61.5 -0.5l7 25l54 33q3 21 3 227q0 170 -1 250h-80z" />
    <glyph glyph-name="Itilde" unicode="&#x128;" horiz-adv-x="366" 
d="M44 633l9 26q21 0 64.5 -0.5t65.5 -0.5q24 0 70.5 0.5t69.5 0.5l-7 -27l-70 -33v-256q0 -253 5 -283l88 -34l-7 -27q-24 0 -74 1t-77 1t-77.5 -1t-73.5 -1l8 27l75 34q6 21 6 283v256zM319 822l26 -20q-56 -94 -108 -94q-14 0 -66 25q-36 20 -50 20q-25 0 -67 -49l-25 22
q58 99 107 99q19 0 61 -24q40 -22 55 -22q24 0 67 43z" />
    <glyph glyph-name="itilde" unicode="&#x129;" horiz-adv-x="293" 
d="M32 402l6 23q78 24 171 31v-206q0 -127 2 -193l68 -30l-7 -28q-21 0 -62 0.5t-64 0.5q-19 0 -60 -0.5t-61 -0.5l6 28l54 30q2 76 2 195v123zM275 637l28 -20q-55 -94 -105 -94q-15 0 -65 25q-36 20 -50 20q-24 0 -65 -49l-25 22q58 96 106 96q20 0 59 -22q36 -22 53 -22
q27 0 64 44z" />
    <glyph glyph-name="Imacron" unicode="&#x12a;" horiz-adv-x="366" 
d="M44 633l9 26q21 0 64.5 -0.5t65.5 -0.5q24 0 70.5 0.5t69.5 0.5l-7 -27l-70 -33v-256q0 -253 5 -283l88 -34l-7 -27q-24 0 -74 1t-77 1t-77.5 -1t-73.5 -1l8 27l75 34q6 21 6 283v256zM294 711h-237l20 69h237z" />
    <glyph glyph-name="imacron" unicode="&#x12b;" horiz-adv-x="293" 
d="M32 402l6 23q78 24 171 31v-206q0 -127 2 -193l68 -30l-7 -28q-21 0 -62 0.5t-64 0.5q-19 0 -60 -0.5t-61 -0.5l6 28l54 30q2 76 2 195v123zM245 547h-226l18 68h227z" />
    <glyph glyph-name="Ibreve" unicode="&#x12c;" horiz-adv-x="366" 
d="M44 633l9 26q21 0 64.5 -0.5t65.5 -0.5q24 0 70.5 0.5t69.5 0.5l-7 -27l-70 -33v-256q0 -253 5 -283l88 -34l-7 -27q-24 0 -74 1t-77 1t-77.5 -1t-73.5 -1l8 27l75 34q6 21 6 283v256zM180 707h-1q-65 0 -97 36.5t-32 97.5l35 6q6 -20 13.5 -33t28.5 -24t53 -11
q31 0 52 10.5t28.5 22t15.5 30.5l35 5q-1 -64 -34.5 -102t-96.5 -38z" />
    <glyph glyph-name="ibreve" unicode="&#x12d;" horiz-adv-x="293" 
d="M32 402l6 23q78 24 171 31v-206q0 -127 2 -193l68 -30l-7 -28q-21 0 -62 0.5t-64 0.5q-19 0 -60 -0.5t-61 -0.5l6 28l54 30q2 76 2 195v123zM26 656l37 9q4 -22 10.5 -37t23 -27.5t42.5 -12.5q22 0 37.5 6.5t24 18t13 21t7.5 22.5l37 9q0 -67 -30.5 -107t-90.5 -40
q-61 0 -87.5 39t-23.5 99z" />
    <glyph glyph-name="Iogonek" unicode="&#x12e;" horiz-adv-x="366" 
d="M270 -128l12 -28q-46 -53 -111 -53q-38 0 -64.5 20.5t-26.5 56.5q0 59 76 132q-21 0 -63 -0.5t-62 -0.5l8 26l74 35q6 20 6 283v256l-75 34l9 26q22 0 65 -0.5t65 -0.5q24 0 70.5 0.5t69.5 0.5l-7 -26l-70 -34v-256q0 -253 5 -283l88 -35l-7 -26q-20 0 -62 0.5t-64 0.5
q-45 -57 -45 -103q0 -18 13 -28.5t36 -10.5q28 0 60 14z" />
    <glyph glyph-name="iogonek" unicode="&#x12f;" horiz-adv-x="293" 
d="M143 673l8 2q12 -5 32 -26.5t28 -39.5l-2 -10q-7 -15 -27.5 -36t-34.5 -30l-10 -3q-15 9 -33 29.5t-27 36.5l2 10q25 42 64 67zM239 -129l10 -28q-46 -53 -111 -53q-38 0 -64.5 21t-26.5 58q0 64 74 131q-15 0 -48 -0.5t-48 -0.5l6 27l54 31q2 86 2 195v123l-55 27l6 23
q78 24 171 31v-206q0 -129 2 -193l68 -31l-7 -27q-17 0 -50 0.5t-51 0.5q-43 -58 -43 -102q0 -19 13.5 -30t35.5 -11q27 0 62 14z" />
    <glyph glyph-name="Idotaccent" unicode="&#x130;" horiz-adv-x="366" 
d="M44 633l9 26q21 0 64.5 -0.5t65.5 -0.5q24 0 70.5 0.5t69.5 0.5l-7 -27l-70 -33v-256q0 -253 5 -283l88 -34l-7 -27q-24 0 -74 1t-77 1t-77.5 -1t-73.5 -1l8 27l75 34q6 21 6 283v256zM192 859l9 3q11 -5 30.5 -26.5t27.5 -38.5l-2 -9q-15 -33 -59 -66l-11 -2
q-32 19 -59 64l2 11q33 46 62 64z" />
    <glyph glyph-name="dotlessi" unicode="&#x131;" horiz-adv-x="293" 
d="M32 402l6 23q78 24 171 31v-206q0 -127 2 -193l68 -30l-7 -28q-21 0 -62 0.5t-64 0.5q-19 0 -60 -0.5t-61 -0.5l6 28l54 30q2 76 2 195v123z" />
    <glyph glyph-name="IJ" unicode="&#x132;" horiz-adv-x="710" 
d="M44 633l9 26q21 0 64.5 -0.5t65.5 -0.5q24 0 70.5 0.5t69.5 0.5l-7 -27l-70 -33v-256q0 -253 5 -283l88 -34l-7 -27q-24 0 -74 1t-77 1t-77.5 -1t-73.5 -1l8 27l75 34q6 21 6 283v256zM391 632l8 27q23 0 70 -0.5t72 -0.5q23 0 71.5 0.5t73.5 0.5l-6 -27l-70 -35v-434
q0 -76 -21 -133q-24 -70 -78.5 -126.5t-97.5 -83.5l-28 22v8q56 45 76 93.5t22 132.5q2 64 0 278q-3 207 -4 244z" />
    <glyph glyph-name="ij" unicode="&#x133;" horiz-adv-x="570" 
d="M143 670l8 2q12 -4 32.5 -26.5t29.5 -41.5l-2 -11q-8 -15 -29 -37t-35 -31l-10 -3q-16 10 -35 31t-27 38l2 10q30 47 66 69zM32 402l6 23q78 24 171 31v-206q0 -145 2 -193l68 -30l-7 -28q-21 0 -62 0.5t-64 0.5q-19 0 -60 -0.5t-61 -0.5l6 28l54 30q2 70 2 195v123z
M432 670l9 2q12 -4 32 -27t29 -41l-2 -10q-8 -16 -29 -38t-35 -31l-10 -3q-37 24 -62 69l2 10q30 47 66 69zM323 401l8 22q17 8 75.5 20t92.5 13v-343q0 -95 -37 -167q-34 -65 -72 -103t-90 -68l-28 20v6q37 26 60 61.5t32 82t11.5 79t2.5 84.5q0 209 -4 269q-24 12 -51 24z
" />
    <glyph glyph-name="Jcircumflex" unicode="&#x134;" horiz-adv-x="344" 
d="M25 632l8 27q23 0 70 -0.5t72 -0.5q23 0 71.5 0.5t73.5 0.5l-6 -27l-70 -35v-434q0 -76 -21 -133q-24 -70 -78.5 -126.5t-97.5 -83.5l-28 22v8q56 45 76 93.5t22 132.5q2 64 0 278q-3 207 -4 244zM173 854h20l137 -123l-16 -27l-131 64l-131 -64l-16 27z" />
    <glyph glyph-name="jcircumflex" unicode="&#x135;" horiz-adv-x="278" 
d="M29 401l8 22q17 8 75.5 20t92.5 13v-343q0 -95 -37 -167q-34 -65 -72 -103t-90 -68l-28 20v6q37 26 60 61.5t32 82t11.5 79t2.5 84.5q0 206 -5 269q-20 11 -50 24zM128 684l22 5l108 -173l-25 -20l-94 88l-93 -88l-25 20z" />
    <glyph glyph-name="Kcommaaccent" unicode="&#x136;" horiz-adv-x="707" 
d="M698 659l-9 -26q-10 -4 -31 -10.5l-47.5 -15l-36.5 -11.5q-19 -5 -30 -18q-57 -56 -164 -186v-3l212 -264q99 -119 108 -133l-7 -7q-89 1 -133 21t-89 67q-91 92 -202 246v7q187 219 229 286q-2 35 2 49q51 1 84.5 0.5t70.5 -1.5t43 -1zM43 634l8 26q21 0 63 -0.5
t64 -0.5q24 0 71.5 0.5t70.5 0.5l-7 -27l-67 -34v-256q0 -253 5 -283l88 -34l-10 -27q-23 0 -73.5 0.5t-78.5 0.5q-25 0 -74 -0.5t-72 -0.5l7 27l75 34q6 22 6 283v257zM346 -223l-19 25q51 38 51 71q0 23 -16 36l-28 17v18l67 34h15q38 -20 39 -71q0 -37 -29.5 -73
t-79.5 -57z" />
    <glyph glyph-name="kcommaaccent" unicode="&#x137;" horiz-adv-x="532" 
d="M534 -11l-6 -5q-116 2 -167 51q-57 55 -141 195v7q96 110 130 160l21 59q104 0 149 -15l-14 -27q-33 -16 -118 -44q-28 -26 -65 -70v-3q23 -38 211 -308zM208 56l67 -28l-8 -29q-20 0 -61.5 1t-62.5 1q-20 0 -60 -1t-61 -1l5 27l55 31q2 60 2 324q0 186 -3 242l-57 24
l9 24q112 26 176 28q-3 -141 -3 -303q0 -254 2 -340zM247 -233l-19 25q51 38 51 71q0 23 -16 36l-28 17v18l67 34h15q38 -20 39 -71q0 -37 -29.5 -73t-79.5 -57z" />
    <glyph glyph-name="kgreenlandic" unicode="&#x138;" horiz-adv-x="536" 
d="M533 -4l-15 -12q-40 1 -85.5 14t-69.5 36q-35 31 -141 184v6q98 111 129 160q14 22 17 62q69 7 159 -3v-4q-8 -17 -21 -32q-42 -12 -70 -21q-24 -6 -41 -25q-23 -23 -70 -75v-1l134 -185l36 -50l27 -37.5t11 -16.5zM210 53l67 -27l-9 -27q-20 0 -61 0.5t-62 0.5
q-20 0 -60.5 -0.5t-61.5 -0.5l6 25l55 30q2 35 2 188v139l-58 24l8 24q103 25 172 27v-213q0 -60 2 -190z" />
    <glyph glyph-name="Lacute" unicode="&#x139;" horiz-adv-x="581" 
d="M38 633l9 26q21 0 66 -0.5t69 -0.5t70.5 0.5t69.5 0.5l-9 -28l-67 -33v-254q0 -238 4 -290l186 -12q81 117 106 142l18 -6q-1 -24 -14.5 -92t-20.5 -90q-10 0 -46.5 1t-114 2t-184.5 1q-24 0 -75.5 -0.5t-78.5 -0.5l8 27l81 34q4 18 4 283v255zM142 699l-17 28l160 127
q18 -2 39 -22t32 -44l-1 -13z" />
    <glyph glyph-name="lacute" unicode="&#x13a;" horiz-adv-x="288" 
d="M208 58l70 -30l-7 -29q-21 0 -62.5 1t-61.5 1q-22 0 -65.5 -1t-64.5 -1l5 27l59 33q2 66 2 338q0 175 -3 224l-56 27l8 23q21 9 79 17.5t97 10.5q-3 -125 -3 -298q0 -151 3 -343zM77 734l-17 28l160 127q18 -2 39 -22t32 -44l-1 -13z" />
    <glyph glyph-name="Lcommaaccent" unicode="&#x13b;" horiz-adv-x="581" 
d="M38 633l9 26q21 0 66 -0.5t69 -0.5t70.5 0.5t69.5 0.5l-9 -28l-67 -33v-254q0 -238 4 -290l186 -12q81 117 106 142l18 -6q-1 -24 -14.5 -92t-20.5 -90q-10 0 -46.5 1t-114 2t-184.5 1q-24 0 -75.5 -0.5t-78.5 -0.5l8 27l81 34q4 18 4 283v255zM285 -233l-19 25
q51 38 51 71q0 23 -16 36l-28 17v18l67 34h15q38 -20 39 -71q0 -37 -29.5 -73t-79.5 -57z" />
    <glyph glyph-name="lcommaaccent" unicode="&#x13c;" horiz-adv-x="288" 
d="M208 58l70 -30l-7 -29q-21 0 -62.5 1t-61.5 1q-22 0 -65.5 -1t-64.5 -1l5 27l59 33q2 66 2 338q0 175 -3 224l-56 27l8 23q21 9 79 17.5t97 10.5q-3 -125 -3 -298q0 -151 3 -343zM105 -233l-19 25q51 38 51 71q0 23 -16 36l-28 17v18l67 34h15q38 -20 39 -71
q0 -37 -29.5 -73t-79.5 -57z" />
    <glyph glyph-name="Lcaron" unicode="&#x13d;" horiz-adv-x="581" 
d="M38 633l9 26q21 0 66 -0.5t69 -0.5t70.5 0.5t69.5 0.5l-9 -28l-67 -33v-254q0 -238 4 -290l186 -12q81 117 106 142l18 -6q-1 -24 -14.5 -92t-20.5 -90q-10 0 -46.5 1t-114 2t-184.5 1q-24 0 -75.5 -0.5t-78.5 -0.5l8 27l81 34q4 18 4 283v255zM383 492l-19 25
q51 38 51 71q0 23 -16 36l-28 17v18l67 34h15q38 -20 39 -71q0 -37 -29.5 -73t-79.5 -57z" />
    <glyph glyph-name="lcaron" unicode="&#x13e;" horiz-adv-x="288" 
d="M208 58l70 -30l-7 -29q-21 0 -62.5 1t-61.5 1q-22 0 -65.5 -1t-64.5 -1l5 27l59 33q2 66 2 338q0 175 -3 224l-56 27l8 23q21 9 79 17.5t97 10.5q-3 -125 -3 -298q0 -151 3 -343zM251 535l-19 25q51 38 51 71q0 23 -16 36l-28 17v18l67 34h15q38 -20 39 -71
q0 -37 -29.5 -73t-79.5 -57z" />
    <glyph glyph-name="Ldot" unicode="&#x13f;" horiz-adv-x="581" 
d="M38 633l9 26q21 0 66 -0.5t69 -0.5t70.5 0.5t69.5 0.5l-9 -28l-67 -33v-254q0 -238 4 -290l186 -12q81 117 106 142l18 -6q-1 -24 -14.5 -92t-20.5 -90q-10 0 -46.5 1t-114 2t-184.5 1q-24 0 -75.5 -0.5t-78.5 -0.5l8 27l81 34q4 18 4 283v255zM422 404l9 2
q12 -4 31.5 -26t28.5 -40l-3 -10q-7 -15 -27.5 -36.5t-34.5 -30.5l-9 -3q-36 23 -61 67l3 10q12 19 30 38.5t33 28.5z" />
    <glyph glyph-name="ldot" unicode="&#x140;" horiz-adv-x="316" 
d="M208 58l69 -30l-6 -29q-21 0 -62.5 1t-61.5 1q-22 0 -65.5 -1t-64.5 -1l5 27l59 33q2 62 2 338q0 176 -3 224l-56 27l8 23q21 9 79 17.5t97 10.5q-3 -125 -3 -298q0 -196 3 -343zM301 452l9 2q12 -4 31.5 -26.5t28.5 -40.5l-3 -9q-6 -15 -26.5 -36t-35.5 -31l-9 -3
q-16 10 -34 30.5t-27 36.5l3 10q12 19 30 38.5t33 28.5z" />
    <glyph glyph-name="Lslash" unicode="&#x141;" horiz-adv-x="589" 
d="M47 271l82 55v273l-81 34l10 26q21 0 63.5 -0.5t64.5 -0.5q25 0 73.5 0.5t71.5 0.5l-11 -29l-65 -31v-189l119 80l-5 -55l-114 -77q0 -255 4 -305l187 -12q67 102 105 143l17 -6q-2 -26 -14 -95t-18 -87q-10 0 -47 1t-115 2t-185 1q-24 0 -75 -0.5t-79 -0.5l8 27l82 33
q4 14 4 215l-87 -58z" />
    <glyph glyph-name="lslash" unicode="&#x142;" horiz-adv-x="308" 
d="M38 336l64 48q0 197 -3 237l-56 27l7 23q22 9 80 17.5t97 10.5q-3 -113 -3 -226l97 72l-10 -57l-87 -65q0 -207 3 -366l70 -30l-8 -28q-21 0 -62.5 0.5t-62.5 0.5q-22 0 -64.5 -0.5t-63.5 -0.5l4 28l60 30q2 56 2 276l-73 -55z" />
    <glyph glyph-name="Nacute" unicode="&#x143;" horiz-adv-x="769" 
d="M281 25l-7 -26q-20 0 -63 0.5t-65 0.5q-19 0 -59 -0.5t-60 -0.5l5 27l79 40q9 91 19 487q-22 29 -38.5 44t-26 19t-43.5 16l11 27l174 5q4 -15 40 -60q203 -247 365 -425h2q0 79 -6 415l-98 39l9 26q21 0 61 -0.5t57 -0.5q19 0 59 0.5t60 0.5l-7 -27l-77 -38
q0 -1 -3 -100.5t-6 -212.5t-3 -195q0 -64 -5 -101l-19 -6q-123 92 -462 521h-2q-5 -376 7 -435zM337 689l-17 28l160 127q18 -2 39 -22t32 -44l-1 -13z" />
    <glyph glyph-name="nacute" unicode="&#x144;" horiz-adv-x="581" 
d="M89 284v84l-51 24l8 22q12 9 78 25.5t87 16.5l-7 -75l2 -1q95 76 151 76q74 0 107.5 -47t33.5 -111v-225q0 -15 18 -22l53 -25l-7 -27q-20 0 -63 0.5t-65 0.5q-17 0 -53 -0.5t-55 -0.5l6 27l40 32q4 116 4 226q0 47 -21.5 71.5t-57.5 24.5q-43 0 -86 -38q0 -267 2 -286
l51 -30l-6 -27q-35 1 -110 1q-21 0 -62 -0.5t-61 -0.5l7 27l54 30q3 21 3 228zM272 493l-28 22l89 170q56 4 96 -19v-15z" />
    <glyph glyph-name="Ncommaaccent" unicode="&#x145;" horiz-adv-x="769" 
d="M281 25l-7 -26q-20 0 -63 0.5t-65 0.5q-19 0 -59 -0.5t-60 -0.5l5 27l79 40q9 91 19 487q-22 29 -38.5 44t-26 19t-43.5 16l11 27l174 5q4 -15 40 -60q203 -247 365 -425h2q0 79 -6 415l-98 39l9 26q21 0 61 -0.5t57 -0.5q19 0 59 0.5t60 0.5l-7 -27l-77 -38
q0 -1 -3 -100.5t-6 -212.5t-3 -195q0 -64 -5 -101l-19 -6q-123 92 -462 521h-2q-5 -376 7 -435zM351 -213l-19 25q51 38 51 71q0 23 -16 36l-28 17v18l67 34h15q38 -20 39 -71q0 -37 -29.5 -73t-79.5 -57z" />
    <glyph glyph-name="ncommaaccent" unicode="&#x146;" horiz-adv-x="581" 
d="M89 284v84l-51 24l8 22q12 9 78 25.5t87 16.5l-7 -75l2 -1q95 76 151 76q74 0 107.5 -47t33.5 -111v-225q0 -15 18 -22l53 -25l-7 -27q-20 0 -63 0.5t-65 0.5q-17 0 -53 -0.5t-55 -0.5l6 27l40 32q4 116 4 226q0 47 -21.5 71.5t-57.5 24.5q-43 0 -86 -38q0 -267 2 -286
l51 -30l-6 -27q-35 1 -110 1q-21 0 -62 -0.5t-61 -0.5l7 27l54 30q3 21 3 228zM256 -252l-19 25q51 38 51 71q0 23 -16 36l-28 17v18l67 34h15q38 -20 39 -71q0 -37 -29.5 -73t-79.5 -57z" />
    <glyph glyph-name="Ncaron" unicode="&#x147;" horiz-adv-x="769" 
d="M281 25l-7 -26q-20 0 -63 0.5t-65 0.5q-19 0 -59 -0.5t-60 -0.5l5 27l79 40q9 91 19 487q-22 29 -38.5 44t-26 19t-43.5 16l11 27l174 5q4 -15 40 -60q203 -247 365 -425h2q0 79 -6 415l-98 39l9 26q21 0 61 -0.5t57 -0.5q19 0 59 0.5t60 0.5l-7 -27l-77 -38
q0 -1 -3 -100.5t-6 -212.5t-3 -195q0 -64 -5 -101l-19 -6q-123 92 -462 521h-2q-5 -376 7 -435zM403 683h-20l-138 125l19 25l129 -64l131 64l16 -25z" />
    <glyph glyph-name="ncaron" unicode="&#x148;" horiz-adv-x="581" 
d="M89 284v84l-51 24l8 22q12 9 78 25.5t87 16.5l-7 -75l2 -1q95 76 151 76q74 0 107.5 -47t33.5 -111v-225q0 -15 18 -22l53 -25l-7 -27q-20 0 -63 0.5t-65 0.5q-17 0 -53 -0.5t-55 -0.5l6 27l40 32q4 116 4 226q0 47 -21.5 71.5t-57.5 24.5q-43 0 -86 -38q0 -267 2 -286
l51 -30l-6 -27q-35 1 -110 1q-21 0 -62 -0.5t-61 -0.5l7 27l54 30q3 21 3 228zM301 504l-21 -4l-108 178l24 20l95 -94l93 95l24 -21z" />
    <glyph glyph-name="napostrophe" unicode="&#x149;" horiz-adv-x="581" 
d="M89 284v84l-51 24l8 22q12 9 78 25.5t87 16.5l-7 -75l2 -1q95 76 151 76q74 0 107.5 -47t33.5 -111v-225q0 -15 18 -22l53 -25l-7 -27q-20 0 -63 0.5t-65 0.5q-17 0 -53 -0.5t-55 -0.5l6 27l40 32q4 116 4 226q0 47 -21.5 71.5t-57.5 24.5q-43 0 -86 -38q0 -267 2 -286
l51 -30l-6 -27q-35 1 -110 1q-21 0 -62 -0.5t-61 -0.5l7 27l54 30q3 21 3 228zM49 530l-19 25q51 38 51 71q0 23 -16 36l-28 17v18l67 34h15q38 -20 39 -71q0 -37 -29.5 -73t-79.5 -57z" />
    <glyph glyph-name="Eng" unicode="&#x14a;" horiz-adv-x="767" 
d="M281 25l-6 -26q-20 0 -61.5 0.5t-62.5 0.5q-20 0 -61.5 -0.5t-62.5 -0.5l5 26l80 40q9 94 19 487q-21 29 -38 44t-29 20.5t-41 15.5l15 27l170 5q4 -15 40 -60q185 -228 363 -424h2q0 73 -6 415l-98 38l9 26q20 0 60 -0.5t58 -0.5q19 0 59.5 0.5t60.5 0.5l-8 -28l-77 -36
q-11 -462 -11 -510q0 -170 -32 -228q-14 -25 -33 -38.5t-34 -13.5q-17 0 -38 17t-26 34l4 15q44 9 70 32q38 33 38 85v15q-132 115 -433 497h-3q-5 -376 7 -436z" />
    <glyph glyph-name="eng" unicode="&#x14b;" horiz-adv-x="569" 
d="M89 283v83l-51 25l8 23q12 9 78 25.5t87 16.5l-7 -77h2q98 77 152 77q73 0 107 -47t34 -112v-201q0 -142 -109 -220q-54 -42 -81 -46q-15 6 -29.5 21t-20.5 35l13 19q29 -8 62 -8q16 0 24.5 8t14 43t5.5 103v217q-1 111 -79 111q-44 0 -88 -39q0 -265 2 -285l51 -31
l-7 -25q-34 1 -109 1q-21 0 -62 -0.5t-61 -0.5l6 25l55 31q3 21 3 228z" />
    <glyph glyph-name="Omacron" unicode="&#x14c;" horiz-adv-x="796" 
d="M399 677h1q47 0 95 -12t95 -39t83 -65t58.5 -95.5t23.5 -126.5q1 -89 -30 -160t-83.5 -113t-114.5 -63.5t-127 -21.5q-50 0 -100 13t-97 40.5t-83 66.5t-57.5 96.5t-21.5 125.5q0 107 54 190t134.5 123.5t169.5 40.5zM388 637h-1q-96 0 -149 -85t-53 -212
q0 -81 25.5 -153t79 -119.5t123.5 -47.5q55 0 95 28t61.5 75t31.5 97t10 104q0 73 -24.5 143t-77 120t-121.5 50zM514 729h-237l20 69h237z" />
    <glyph glyph-name="omacron" unicode="&#x14d;" horiz-adv-x="543" 
d="M272 456h1q104 0 170 -64.5t66 -165.5q0 -107 -67 -173t-171 -66q-99 0 -168.5 62.5t-69.5 167.5q0 107 72 173t167 66zM269 417h-1q-34 0 -57.5 -30t-33 -70.5t-9.5 -84.5q0 -48 11 -93t37 -79t63 -34q28 0 47.5 18.5t29.5 49t14 60.5t4 61q0 46 -10 89.5t-34.5 78
t-60.5 34.5zM376 547h-226l18 68h227z" />
    <glyph glyph-name="Obreve" unicode="&#x14e;" horiz-adv-x="796" 
d="M399 677h1q47 0 95 -12t95 -39t83 -65t58.5 -95.5t23.5 -126.5q1 -89 -30 -160t-83.5 -113t-114.5 -63.5t-127 -21.5q-50 0 -100 13t-97 40.5t-83 66.5t-57.5 96.5t-21.5 125.5q0 107 54 190t134.5 123.5t169.5 40.5zM388 637h-1q-96 0 -149 -85t-53 -212
q0 -81 25.5 -153t79 -119.5t123.5 -47.5q55 0 95 28t61.5 75t31.5 97t10 104q0 73 -24.5 143t-77 120t-121.5 50zM390 715h-1q-65 0 -97 36.5t-32 97.5l35 6q6 -20 13.5 -33t28.5 -24t53 -11q31 0 52 10.5t28.5 22t15.5 30.5l35 5q-1 -64 -34.5 -102t-96.5 -38z" />
    <glyph glyph-name="obreve" unicode="&#x14f;" horiz-adv-x="543" 
d="M272 456h1q104 0 170 -64.5t66 -165.5q0 -107 -67 -173t-171 -66q-99 0 -168.5 62.5t-69.5 167.5q0 107 72 173t167 66zM269 417h-1q-34 0 -57.5 -30t-33 -70.5t-9.5 -84.5q0 -48 11 -93t37 -79t63 -34q28 0 47.5 18.5t29.5 49t14 60.5t4 61q0 46 -10 89.5t-34.5 78
t-60.5 34.5zM148 656l37 9q4 -22 10.5 -37t23 -27.5t42.5 -12.5q22 0 37.5 6.5t24 18t13 21t7.5 22.5l37 9q0 -67 -30.5 -107t-90.5 -40q-61 0 -87.5 39t-23.5 99z" />
    <glyph glyph-name="Ohungarumlaut" unicode="&#x150;" horiz-adv-x="796" 
d="M399 677h1q47 0 95 -12t95 -39t83 -65t58.5 -95.5t23.5 -126.5q1 -89 -30 -160t-83.5 -113t-114.5 -63.5t-127 -21.5q-50 0 -100 13t-97 40.5t-83 66.5t-57.5 96.5t-21.5 125.5q0 107 54 190t134.5 123.5t169.5 40.5zM388 637h-1q-96 0 -149 -85t-53 -212
q0 -81 25.5 -153t79 -119.5t123.5 -47.5q55 0 95 28t61.5 75t31.5 97t10 104q0 73 -24.5 143t-77 120t-121.5 50zM455 714l-25 27l89 124q40 -3 81 -32v-20zM286 714l-25 27l88 124q41 -3 82 -32v-20z" />
    <glyph glyph-name="ohungarumlaut" unicode="&#x151;" horiz-adv-x="543" 
d="M272 456h1q104 0 170 -64.5t66 -165.5q0 -107 -67 -173t-171 -66q-99 0 -168.5 62.5t-69.5 167.5q0 107 72 173t167 66zM269 417h-1q-34 0 -57.5 -30t-33 -70.5t-9.5 -84.5q0 -48 11 -93t37 -79t63 -34q28 0 47.5 18.5t29.5 49t14 60.5t4 61q0 46 -10 89.5t-34.5 78
t-60.5 34.5zM189 493l-26 19l60 175q57 0 90 -13v-17zM345 493l-26 19l59 175q60 0 91 -13v-17z" />
    <glyph glyph-name="OE" unicode="&#x152;" horiz-adv-x="1022" 
d="M628 659h231q36 11 96 13l3 -4q-5 -60 -25 -158l-19 -10q-7 10 -18 33.5l-22.5 49.5t-15.5 33l-184 -9v-242q114 0 255 13l4 -12q-4 -11 -27.5 -37.5t-33.5 -26.5q-4 0 -90.5 5.5t-107.5 5.5q0 -183 4 -260l193 -10q82 103 106 129l17 -7q-3 -23 -15.5 -87t-19.5 -81
q-65 3 -181 3h-150q-23 0 -101.5 -3t-91.5 -3q-191 0 -293 88t-102 238q0 152 110 248t315 96q26 0 88 -2.5t75 -2.5zM547 53v554q-32 17 -92 17q-69 0 -123 -25t-85.5 -67.5t-47.5 -94.5t-16 -110q0 -78 28.5 -143t91.5 -107.5t151 -42.5q57 0 93 19z" />
    <glyph glyph-name="oe" unicode="&#x153;" horiz-adv-x="823" 
d="M268 414h-1q-29 0 -49.5 -18t-30.5 -48.5t-14 -61t-4 -64.5q0 -43 9 -85t34.5 -76.5t63.5 -34.5q29 0 49.5 21.5t28.5 57t11 62.5t3 56q0 28 -5 58.5t-15.5 61.5t-31 51t-48.5 20zM679 221h-176v-19q0 -72 42.5 -115.5t109.5 -43.5q16 0 32 9q64 49 85 57l12 -15
q-9 -25 -32 -52.5t-38 -37.5q-48 -16 -107 -16q-117 0 -169 75q-58 -75 -173 -75q-99 0 -165.5 60t-66.5 168q0 109 73.5 174t169.5 65q110 0 167 -80q32 38 77 59t91 21q79 0 130.5 -45t51.5 -132q0 -31 -12 -37q-36 -20 -102 -20zM503 262h160q8 30 8 49q0 45 -19.5 74.5
t-52.5 29.5q-46 0 -71 -48.5t-25 -104.5z" />
    <glyph glyph-name="Racute" unicode="&#x154;" horiz-adv-x="654" 
d="M37 619l10 28q105 20 268 20q258 0 258 -167q0 -118 -152 -169v-1q43 -82 140 -217l87 -118l-9 -11q-75 1 -117.5 20.5t-75.5 57.5q-66 75 -166 248l2 6q76 19 116 56t40 107q0 148 -191 143v-303q0 -228 2 -259l95 -34l-7 -27q-25 0 -76 0.5t-77 0.5t-76 -0.5t-76 -0.5
l8 27l73 33q7 126 7 260v284zM261 714l-17 28l160 127q18 -2 39 -22t32 -44l-1 -13z" />
    <glyph glyph-name="racute" unicode="&#x155;" horiz-adv-x="406" 
d="M36 395l7 22q13 7 70.5 22.5t84.5 16.5q12 -41 10 -89h3q25 41 60.5 65t70.5 24q36 0 54 -20q-1 -21 -16 -63.5t-29 -66.5l-15 -6q-20 29 -41 71q-5 4 -15 4q-18 0 -38 -17.5t-31 -41.5v-258l100 -31l-6 -27q-25 0 -78 1t-80 1q-20 0 -61 -1t-60 -1l4 27l55 31
q5 129 5 309zM209 492l-28 22l89 170q56 4 96 -19v-15z" />
    <glyph glyph-name="Rcommaaccent" unicode="&#x156;" horiz-adv-x="654" 
d="M37 619l10 28q105 20 268 20q258 0 258 -167q0 -118 -152 -169v-1q43 -82 140 -217l87 -118l-9 -11q-75 1 -117.5 20.5t-75.5 57.5q-66 75 -166 248l2 6q76 19 116 56t40 107q0 148 -191 143v-303q0 -228 2 -259l95 -34l-7 -27q-25 0 -76 0.5t-77 0.5t-76 -0.5t-76 -0.5
l8 27l73 33q7 126 7 260v284zM332 -231l-19 25q51 38 51 71q0 23 -16 36l-28 17v18l67 34h15q38 -20 39 -71q0 -37 -29.5 -73t-79.5 -57z" />
    <glyph glyph-name="rcommaaccent" unicode="&#x157;" horiz-adv-x="406" 
d="M36 395l7 22q13 7 70.5 22.5t84.5 16.5q12 -41 10 -89h3q25 41 60.5 65t70.5 24q36 0 54 -20q-1 -21 -16 -63.5t-29 -66.5l-15 -6q-20 29 -41 71q-5 4 -15 4q-18 0 -38 -17.5t-31 -41.5v-258l100 -31l-6 -27q-25 0 -78 1t-80 1q-20 0 -61 -1t-60 -1l4 27l55 31
q5 129 5 309zM113 -233l-19 25q51 38 51 71q0 23 -16 36l-28 17v18l67 34h15q38 -20 39 -71q0 -37 -29.5 -73t-79.5 -57z" />
    <glyph glyph-name="Rcaron" unicode="&#x158;" horiz-adv-x="654" 
d="M37 619l10 28q105 20 268 20q258 0 258 -167q0 -118 -152 -169v-1q43 -82 140 -217l87 -118l-9 -11q-75 1 -117.5 20.5t-75.5 57.5q-66 75 -166 248l2 6q76 19 116 56t40 107q0 148 -191 143v-303q0 -228 2 -259l95 -34l-7 -27q-25 0 -76 0.5t-77 0.5t-76 -0.5t-76 -0.5
l8 27l73 33q7 126 7 260v284zM319 712h-20l-138 125l19 25l129 -64l131 64l16 -25z" />
    <glyph glyph-name="rcaron" unicode="&#x159;" horiz-adv-x="406" 
d="M36 395l7 22q13 7 70.5 22.5t84.5 16.5q12 -41 10 -89h3q25 41 60.5 65t70.5 24q36 0 54 -20q-1 -21 -16 -63.5t-29 -66.5l-15 -6q-20 29 -41 71q-5 4 -15 4q-18 0 -38 -17.5t-31 -41.5v-258l100 -31l-6 -27q-25 0 -78 1t-80 1q-20 0 -61 -1t-60 -1l4 27l55 31
q5 129 5 309zM231 504l-21 -4l-108 178l24 20l95 -94l93 95l24 -21z" />
    <glyph glyph-name="Sacute" unicode="&#x15a;" horiz-adv-x="536" 
d="M277 677h2q64 0 103 -29q19 14 75 33l13 -7q-1 -19 -13 -76.5t-24 -86.5l-17 -8q-28 50 -45 107q-26 20 -78 20q-54 0 -88.5 -29.5t-34.5 -76.5q0 -56 59 -89q19 -11 71 -37.5l78 -40.5q70 -38 96 -80t26 -92q0 -56 -24.5 -98t-64.5 -64t-81 -32t-82 -10q-62 0 -125 24
t-86 44q5 24 24.5 74t28.5 63l16 8q14 -33 40 -151q29 -18 92 -17q64 1 100.5 31.5t36.5 84.5q0 60 -66 97q-131 72 -148 82q-103 59 -103 164q1 79 60 135.5t159 56.5zM222 713l-17 28l160 127q18 -2 39 -22t32 -44l-1 -13z" />
    <glyph glyph-name="sacute" unicode="&#x15b;" horiz-adv-x="405" 
d="M204 456h1q41 0 76 -24q24 17 58 29l10 -6q-7 -93 -25 -134l-17 -6q-21 33 -37 78q-22 18 -59 18q-31 0 -48.5 -17.5t-17.5 -39.5q0 -29 38 -49l120 -60q73 -39 73 -109q0 -43 -20 -74t-51.5 -46.5t-61.5 -22t-60 -6.5q-41 0 -83.5 12.5t-65.5 28.5q1 19 10 63.5t15 58.5
l15 7q10 -17 33 -68t25 -54q25 -10 55 -10q34 0 57 19t23 45q0 33 -36 52l-90 46q-96 46 -96 128q0 57 42 99t117 42zM186 493l-28 22l89 170q56 4 96 -19v-15z" />
    <glyph glyph-name="Scircumflex" unicode="&#x15c;" horiz-adv-x="536" 
d="M277 677h2q64 0 103 -29q19 14 75 33l13 -7q-1 -19 -13 -76.5t-24 -86.5l-17 -8q-28 50 -45 107q-26 20 -78 20q-54 0 -88.5 -29.5t-34.5 -76.5q0 -56 59 -89q19 -11 71 -37.5l78 -40.5q70 -38 96 -80t26 -92q0 -56 -24.5 -98t-64.5 -64t-81 -32t-82 -10q-62 0 -125 24
t-86 44q5 24 24.5 74t28.5 63l16 8q14 -33 40 -151q29 -18 92 -17q64 1 100.5 31.5t36.5 84.5q0 60 -66 97q-131 72 -148 82q-103 59 -103 164q1 79 60 135.5t159 56.5zM269 859h20l137 -123l-16 -27l-131 64l-131 -64l-16 27z" />
    <glyph glyph-name="scircumflex" unicode="&#x15d;" horiz-adv-x="405" 
d="M204 456h1q41 0 76 -24q24 17 58 29l10 -6q-7 -93 -25 -134l-17 -6q-21 33 -37 78q-22 18 -59 18q-31 0 -48.5 -17.5t-17.5 -39.5q0 -29 38 -49l120 -60q73 -39 73 -109q0 -43 -20 -74t-51.5 -46.5t-61.5 -22t-60 -6.5q-41 0 -83.5 12.5t-65.5 28.5q1 19 10 63.5t15 58.5
l15 7q10 -17 33 -68t25 -54q25 -10 55 -10q34 0 57 19t23 45q0 33 -36 52l-90 46q-96 46 -96 128q0 57 42 99t117 42zM197 684l22 5l108 -173l-25 -20l-94 88l-93 -88l-25 20z" />
    <glyph glyph-name="Scedilla" unicode="&#x15e;" horiz-adv-x="536" 
d="M298 -15l-26 -36q36 -19 50 -36.5t14 -41.5q0 -72 -123 -102l-14 31q66 25 66 56q0 14 -14 24t-54 26l56 75q-60 -1 -121.5 19.5t-94.5 46.5q5 25 24.5 75t28.5 63l16 8q14 -36 41 -150q24 -18 90 -17q65 1 102 31t37 84q0 61 -67 98q-112 60 -148 82q-103 60 -103 164
q1 79 60.5 135.5t159.5 56.5h1q64 0 104 -28q22 14 74 32l13 -6q-2 -22 -13.5 -78.5t-22.5 -85.5l-17 -8q-29 52 -45 108q-27 19 -77 19q-56 0 -90.5 -29t-34.5 -76q0 -55 54 -88q18 -11 74.5 -39.5l78.5 -39.5q71 -38 97 -80.5t26 -93.5q0 -48 -18 -85.5t-48.5 -60
t-64 -35.5t-71.5 -18z" />
    <glyph glyph-name="Scedilla" unicode="&#xf6c1;" horiz-adv-x="536" 
d="M298 -15l-26 -36q36 -19 50 -36.5t14 -41.5q0 -72 -123 -102l-14 31q66 25 66 56q0 14 -14 24t-54 26l56 75q-60 -1 -121.5 19.5t-94.5 46.5q5 25 24.5 75t28.5 63l16 8q14 -36 41 -150q24 -18 90 -17q65 1 102 31t37 84q0 61 -67 98q-112 60 -148 82q-103 60 -103 164
q1 79 60.5 135.5t159.5 56.5h1q64 0 104 -28q22 14 74 32l13 -6q-2 -22 -13.5 -78.5t-22.5 -85.5l-17 -8q-29 52 -45 108q-27 19 -77 19q-56 0 -90.5 -29t-34.5 -76q0 -55 54 -88q18 -11 74.5 -39.5l78.5 -39.5q71 -38 97 -80.5t26 -93.5q0 -48 -18 -85.5t-48.5 -60
t-64 -35.5t-71.5 -18z" />
    <glyph glyph-name="scedilla" unicode="&#x15f;" horiz-adv-x="407" 
d="M236 -7l-33 -44q35 -17 48.5 -34.5t13.5 -40.5q0 -32 -31 -58t-90 -38l-12 28q63 25 63 51q0 14 -15 26t-51 26l62 79q-39 -2 -83.5 9t-74.5 29q0 21 9 66t15 59l17 8q14 -22 61 -123q27 -10 52 -10q36 0 60 18.5t24 45.5q0 34 -35 50q-67 35 -97 48q-96 44 -96 128
q0 57 42.5 98.5t117.5 41.5h1q41 0 77 -23q29 19 57 28l11 -9q-6 -82 -25 -130l-19 -8q-11 15 -36 79q-18 18 -60 18q-32 0 -49.5 -16t-17.5 -39q0 -31 42 -51l119 -59q73 -38 73 -109q0 -64 -40.5 -98t-99.5 -46z" />
    <glyph glyph-name="scedilla" unicode="&#xf6c2;" horiz-adv-x="407" 
d="M236 -7l-33 -44q35 -17 48.5 -34.5t13.5 -40.5q0 -32 -31 -58t-90 -38l-12 28q63 25 63 51q0 14 -15 26t-51 26l62 79q-39 -2 -83.5 9t-74.5 29q0 21 9 66t15 59l17 8q14 -22 61 -123q27 -10 52 -10q36 0 60 18.5t24 45.5q0 34 -35 50q-67 35 -97 48q-96 44 -96 128
q0 57 42.5 98.5t117.5 41.5h1q41 0 77 -23q29 19 57 28l11 -9q-6 -82 -25 -130l-19 -8q-11 15 -36 79q-18 18 -60 18q-32 0 -49.5 -16t-17.5 -39q0 -31 42 -51l119 -59q73 -38 73 -109q0 -64 -40.5 -98t-99.5 -46z" />
    <glyph glyph-name="Scaron" unicode="&#x160;" horiz-adv-x="536" 
d="M277 677h2q64 0 103 -29q19 14 75 33l13 -7q-1 -19 -13 -76.5t-24 -86.5l-17 -8q-28 50 -45 107q-26 20 -78 20q-54 0 -88.5 -29.5t-34.5 -76.5q0 -56 59 -89q19 -11 71 -37.5l78 -40.5q70 -38 96 -80t26 -92q0 -56 -24.5 -98t-64.5 -64t-81 -32t-82 -10q-62 0 -125 24
t-86 44q5 24 24.5 74t28.5 63l16 8q14 -33 40 -151q29 -18 92 -17q64 1 100.5 31.5t36.5 84.5q0 60 -66 97q-131 72 -148 82q-103 59 -103 164q1 79 60 135.5t159 56.5zM290 716h-20l-138 125l19 25l129 -64l131 64l16 -25z" />
    <glyph glyph-name="scaron" unicode="&#x161;" horiz-adv-x="405" 
d="M204 456h1q41 0 76 -24q24 17 58 29l10 -6q-7 -93 -25 -134l-17 -6q-21 33 -37 78q-22 18 -59 18q-31 0 -48.5 -17.5t-17.5 -39.5q0 -29 38 -49l120 -60q73 -39 73 -109q0 -43 -20 -74t-51.5 -46.5t-61.5 -22t-60 -6.5q-41 0 -83.5 12.5t-65.5 28.5q1 19 10 63.5t15 58.5
l15 7q10 -17 33 -68t25 -54q25 -10 55 -10q34 0 57 19t23 45q0 33 -36 52l-90 46q-96 46 -96 128q0 57 42 99t117 42zM213 504l-21 -4l-108 178l24 20l95 -94l93 95l24 -21z" />
    <glyph glyph-name="Tcommaaccent" unicode="&#x162;" horiz-adv-x="682" 
d="M137 659h418q70 13 94 14l4 -5q-3 -26 -15 -88.5t-18 -84.5l-17 -7q-1 3 -22.5 56.5t-28.5 74.5l-151 -8v-244q0 -156 6 -306l117 -35l-9 -27q-29 0 -86.5 0.5t-86.5 0.5q-30 0 -90 -0.5t-90 -0.5l7 27l103 35q3 30 3 274v276l-141 8q-51 -90 -76 -123l-18 -5
q-3 116 5 178l6 4q23 -1 86 -14zM291 -243l-19 25q51 38 51 71q0 23 -16 36l-28 17v18l67 34h15q38 -20 39 -71q0 -37 -29.5 -73t-79.5 -57z" />
    <glyph glyph-name="tcommaaccent" unicode="&#x163;" horiz-adv-x="351" 
d="M200 442h149l-18 -39l-131 -15q0 -23 -0.5 -115t-0.5 -156q0 -28 12 -42q19 -15 48 -15q47 0 80 25l5 -1l-1 -35q-18 -27 -53 -44.5t-79 -17.5q-75 0 -112 45q-22 29 -22 105v251l-63 16l15 38h50q6 24 21 64t25 56q13 9 40.5 17.5t38.5 8.5zM155 -248l-19 25
q51 38 51 71q0 23 -16 36l-28 17v18l67 34h15q38 -20 39 -71q0 -37 -29.5 -73t-79.5 -57z" />
    <glyph glyph-name="Tcaron" unicode="&#x164;" horiz-adv-x="682" 
d="M137 659h418q70 13 94 14l4 -5q-3 -26 -15 -88.5t-18 -84.5l-17 -7q-1 3 -22.5 56.5t-28.5 74.5l-151 -8v-244q0 -156 6 -306l117 -35l-9 -27q-29 0 -86.5 0.5t-86.5 0.5q-30 0 -90 -0.5t-90 -0.5l7 27l103 35q3 30 3 274v276l-141 8q-51 -90 -76 -123l-18 -5
q-3 116 5 178l6 4q23 -1 86 -14zM351 704h-20l-138 125l19 25l129 -64l131 64l16 -25z" />
    <glyph glyph-name="tcaron" unicode="&#x165;" horiz-adv-x="351" 
d="M200 442h149l-18 -39l-131 -15q0 -23 -0.5 -115t-0.5 -156q0 -28 12 -42q19 -15 48 -15q47 0 80 25l5 -1l-1 -35q-18 -27 -53 -44.5t-79 -17.5q-75 0 -112 45q-22 29 -22 105v251l-63 16l15 38h50q6 24 21 64t25 56q13 9 40.5 17.5t38.5 8.5zM277 529l-19 25q51 38 51 71
q0 23 -16 36l-28 17v18l67 34h15q38 -20 39 -71q0 -37 -29.5 -73t-79.5 -57z" />
    <glyph glyph-name="Tbar" unicode="&#x166;" horiz-adv-x="682" 
d="M149 381h126v230l-141 8q-51 -90 -76 -125l-17 -7q-5 102 4 182l6 4q5 0 80 -14h424q73 13 94 14l4 -5q-3 -27 -15 -89.5t-18 -81.5l-16 -9q-41 99 -51 131l-151 -8v-230h144l-16 -43h-128q0 -205 6 -277l117 -36l-9 -26q-29 0 -87 0.5t-87 0.5q-30 0 -90 -0.5t-90 -0.5
l7 26l104 36q2 28 2 277h-141z" />
    <glyph glyph-name="tbar" unicode="&#x167;" 
d="M34 442h50q6 24 21 64t25 56q13 9 40.5 17.5t39.5 8.5l-5 -146h147l-17 -38l-130 -15v-116h104l-15 -42h-89q-1 -23 -1 -115q0 -28 13 -43q17 -15 45 -15q48 0 81 27l4 -1v-37q-18 -27 -52.5 -43.5t-78.5 -16.5q-75 0 -112 45q-22 29 -22 105v94h-66l13 42h53v116l-63 15
z" />
    <glyph glyph-name="Utilde" unicode="&#x168;" horiz-adv-x="746" 
d="M25 632l9 27q23 0 68.5 -1t67.5 -1t65 1t64 1l-7 -28l-56 -34q-1 -114 -1 -372q0 -70 26 -109q48 -69 150 -69q99 0 149 69q34 49 34 133q0 221 -4 348l-72 34l7 28q16 0 48.5 -1t47.5 -1q21 0 62.5 1t60.5 1l-5 -28l-83 -36q-5 -29 -11 -341q-2 -98 -39 -159
q-32 -52 -91 -82.5t-135 -30.5q-79 0 -144 28.5t-100 89.5q-28 49 -28 135q0 55 -0.5 134t-0.5 135t-1 94zM538 823l26 -20q-56 -94 -108 -94q-14 0 -66 25q-36 20 -50 20q-25 0 -67 -49l-25 22q58 99 107 99q19 0 61 -24q40 -22 55 -22q24 0 67 43z" />
    <glyph glyph-name="utilde" unicode="&#x169;" horiz-adv-x="565" 
d="M81 380l-56 29l9 23q61 16 174 18q-7 -126 -7 -282q0 -57 16 -79q24 -26 62 -26q49 0 82 39v263q-1 11 -13 18.5t-58 26.5l10 23q89 19 186 17q-3 -46 -3 -372q20 -36 72 -53l-5 -14q-7 -7 -30.5 -14.5t-46.5 -7.5q-87 0 -107 70h-2q-67 -72 -143 -72q-62 0 -100 36
q-42 38 -42 121q0 38 1 122t1 114zM410 637l28 -20q-55 -94 -105 -94q-15 0 -65 25q-36 20 -50 20q-24 0 -65 -49l-25 22q58 96 106 96q20 0 59 -22q36 -22 53 -22q27 0 64 44z" />
    <glyph glyph-name="Umacron" unicode="&#x16a;" horiz-adv-x="746" 
d="M25 632l9 27q23 0 68.5 -1t67.5 -1t65 1t64 1l-7 -28l-56 -34q-1 -114 -1 -372q0 -70 26 -109q48 -69 150 -69q99 0 149 69q34 49 34 133q0 221 -4 348l-72 34l7 28q16 0 48.5 -1t47.5 -1q21 0 62.5 1t60.5 1l-5 -28l-83 -36q-5 -29 -11 -341q-2 -98 -39 -159
q-32 -52 -91 -82.5t-135 -30.5q-79 0 -144 28.5t-100 89.5q-28 49 -28 135q0 55 -0.5 134t-0.5 135t-1 94zM509 711h-237l20 69h237z" />
    <glyph glyph-name="umacron" unicode="&#x16b;" horiz-adv-x="565" 
d="M81 380l-56 29l9 23q61 16 174 18q-7 -126 -7 -282q0 -57 16 -79q24 -26 62 -26q49 0 82 39v263q-1 11 -13 18.5t-58 26.5l10 23q89 19 186 17q-3 -46 -3 -372q20 -36 72 -53l-5 -14q-7 -7 -30.5 -14.5t-46.5 -7.5q-87 0 -107 70h-2q-67 -72 -143 -72q-62 0 -100 36
q-42 38 -42 121q0 38 1 122t1 114zM382 547h-226l18 68h227z" />
    <glyph glyph-name="Ubreve" unicode="&#x16c;" horiz-adv-x="746" 
d="M25 632l9 27q23 0 68.5 -1t67.5 -1t65 1t64 1l-7 -28l-56 -34q-1 -114 -1 -372q0 -70 26 -109q48 -69 150 -69q99 0 149 69q34 49 34 133q0 221 -4 348l-72 34l7 28q16 0 48.5 -1t47.5 -1q21 0 62.5 1t60.5 1l-5 -28l-83 -36q-5 -29 -11 -341q-2 -98 -39 -159
q-32 -52 -91 -82.5t-135 -30.5q-79 0 -144 28.5t-100 89.5q-28 49 -28 135q0 55 -0.5 134t-0.5 135t-1 94zM402 697h-1q-65 0 -97 36.5t-32 97.5l35 6q6 -20 13.5 -33t28.5 -24t53 -11q31 0 52 10.5t28.5 22t15.5 30.5l35 5q-1 -64 -34.5 -102t-96.5 -38z" />
    <glyph glyph-name="ubreve" unicode="&#x16d;" horiz-adv-x="565" 
d="M81 380l-56 29l9 23q61 16 174 18q-7 -126 -7 -282q0 -57 16 -79q24 -26 62 -26q49 0 82 39v263q-1 11 -13 18.5t-58 26.5l10 23q89 19 186 17q-3 -46 -3 -372q20 -36 72 -53l-5 -14q-7 -7 -30.5 -14.5t-46.5 -7.5q-87 0 -107 70h-2q-67 -72 -143 -72q-62 0 -100 36
q-42 38 -42 121q0 38 1 122t1 114zM163 656l37 9q4 -22 10.5 -37t23 -27.5t42.5 -12.5q22 0 37.5 6.5t24 18t13 21t7.5 22.5l37 9q0 -67 -30.5 -107t-90.5 -40q-61 0 -87.5 39t-23.5 99z" />
    <glyph glyph-name="Uring" unicode="&#x16e;" horiz-adv-x="746" 
d="M25 632l9 27q23 0 68.5 -1t67.5 -1t65 1t64 1l-7 -28l-56 -34q-1 -114 -1 -372q0 -70 26 -109q48 -69 150 -69q99 0 149 69q34 49 34 133q0 221 -4 348l-72 34l7 28q16 0 48.5 -1t47.5 -1q21 0 62.5 1t60.5 1l-5 -28l-83 -36q-5 -29 -11 -341q-2 -98 -39 -159
q-32 -52 -91 -82.5t-135 -30.5q-79 0 -144 28.5t-100 89.5q-28 49 -28 135q0 55 -0.5 134t-0.5 135t-1 94zM404 860h1q37 0 64.5 -24.5t27.5 -65.5t-27.5 -65t-65.5 -24t-65.5 24t-27.5 65t27.5 65.5t65.5 24.5zM404 822h-1q-20 0 -32.5 -13t-12.5 -39t13 -39t33 -13
q46 0 46 52t-46 52z" />
    <glyph glyph-name="uring" unicode="&#x16f;" horiz-adv-x="565" 
d="M81 380l-56 29l9 23q61 16 174 18q-7 -126 -7 -282q0 -57 16 -79q24 -26 62 -26q49 0 82 39v263q-1 11 -13 18.5t-58 26.5l10 23q89 19 186 17q-3 -46 -3 -372q20 -36 72 -53l-5 -14q-7 -7 -30.5 -14.5t-46.5 -7.5q-87 0 -107 70h-2q-67 -72 -143 -72q-62 0 -100 36
q-42 38 -42 121q0 38 1 122t1 114zM282 643h-1q-45 0 -45 -53q0 -26 13 -39.5t33 -13.5t33 14t13 39q0 53 -46 53zM282 681h1q38 0 65 -25t27 -66q0 -42 -27.5 -66t-65.5 -24t-65.5 24t-27.5 65q0 42 28 67t65 25z" />
    <glyph glyph-name="Uhungarumlaut" unicode="&#x170;" horiz-adv-x="746" 
d="M25 632l9 27q23 0 68.5 -1t67.5 -1t65 1t64 1l-7 -28l-56 -34q-1 -114 -1 -372q0 -70 26 -109q48 -69 150 -69q99 0 149 69q34 49 34 133q0 221 -4 348l-72 34l7 28q16 0 48.5 -1t47.5 -1q21 0 62.5 1t60.5 1l-5 -28l-83 -36q-5 -29 -11 -341q-2 -98 -39 -159
q-32 -52 -91 -82.5t-135 -30.5q-79 0 -144 28.5t-100 89.5q-28 49 -28 135q0 55 -0.5 134t-0.5 135t-1 94zM457 704l-25 27l89 124q40 -3 81 -32v-20zM288 704l-25 27l88 124q41 -3 82 -32v-20z" />
    <glyph glyph-name="uhungarumlaut" unicode="&#x171;" horiz-adv-x="565" 
d="M81 380l-56 29l9 23q61 16 174 18q-7 -126 -7 -282q0 -57 16 -79q24 -26 62 -26q49 0 82 39v263q-1 11 -13 18.5t-58 26.5l10 23q89 19 186 17q-3 -46 -3 -372q20 -36 72 -53l-5 -14q-7 -7 -30.5 -14.5t-46.5 -7.5q-87 0 -107 70h-2q-67 -72 -143 -72q-62 0 -100 36
q-42 38 -42 121q0 38 1 122t1 114zM194 493l-26 19l60 175q57 0 90 -13v-17zM350 493l-26 19l59 175q60 0 91 -13v-17z" />
    <glyph glyph-name="Uogonek" unicode="&#x172;" horiz-adv-x="746" 
d="M486 -128l11 -28q-46 -53 -111 -53q-38 0 -64.5 20.5t-26.5 56.5q0 56 78 114q-172 4 -237 118q-28 49 -28 135q0 55 -0.5 134t-0.5 135t-1 94l-81 34l9 27q23 0 68.5 -1t67.5 -1t65 1t64 1l-7 -28l-56 -34q-1 -113 -1 -372q0 -70 26 -109q48 -69 150 -69q99 0 149 69
q34 49 34 133q0 221 -4 348l-72 34l7 28q16 0 48.5 -1t47.5 -1q21 0 62.5 1t60.5 1l-5 -28l-83 -36q-5 -29 -11 -341q-2 -98 -39 -159q-54 -89 -172 -109q-58 -58 -58 -93t47 -35q30 0 63 14z" />
    <glyph glyph-name="uogonek" unicode="&#x173;" horiz-adv-x="565" 
d="M447 -130l11 -28q-46 -53 -111 -53q-38 0 -64.5 20.5t-26.5 57.5q0 73 129 155q-14 18 -19 37h-2q-67 -72 -143 -72q-62 0 -100 36q-42 38 -42 121q0 38 1 121.5t1 114.5l-56 29l9 23q63 16 175 18q-8 -108 -8 -282q0 -57 16 -79q24 -26 62 -26q49 0 82 39v263
q-1 11 -13 18.5t-58 26.5l10 23q89 19 186 17q-3 -46 -3 -372q19 -34 73 -53l-5 -14q-6 -7 -30.5 -14.5t-47.5 -7.5q-33 0 -57 12q-79 -70 -79 -110q0 -35 48 -35q29 0 62 14z" />
    <glyph glyph-name="Wcircumflex" unicode="&#x174;" horiz-adv-x="1039" 
d="M-1 632l10 27q21 0 65.5 -0.5t67.5 -0.5h105l-5 -26l-25 -27q24 -65 194 -465h3q14 26 94 194q-46 109 -116 256q-18 20 -75 42l7 27q19 0 58 -0.5t59 -0.5h78l1 -4l5 -48q7 -21 62 -147h3q60 131 65 144l3 51l2 4h44q17 0 50.5 0.5t49.5 0.5l-7 -27q-65 -25 -90 -49
q-50 -85 -97 -176l113 -262h2q79 200 166 454l-30 33l9 26h60q20 0 58 0.5t56 0.5l-8 -27q-53 -19 -86 -52q-38 -69 -211 -511q-26 -52 -64 -88h-11l-132 301h-2q-42 -81 -105 -214q-35 -59 -67 -87h-11l-118 273t-147 333q-21 24 -83 45zM546 862h20l137 -123l-16 -27
l-131 64l-131 -64l-16 27z" />
    <glyph glyph-name="wcircumflex" unicode="&#x175;" horiz-adv-x="718" 
d="M229 444l-5 -28l-33 -30q12 -43 78 -241h2q50 130 70 194l-10 70q8 7 41 19t53 16l9 -3l7 -82l91 -222h2q41 137 70 247l-41 34l9 26q11 0 35 -1t37 -1q14 0 42 1t42 1l-6 -26q-37 -22 -60 -40q-29 -62 -122 -340q-29 -35 -60 -56h-6l-114 272h-2l-88 -214
q-25 -35 -58 -58h-7q-129 362 -146 401q-28 19 -62 34l8 27q18 0 57.5 -1t60.5 -1q17 0 53 1t53 1zM374 684l22 5l108 -173l-25 -20l-94 88l-93 -88l-25 20z" />
    <glyph glyph-name="Ycircumflex" unicode="&#x176;" horiz-adv-x="648" 
d="M3 634l10 25q23 0 68 -1t67 -1q18 0 54 0.5t53 0.5l-7 -29l-27 -22q5 -11 143 -264h2q116 227 131 260l-41 29l12 26q12 0 36 -0.5t35 -0.5q19 0 56.5 1t56.5 1l-6 -28l-55 -23q-26 -8 -44 -33q-86 -135 -152 -260q-9 -18 -9 -33q0 -207 4 -223l113 -33l-7 -27
q-26 0 -83.5 0.5t-87.5 0.5q-31 0 -92 -0.5t-90 -0.5l7 26l104 34q6 84 6 216q0 15 -14 39q-88 161 -157 275q-25 24 -86 45zM331 854h20l137 -123l-16 -27l-131 64l-131 -64l-16 27z" />
    <glyph glyph-name="ycircumflex" unicode="&#x177;" horiz-adv-x="477" 
d="M325 418l9 26q11 0 33.5 -0.5t34.5 -0.5q18 0 49 0.5t44 0.5l-7 -27q-29 -15 -61 -37q-15 -30 -49.5 -112.5l-82 -198l-75.5 -181.5q-26 -118 -27 -120q-8 -4 -23 -4q-27 0 -54 16t-33 30q12 27 98 105l38 81q-1 3 -67 163.5t-91 214.5q-9 16 -66 43l8 27q20 0 58.5 -0.5
t58.5 -0.5q17 0 52 0.5t53 0.5l-6 -27l-27 -27q13 -37 91 -243h3q62 177 79 239zM242 684l22 5l108 -173l-25 -20l-94 88l-93 -88l-25 20z" />
    <glyph glyph-name="Ydieresis" unicode="&#x178;" horiz-adv-x="648" 
d="M3 634l10 25q23 0 68 -1t67 -1q18 0 54 0.5t53 0.5l-7 -29l-27 -22q5 -11 143 -264h2q116 227 131 260l-41 29l12 26q12 0 36 -0.5t35 -0.5q19 0 56.5 1t56.5 1l-6 -28l-55 -23q-26 -8 -44 -33q-86 -135 -152 -260q-9 -18 -9 -33q0 -207 4 -223l113 -33l-7 -27
q-26 0 -83.5 0.5t-87.5 0.5q-31 0 -92 -0.5t-90 -0.5l7 26l104 34q6 84 6 216q0 15 -14 39q-88 161 -157 275q-25 24 -86 45zM242 846l9 2q10 -4 29 -25t27 -38l-2 -9q-6 -15 -24.5 -34.5t-32.5 -29.5l-10 -2q-16 9 -32.5 28t-25.5 35l2 9q27 42 60 64zM453 846l8 2
q11 -4 30 -25t27 -38l-3 -9q-6 -15 -24.5 -34.5t-32.5 -29.5l-10 -2q-15 10 -32 29t-25 34l2 9q24 40 60 64z" />
    <glyph glyph-name="Zacute" unicode="&#x179;" horiz-adv-x="655" 
d="M620 659v-14l-399 -596l1 -2q27 0 149.5 -1.5t139.5 -1.5q16 19 54 72t50 68l20 3q-1 -28 -11 -100t-17 -92q-9 0 -94.5 1.5t-216 2.5t-250.5 1l-9 10l416 599l-2 3q-251 4 -279 3l-62 -124l-23 -7q-5 55 -9 181l4 2q90 -8 91 -8h447zM300 704l-17 28l160 127
q18 -2 39 -22t32 -44l-1 -13z" />
    <glyph glyph-name="zacute" unicode="&#x17a;" horiz-adv-x="462" 
d="M419 442l6 -10q-28 -50 -127 -210.5l-109 -177.5v-2q110 0 158 8q54 76 78 96l17 4q-1 -22 -9.5 -78.5t-14.5 -77.5q-15 0 -91.5 3t-131.5 3h-168l-5 8l251 390v2q-60 0 -146 -5q-34 -60 -58 -89l-16 -4q-4 13 -6.5 72t-0.5 74l3 3l79 -9h291zM222 489l-28 22l89 170
q56 4 96 -19v-15z" />
    <glyph glyph-name="Zdotaccent" unicode="&#x17b;" horiz-adv-x="655" 
d="M620 659v-14l-399 -596l1 -2q27 0 149.5 -1.5t139.5 -1.5q16 19 54 72t50 68l20 3q-1 -28 -11 -100t-17 -92q-9 0 -94.5 1.5t-216 2.5t-250.5 1l-9 10l416 599l-2 3q-251 4 -279 3l-62 -124l-23 -7q-5 55 -9 181l4 2q90 -8 91 -8h447zM347 847l9 3q11 -5 30.5 -26.5
t27.5 -38.5l-2 -9q-15 -33 -59 -66l-11 -2q-32 19 -59 64l2 11q33 46 62 64z" />
    <glyph glyph-name="zdotaccent" unicode="&#x17c;" horiz-adv-x="462" 
d="M419 442l6 -10q-28 -50 -127 -210.5l-109 -177.5v-2q110 0 158 8q54 76 78 96l17 4q-1 -22 -9.5 -78.5t-14.5 -77.5q-15 0 -91.5 3t-131.5 3h-168l-5 8l251 390v2q-60 0 -146 -5q-34 -60 -58 -89l-16 -4q-4 13 -6.5 72t-0.5 74l3 3l79 -9h291zM236 659l9 2
q12 -4 31.5 -26t28.5 -40l-3 -10q-7 -15 -27.5 -36.5t-34.5 -30.5l-9 -3q-36 23 -61 67l3 10q12 19 30 38.5t33 28.5z" />
    <glyph glyph-name="Zcaron" unicode="&#x17d;" horiz-adv-x="655" 
d="M620 659v-14l-399 -596l1 -2q27 0 149.5 -1.5t139.5 -1.5q16 19 54 72t50 68l20 3q-1 -28 -11 -100t-17 -92q-9 0 -94.5 1.5t-216 2.5t-250.5 1l-9 10l416 599l-2 3q-251 4 -279 3l-62 -124l-23 -7q-5 55 -9 181l4 2q90 -8 91 -8h447zM354 704h-20l-138 125l19 25
l129 -64l131 64l16 -25z" />
    <glyph glyph-name="zcaron" unicode="&#x17e;" horiz-adv-x="462" 
d="M419 442l6 -10q-28 -50 -127 -210.5l-109 -177.5v-2q110 0 158 8q54 76 78 96l17 4q-1 -22 -9.5 -78.5t-14.5 -77.5q-15 0 -91.5 3t-131.5 3h-168l-5 8l251 390v2q-60 0 -146 -5q-34 -60 -58 -89l-16 -4q-4 13 -6.5 72t-0.5 74l3 3l79 -9h291zM244 504l-21 -4l-108 178
l24 20l95 -94l93 95l24 -21z" />
    <glyph glyph-name="longs" unicode="&#x17f;" horiz-adv-x="295" 
d="M22 -1l3 22l61 34q3 54 3 196v141l-66 14l16 36h50q0 123 79 197q64 61 148 61q50 0 83 -24q-17 -65 -40 -103l-18 -6q-19 28 -43 89q-4 1 -9 1q-78 0 -78 -207v-191q0 -182 3 -203l68 -33l-6 -24q-20 0 -61 0.5t-65 0.5q-22 0 -64.5 -0.5t-63.5 -0.5z" />
    <glyph glyph-name="florin" unicode="&#x192;" horiz-adv-x="530" 
d="M85 372h83q18 93 44 146.5t66 90.5q64 59 142 59q55 0 83 -24q-13 -56 -45 -100l-15 -6q-19 42 -32 87q-3 2 -12 2q-64 0 -90 -157l-15 -98h136l-13 -35l-131 -12q-24 -158 -44 -236t-45 -119.5t-73 -80.5q-59 -50 -118 -50q-25 0 -47.5 11.5t-31.5 25.5l40 69q7 7 13 4
q38 -51 77 -51q17 0 27.5 14t18.5 53q17 75 59 360l-93 12z" />
    <glyph glyph-name="AEacute" unicode="&#x1fc;" horiz-adv-x="966" 
d="M487 298h-209l-23 -46.5l-40.5 -83.5l-49.5 -108l89 -35l-8 -26q-16 0 -56.5 1t-62.5 1q-18 0 -57.5 -1t-58.5 -1l8 27l72 35l283 543l-115 29l9 27q114 -2 166 -2h385q59 12 93 13l3 -3q-11 -102 -27 -164l-18 -7q-21 37 -55 117l-212 -8l9 -258q116 0 261 13l5 -12
q-3 -10 -26.5 -36t-33.5 -26q-3 0 -94 5.5t-111 5.5q0 -76 11 -245l189 -10q59 75 109 132l17 -6q-2 -20 -16.5 -87t-22.5 -85q-84 4 -182 4h-173q-25 0 -75 -1t-76 -1l6 27l88 34q2 21 -1 238zM302 348h184l1 263h-55q-47 -87 -130 -263zM522 704l-17 28l160 127
q18 -2 39 -22t32 -44l-1 -13z" />
    <glyph glyph-name="aeacute" unicode="&#x1fd;" horiz-adv-x="730" 
d="M127 275l-13 -7q-11 4 -39 37t-36 56q50 43 123 74q47 20 83 20q40 0 71 -17t48 -45q66 62 154 62q80 0 131.5 -45.5t51.5 -131.5q0 -31 -10 -35q-37 -22 -104 -22h-172v-11q0 -78 40 -122.5t111 -44.5q17 0 31 9q50 39 84 56q10 -5 11 -21q-8 -20 -30.5 -47t-36.5 -36
q-48 -17 -110 -17q-128 0 -188 86q-110 -86 -162 -86q-60 0 -95.5 39t-35.5 85q0 52 40 77q15 11 87 36.5t128 40.5v26q0 59 -25 85t-63 26q-29 0 -55 -15q-5 -53 -19 -112zM416 262h156q7 24 7 46q0 49 -19 78t-52 29q-44 0 -68 -50t-24 -103zM223 58h1q17 0 43.5 13
t43.5 32q-24 48 -22 125q-79 -25 -100 -40q-32 -21 -32 -60q0 -36 20.5 -53t45.5 -17zM348 493l-28 22l89 170q56 4 96 -19v-15z" />
    <glyph glyph-name="Oslashacute" unicode="&#x1fe;" horiz-adv-x="796" 
d="M599 620l59 76l26 -24l-55 -74q126 -96 127 -258q1 -91 -30.5 -162t-84.5 -113t-114.5 -63t-126.5 -21q-118 0 -210 59l-68 -88l-27 26l65 84q-120 97 -120 259q0 82 32 151t83.5 113t115 68t128.5 24q110 0 200 -57zM230 144l313 410q-58 83 -156 83q-95 0 -150.5 -87.5
t-55.5 -211.5q0 -118 47 -194h2zM563 519l-314 -410q57 -89 163 -89q54 0 95.5 28.5t63.5 75.5t33 97.5t11 103.5q0 115 -50 194h-2zM338 710l-17 28l160 127q18 -2 39 -22t32 -44l-1 -13z" />
    <glyph glyph-name="oslashacute" unicode="&#x1ff;" horiz-adv-x="546" 
d="M405 422l43 56l28 -20l-42 -56q37 -30 58 -77t21 -99q0 -108 -67.5 -173.5t-172.5 -65.5q-77 0 -132 35l-49 -64l-26 24l45 60q-36 29 -57 75t-21 100q0 107 73 173t168 66q75 0 131 -34zM179 122l173 239q-28 56 -79 56q-38 0 -64 -31t-36.5 -72.5t-10.5 -88.5
q0 -65 16 -102zM369 322l-173 -236q11 -27 34 -43.5t50 -16.5q30 0 52 19.5t32.5 51t15 62t4.5 61.5q0 54 -14 102h-1zM245 493l-28 22l89 170q56 4 96 -19v-15z" />
    <glyph glyph-name="Scommaaccent" unicode="&#x218;" horiz-adv-x="536" 
d="M277 677h2q64 0 103 -29q19 14 75 33l13 -7q-1 -19 -13 -76.5t-24 -86.5l-17 -8q-28 50 -45 107q-26 20 -78 20q-54 0 -88.5 -29.5t-34.5 -76.5q0 -56 59 -89q19 -11 71 -37.5l78 -40.5q70 -38 96 -80t26 -92q0 -56 -24.5 -98t-64.5 -64t-81 -32t-82 -10q-62 0 -125 24
t-86 44q5 24 24.5 74t28.5 63l16 8q14 -33 40 -151q29 -18 92 -17q64 1 100.5 31.5t36.5 84.5q0 60 -66 97q-131 72 -148 82q-103 59 -103 164q1 79 60 135.5t159 56.5zM223 -253l-19 25q51 38 51 71q0 23 -16 36l-28 17v18l67 34h15q38 -20 39 -71q0 -37 -29.5 -73
t-79.5 -57z" />
    <glyph glyph-name="scommaaccent" unicode="&#x219;" horiz-adv-x="405" 
d="M204 456h1q41 0 76 -24q24 17 58 29l10 -6q-7 -93 -25 -134l-17 -6q-21 33 -37 78q-22 18 -59 18q-31 0 -48.5 -17.5t-17.5 -39.5q0 -29 38 -49l120 -60q73 -39 73 -109q0 -43 -20 -74t-51.5 -46.5t-61.5 -22t-60 -6.5q-41 0 -83.5 12.5t-65.5 28.5q1 19 10 63.5t15 58.5
l15 7q10 -17 33 -68t25 -54q25 -10 55 -10q34 0 57 19t23 45q0 33 -36 52l-90 46q-96 46 -96 128q0 57 42 99t117 42zM148 -236l-19 25q51 38 51 71q0 23 -16 36l-28 17v18l67 34h15q38 -20 39 -71q0 -37 -29.5 -73t-79.5 -57z" />
    <glyph glyph-name="uni021A" unicode="&#x21a;" horiz-adv-x="682" 
d="M137 659h418q70 13 94 14l4 -5q-3 -26 -15 -88.5t-18 -84.5l-17 -7q-1 3 -22.5 56.5t-28.5 74.5l-151 -8v-244q0 -156 6 -306l117 -35l-9 -27q-29 0 -86.5 0.5t-86.5 0.5q-30 0 -90 -0.5t-90 -0.5l7 27l103 35q3 30 3 274v276l-141 8q-51 -90 -76 -123l-18 -5
q-3 116 5 178l6 4q23 -1 86 -14zM291 -243l-19 25q51 38 51 71q0 23 -16 36l-28 17v18l67 34h15q38 -20 39 -71q0 -37 -29.5 -73t-79.5 -57z" />
    <glyph glyph-name="uni021B" unicode="&#x21b;" horiz-adv-x="351" 
d="M200 442h149l-18 -39l-131 -15q0 -23 -0.5 -115t-0.5 -156q0 -28 12 -42q19 -15 48 -15q47 0 80 25l5 -1l-1 -35q-18 -27 -53 -44.5t-79 -17.5q-75 0 -112 45q-22 29 -22 105v251l-63 16l15 38h50q6 24 21 64t25 56q13 9 40.5 17.5t38.5 8.5zM155 -248l-19 25
q51 38 51 71q0 23 -16 36l-28 17v18l67 34h15q38 -20 39 -71q0 -37 -29.5 -73t-79.5 -57z" />
    <glyph glyph-name="circumflex" unicode="&#x2c6;" horiz-adv-x="386" 
d="M182 684l22 5l108 -173l-25 -20l-94 88l-93 -88l-25 20z" />
    <glyph glyph-name="caron" unicode="&#x2c7;" horiz-adv-x="386" 
d="M204 504l-21 -4l-108 178l24 20l95 -94l93 95l24 -21z" />
    <glyph glyph-name="uni02C9" unicode="&#x2c9;" horiz-adv-x="386" 
d="M297 547h-226l18 68h227z" />
    <glyph glyph-name="breve" unicode="&#x2d8;" horiz-adv-x="386" 
d="M78 656l37 9q4 -22 10.5 -37t23 -27.5t42.5 -12.5q22 0 37.5 6.5t24 18t13 21t7.5 22.5l37 9q0 -67 -30.5 -107t-90.5 -40q-61 0 -87.5 39t-23.5 99z" />
    <glyph glyph-name="dotaccent" unicode="&#x2d9;" horiz-adv-x="386" 
d="M192 659l9 2q12 -4 31.5 -26t28.5 -40l-3 -10q-7 -15 -27.5 -36.5t-34.5 -30.5l-9 -3q-36 23 -61 67l3 10q12 19 30 38.5t33 28.5z" />
    <glyph glyph-name="ring" unicode="&#x2da;" horiz-adv-x="386" 
d="M193 643h-1q-45 0 -45 -53q0 -26 13 -39.5t33 -13.5t33 14t13 39q0 53 -46 53zM193 681h1q38 0 65 -25t27 -66q0 -42 -27.5 -66t-65.5 -24t-65.5 24t-27.5 65q0 42 28 67t65 25z" />
    <glyph glyph-name="ogonek" unicode="&#x2db;" horiz-adv-x="388" 
d="M291 -128l11 -28q-46 -53 -111 -53q-38 0 -64.5 20.5t-26.5 56.5q0 71 102 139h48q-69 -68 -69 -110q0 -39 49 -39q28 0 61 14z" />
    <glyph glyph-name="tilde" unicode="&#x2dc;" horiz-adv-x="386" 
d="M321 637l28 -20q-55 -94 -105 -94q-15 0 -65 25q-36 20 -50 20q-24 0 -65 -49l-25 22q58 96 106 96q20 0 59 -22q36 -22 53 -22q27 0 64 44z" />
    <glyph glyph-name="hungarumlaut" unicode="&#x2dd;" horiz-adv-x="386" 
d="M114 493l-26 19l60 175q57 0 90 -13v-17zM270 493l-26 19l59 175q60 0 91 -13v-17z" />
    <glyph glyph-name="uni037E" unicode="&#x37e;" horiz-adv-x="247" 
d="M121 443l10 3q14 -6 37.5 -32t33.5 -47l-3 -11q-8 -18 -32 -43t-40 -34l-11 -4q-19 11 -40.5 35t-30.5 43l2 11q35 54 74 79zM40 -144l-22 29q81 79 81 147q0 25 -10 40l-51 26v17l93 56h20q16 -6 31.5 -33.5t16.5 -67.5q2 -56 -41 -113.5t-118 -100.5z" />
    <glyph glyph-name="tonos" unicode="&#x384;" horiz-adv-x="386" 
d="M187 493l-30 9l37 180q56 6 95 -16v-15z" />
    <glyph glyph-name="dieresistonos" unicode="&#x385;" horiz-adv-x="386" 
d="M55 650l8 2q11 -5 29 -24.5t25 -34.5l-2 -10q-5 -14 -23 -32t-32 -27l-9 -2q-32 19 -55 59l2 10q27 40 57 59zM172 502l-29 9l25 177q58 3 96 -19v-15zM328 650l7 2q11 -5 29 -24.5t25 -34.5l-3 -10q-5 -14 -23 -32t-31 -27l-9 -2q-33 21 -55 59l2 10q28 40 58 59z" />
    <glyph glyph-name="Alphatonos" unicode="&#x386;" horiz-adv-x="726" 
d="M293 633l104 49l4 -5q0 -31 15 -72q18 -53 196 -500q14 -32 31.5 -45t72.5 -35l-8 -26q-23 0 -72 0.5t-73 0.5q-18 0 -55.5 -0.5t-57.5 -0.5l8 25l36 32q-3 10 -12.5 34l-25 64.5l-27.5 72.5q-102 -6 -217 -4l-58 -159l82 -38l-7 -27q-18 0 -56 0.5t-56 0.5t-54 -0.5
t-54 -0.5l8 27l69 39q58 114 215 510q5 12 2 27zM326 527h-2l-92 -245q16 0 89.5 -2t91.5 -2zM117 503l-30 9l37 180q56 6 95 -16v-15z" />
    <glyph glyph-name="anoteleia" unicode="&#x387;" horiz-adv-x="386" 
d="M96 651l8 2q11 -5 29.5 -26t25.5 -36l-2 -9q-11 -30 -56 -63l-10 -2q-33 21 -56 62l2 10q26 40 59 62zM288 651l9 2q10 -5 28.5 -26t26.5 -36l-2 -9q-7 -15 -24.5 -33.5t-31.5 -29.5l-10 -2q-15 10 -31.5 28.5t-24.5 33.5l1 10q29 42 59 62z" />
    <glyph glyph-name="Epsilontonos" unicode="&#x388;" horiz-adv-x="592" 
d="M33 634l8 26q23 0 69 -0.5t69 -0.5h248q34 10 100 13l3 -4q-1 -19 -10 -76t-15 -79l-18 -7q-36 65 -57 110l-184 -10v-241q124 0 254 14l5 -12q-3 -10 -27 -37.5t-34 -27.5q-6 0 -92 5.5t-106 6.5q0 -183 4 -261l187 -10q88 112 107 131l20 -7q-2 -19 -16 -85t-22 -85
q-63 3 -177 3h-173q-24 0 -76.5 -0.5t-76.5 -0.5l8 26l82 35q6 24 6 284v257zM-101 503l-30 9l37 180q56 6 95 -16v-15z" />
    <glyph glyph-name="Etatonos" unicode="&#x389;" horiz-adv-x="791" 
d="M43 632l9 27q22 0 66 -1t65 -1t60 1t58 1l-9 -29l-46 -33v-219h299v219l-48 36l7 26q18 0 53.5 -1t52.5 -1q25 0 74.5 1t72.5 1l-7 -28l-78 -34v-256q0 -256 7 -279l88 -36l-8 -27q-23 0 -72 0.5t-74 0.5q-21 0 -61.5 -0.5t-60.5 -0.5l8 28l45 34q1 31 1 268
q-35 -7 -121 -7h-178q0 -226 1 -259l56 -37l-8 -27q-19 0 -57.5 0.5t-59.5 0.5q-24 0 -73 -0.5t-72 -0.5l8 27l72 34q6 138 6 287v251zM-90 503l-30 9l37 180q56 6 95 -16v-15z" />
    <glyph glyph-name="Iotatonos" unicode="&#x38a;" horiz-adv-x="366" 
d="M44 633l9 26q21 0 64.5 -0.5t65.5 -0.5q24 0 70.5 0.5t69.5 0.5l-7 -27l-70 -33v-256q0 -253 5 -283l88 -34l-7 -27q-24 0 -74 1t-77 1t-77.5 -1t-73.5 -1l8 27l75 34q6 21 6 283v256zM-86 503l-30 9l37 180q56 6 95 -16v-15z" />
    <glyph glyph-name="Omicrontonos" unicode="&#x38c;" horiz-adv-x="796" 
d="M399 677h1q47 0 95 -12t95 -39t83 -65t58.5 -95.5t23.5 -126.5q1 -89 -30 -160t-83.5 -113t-114.5 -63.5t-127 -21.5q-50 0 -100 13t-97 40.5t-83 66.5t-57.5 96.5t-21.5 125.5q0 107 54 190t134.5 123.5t169.5 40.5zM388 637h-1q-96 0 -149 -85t-53 -212
q0 -81 25.5 -153t79 -119.5t123.5 -47.5q55 0 95 28t61.5 75t31.5 97t10 104q0 73 -24.5 143t-77 120t-121.5 50zM-26 504l-30 9l37 180q56 6 95 -16v-15z" />
    <glyph glyph-name="Upsilontonos" unicode="&#x38e;" horiz-adv-x="702" 
d="M174 26l101 36q6 75 6 175t-20 177t-72.5 129t-133.5 52q-23 0 -53 -6l2 28q32 23 77 37t83 14q51 0 87.5 -21.5t56 -53t31 -81.5t14.5 -90.5t3 -97.5h18q7 150 72.5 247t177.5 97q16 0 39 -18t34 -39l-3 -19q-8 2 -27 2q-118 0 -189.5 -100t-71.5 -258q0 -123 3 -175
l108 -35l-8 -27q-26 0 -81 0.5t-82 0.5q-29 0 -88 -0.5t-89 -0.5zM-119 504l-30 9l37 180q56 6 95 -16v-15z" />
    <glyph glyph-name="Omegatonos" unicode="&#x38f;" horiz-adv-x="849" 
d="M361 0h-300q-19 101 -27 175l21 2l66 -86h168v9q-86 37 -141.5 105t-55.5 169q0 135 96 219t243 84q145 0 237 -82.5t92 -215.5q0 -176 -199 -279v-9h166q6 7 28 36.5t38 48.5l23 2q-19 -123 -30 -178h-301l-7 7q10 52 18 88q126 92 126 284q-1 119 -53.5 188.5
t-141.5 69.5q-91 0 -144.5 -74.5t-53.5 -193.5q0 -178 123 -274q9 -50 14 -88zM1 503l-30 9l37 180q56 6 95 -16v-15z" />
    <glyph glyph-name="iotadieresistonos" unicode="&#x390;" horiz-adv-x="282" 
d="M70 50v387q43 12 122 19v-383q10 -18 84 -26l-11 -29q-33 -31 -102 -31q-44 0 -68.5 17.5t-24.5 45.5zM3 650l8 2q11 -5 29 -24.5t25 -34.5l-2 -10q-5 -14 -23 -32t-32 -27l-9 -2q-32 19 -55 59l2 10q27 40 57 59zM120 502l-29 9l25 177q58 3 96 -19v-15zM276 650l7 2
q11 -5 29 -24.5t25 -34.5l-3 -10q-5 -14 -23 -32t-31 -27l-9 -2q-33 21 -55 59l2 10q28 40 58 59z" />
    <glyph glyph-name="Alpha" unicode="&#x391;" horiz-adv-x="726" 
d="M293 633l104 49l4 -5q0 -31 15 -72q18 -53 196 -500q14 -32 31.5 -45t72.5 -35l-8 -26q-23 0 -72 0.5t-73 0.5q-18 0 -55.5 -0.5t-57.5 -0.5l8 25l36 32q-3 10 -12.5 34l-25 64.5l-27.5 72.5q-102 -6 -217 -4l-58 -159l82 -38l-7 -27q-18 0 -56 0.5t-56 0.5t-54 -0.5
t-54 -0.5l8 27l69 39q58 114 215 510q5 12 2 27zM326 527h-2l-92 -245q16 0 89.5 -2t91.5 -2z" />
    <glyph glyph-name="Beta" unicode="&#x392;" horiz-adv-x="642" 
d="M40 629l8 25q130 13 249 13q267 0 267 -150q0 -68 -50 -107t-121 -48v-7q212 -20 212 -163q0 -195 -346 -195q-108 0 -222 3l7 27l69 34q6 48 6 226v319zM246 626v-257q184 2 184 136q0 70 -54 101q-37 20 -106 20h-24zM463 193v1q0 64 -46.5 100t-170.5 35v-19
q0 -210 4 -274q131 0 180 58q33 38 33 99z" />
    <glyph glyph-name="Gamma" unicode="&#x393;" horiz-adv-x="552" 
d="M36 634l10 26q22 0 65 -0.5t65 -0.5h247q65 11 97 13l2 -3q-2 -23 -12 -80.5t-16 -74.5l-19 -9q-9 15 -54 110l-175 -8v-277q0 -238 4 -270l113 -34l-10 -27q-26 0 -81.5 0.5t-85.5 0.5q-24 0 -72.5 -0.5t-73.5 -0.5l8 26l67 35q4 15 4 281v261z" />
    <glyph glyph-name="uni0394" unicode="&#x394;" horiz-adv-x="697" 
d="M297 634l90 49l5 -3q-1 -32 10 -64q20 -50 126.5 -296.5l121.5 -279.5l5 -43q-20 0 -56.5 1.5t-52.5 1.5h-396q-27 0 -65.5 -1.5t-45.5 -1.5l10 47l243 547q8 21 7 31zM312 53h1q119 0 188 10q-179 453 -184 467h-4l-186 -467q69 -10 185 -10z" />
    <glyph glyph-name="Epsilon" unicode="&#x395;" horiz-adv-x="592" 
d="M33 634l8 26q23 0 69 -0.5t69 -0.5h248q34 10 100 13l3 -4q-1 -19 -10 -76t-15 -79l-18 -7q-36 65 -57 110l-184 -10v-241q124 0 254 14l5 -12q-3 -10 -27 -37.5t-34 -27.5q-6 0 -92 5.5t-106 6.5q0 -183 4 -261l187 -10q88 112 107 131l20 -7q-2 -19 -16 -85t-22 -85
q-63 3 -177 3h-173q-24 0 -76.5 -0.5t-76.5 -0.5l8 26l82 35q6 24 6 284v257z" />
    <glyph glyph-name="Zeta" unicode="&#x396;" horiz-adv-x="655" 
d="M620 659v-14l-399 -596l1 -2q27 0 149.5 -1.5t139.5 -1.5q16 19 54 72t50 68l20 3q-1 -28 -11 -100t-17 -92q-9 0 -94.5 1.5t-216 2.5t-250.5 1l-9 10l416 599l-2 3q-251 4 -279 3l-62 -124l-23 -7q-5 55 -9 181l4 2q90 -8 91 -8h447z" />
    <glyph glyph-name="Eta" unicode="&#x397;" horiz-adv-x="791" 
d="M43 632l9 27q22 0 66 -1t65 -1t60 1t58 1l-9 -29l-46 -33v-219h299v219l-48 36l7 26q18 0 53.5 -1t52.5 -1q25 0 74.5 1t72.5 1l-7 -28l-78 -34v-256q0 -256 7 -279l88 -36l-8 -27q-23 0 -72 0.5t-74 0.5q-21 0 -61.5 -0.5t-60.5 -0.5l8 28l45 34q1 31 1 268
q-35 -7 -121 -7h-178q0 -226 1 -259l56 -37l-8 -27q-19 0 -57.5 0.5t-59.5 0.5q-24 0 -73 -0.5t-72 -0.5l8 27l72 34q6 138 6 287v251z" />
    <glyph glyph-name="Theta" unicode="&#x398;" horiz-adv-x="792" 
d="M336 386h127l46 64l22 3l-23 -225l-21 -3l-34 66h-129l-43 -63l-21 -3l22 225l21 3zM397 677h1q59 0 119 -20t113 -59t87 -106.5t35 -152.5q1 -89 -30 -160t-83.5 -113t-114 -63.5t-126.5 -21.5q-63 0 -124.5 21t-114.5 61.5t-85.5 108t-32.5 151.5q0 107 53.5 189.5
t134 123.5t168.5 41zM387 637h-1q-96 0 -149.5 -85t-53.5 -212q0 -82 25.5 -154t79 -119t123.5 -47q54 0 94.5 28t62 74t32 97t10.5 106q0 73 -25 143t-77.5 119.5t-120.5 49.5z" />
    <glyph glyph-name="Iota" unicode="&#x399;" horiz-adv-x="366" 
d="M44 633l9 26q21 0 64.5 -0.5t65.5 -0.5q24 0 70.5 0.5t69.5 0.5l-7 -27l-70 -33v-256q0 -253 5 -283l88 -34l-7 -27q-24 0 -74 1t-77 1t-77.5 -1t-73.5 -1l8 27l75 34q6 21 6 283v256z" />
    <glyph glyph-name="Kappa" unicode="&#x39a;" horiz-adv-x="707" 
d="M698 659l-9 -26q-10 -4 -31 -10.5l-47.5 -15l-36.5 -11.5q-19 -5 -30 -18q-57 -56 -164 -186v-3l212 -264q99 -119 108 -133l-7 -7q-89 1 -133 21t-89 67q-91 92 -202 246v7q187 219 229 286q-2 35 2 49q51 1 84.5 0.5t70.5 -1.5t43 -1zM43 634l8 26q21 0 63 -0.5
t64 -0.5q24 0 71.5 0.5t70.5 0.5l-7 -27l-67 -34v-256q0 -253 5 -283l88 -34l-10 -27q-23 0 -73.5 0.5t-78.5 0.5q-25 0 -74 -0.5t-72 -0.5l7 27l75 34q6 22 6 283v257z" />
    <glyph glyph-name="Lambda" unicode="&#x39b;" horiz-adv-x="726" 
d="M293 634l104 49l5 -6q-1 -26 14 -71q19 -53 197 -502q14 -31 31.5 -44t72.5 -35l-7 -26q-24 0 -72.5 0.5t-73.5 0.5q-19 0 -57 -0.5t-58 -0.5l8 25l36 32q-3 10 -22 62.5l-62.5 174l-81.5 228.5h-3q-157 -423 -168 -457l85 -38l-9 -27q-18 0 -56.5 0.5t-57.5 0.5
q-18 0 -54 -0.5t-54 -0.5l7 27l69 39q57 113 216 510q5 16 1 27z" />
    <glyph glyph-name="Mu" unicode="&#x39c;" horiz-adv-x="940" 
d="M62 631l11 26l201 2q1 -32 5 -41q9 -22 34.5 -75l74 -152l89.5 -185h2l196 409q3 7 3 44l218 -2l-7 -27l-84 -32q1 -82 11 -297.5t14 -239.5l91 -35l-7 -27q-22 0 -70.5 0.5t-72.5 0.5t-72 -0.5t-71 -0.5l8 27l60 35l-3 251t-3 234h-4l-239 -550l-23 -5l-229 538h-2
q-25 -284 -28 -466l89 -38l-6 -26q-19 0 -59 0.5t-61 0.5q-18 0 -55.5 -0.5t-55.5 -0.5l6 26l72 37q14 67 63 509q-11 25 -23 32t-73 28z" />
    <glyph glyph-name="Nu" unicode="&#x39d;" horiz-adv-x="769" 
d="M281 25l-7 -26q-20 0 -63 0.5t-65 0.5q-19 0 -59 -0.5t-60 -0.5l5 27l79 40q9 91 19 487q-22 29 -38.5 44t-26 19t-43.5 16l11 27l174 5q4 -15 40 -60q203 -247 365 -425h2q0 79 -6 415l-98 39l9 26q21 0 61 -0.5t57 -0.5q19 0 59 0.5t60 0.5l-7 -27l-77 -38
q0 -1 -3 -100.5t-6 -212.5t-3 -195q0 -64 -5 -101l-19 -6q-123 92 -462 521h-2q-5 -376 7 -435z" />
    <glyph glyph-name="Xi" unicode="&#x39e;" horiz-adv-x="642" 
d="M111 96h402l40 48l34 41l18 3q-11 -84 -35 -188h-526q-4 56 -6 183l16 7l26 -42t31 -52zM197 390h232l58 63l17 2q-6 -108 -18 -220l-16 -2q-37 53 -45 66h-231l-58 -66l-15 -2l20 221l16 3q17 -24 40 -65zM495 570h-354q-37 -55 -59 -81l-16 -3q0 143 7 185
q23 -1 75 -12h347q58 10 84 12q-15 -129 -23 -174l-18 -7q-20 30 -43 80z" />
    <glyph glyph-name="Omicron" unicode="&#x39f;" horiz-adv-x="796" 
d="M399 677h1q47 0 95 -12t95 -39t83 -65t58.5 -95.5t23.5 -126.5q1 -89 -30 -160t-83.5 -113t-114.5 -63.5t-127 -21.5q-50 0 -100 13t-97 40.5t-83 66.5t-57.5 96.5t-21.5 125.5q0 107 54 190t134.5 123.5t169.5 40.5zM388 637h-1q-96 0 -149 -85t-53 -212
q0 -81 25.5 -153t79 -119.5t123.5 -47.5q55 0 95 28t61.5 75t31.5 97t10 104q0 73 -24.5 143t-77 120t-121.5 50z" />
    <glyph glyph-name="Pi" unicode="&#x3a0;" horiz-adv-x="776" 
d="M119 348v251l-79 33l9 27q21 0 67 -0.5t67 -0.5h412q26 0 74.5 0.5t72.5 0.5l-8 -27l-77 -34v-253q0 -259 7 -282l87 -38l-9 -26q-23 0 -71.5 0.5t-72.5 0.5q-21 0 -62 -0.5t-61 -0.5l10 28l44 33q1 31 1 282v261q-45 9 -146 9q-88 0 -138 -9v-262q0 -245 1 -278l55 -36
l-10 -28q-18 0 -56 0.5t-58 0.5q-25 0 -74 -0.5t-73 -0.5l9 27l73 34q6 138 6 288z" />
    <glyph glyph-name="Rho" unicode="&#x3a1;" horiz-adv-x="615" 
d="M39 626l9 26q172 15 235 15q143 0 211 -42q85 -53 85 -159q0 -46 -16.5 -83.5t-41.5 -60t-57.5 -37.5t-62.5 -20.5t-58 -5.5q-26 0 -44 5l-9 30q74 7 113.5 51.5t39.5 116.5q0 162 -196 162v-268q0 -104 1.5 -172.5t3 -93.5t1.5 -26l116 -38l-7 -27q-29 0 -88.5 0.5
t-89.5 0.5q-24 0 -72.5 -0.5t-72.5 -0.5l8 26l70 37q4 18 4 292v248z" />
    <glyph glyph-name="Sigma" unicode="&#x3a3;" horiz-adv-x="640" 
d="M57 659h416q51 12 93 12l3 -4q-10 -125 -20 -167l-15 -5q-10 17 -60 121l-258 -10v-2l177 -236l-4 -14l-222 -256v-2h336l45 51t44 49l17 -9q-20 -123 -41 -187h-536q8 34 25 63l229 246v3l-242 327z" />
    <glyph glyph-name="Tau" unicode="&#x3a4;" horiz-adv-x="682" 
d="M137 659h418q70 13 94 14l4 -5q-3 -26 -15 -88.5t-18 -84.5l-17 -7q-1 3 -22.5 56.5t-28.5 74.5l-151 -8v-244q0 -156 6 -306l117 -35l-9 -27q-29 0 -86.5 0.5t-86.5 0.5q-30 0 -90 -0.5t-90 -0.5l7 27l103 35q3 30 3 274v276l-141 8q-51 -90 -76 -123l-18 -5
q-3 116 5 178l6 4q23 -1 86 -14z" />
    <glyph glyph-name="Upsilon" unicode="&#x3a5;" horiz-adv-x="702" 
d="M174 26l101 36q6 75 6 175t-20 177t-72.5 129t-133.5 52q-23 0 -53 -6l2 28q32 23 77 37t83 14q51 0 87.5 -21.5t56 -53t31 -81.5t14.5 -90.5t3 -97.5h18q7 150 72.5 247t177.5 97q16 0 39 -18t34 -39l-3 -19q-8 2 -27 2q-118 0 -189.5 -100t-71.5 -258q0 -123 3 -175
l108 -35l-8 -27q-26 0 -81 0.5t-82 0.5q-29 0 -88 -0.5t-89 -0.5z" />
    <glyph glyph-name="Phi" unicode="&#x3a6;" horiz-adv-x="838" 
d="M360 619l-70 27l9 24q20 0 60 -0.5t61 -0.5q23 0 66.5 0.5t64.5 0.5l-7 -25l-65 -27v-24q48 -4 89.5 -12.5t85 -28t74 -47.5t50 -72t19.5 -99q0 -65 -28 -114.5t-75.5 -78t-101 -43.5t-113.5 -19v-28l83 -28l-8 -25q-20 0 -65.5 0.5t-70.5 0.5q-24 0 -70 -0.5t-68 -0.5
l8 25l72 28v28q-61 4 -113 17t-101 40t-77.5 76.5t-28.5 116.5q0 66 28.5 117t76.5 80.5t101.5 45.5t113.5 21v25zM358 117v439q-84 -15 -135.5 -68.5t-51.5 -146.5q0 -97 51 -153t136 -71zM479 556v-439q86 14 136.5 67.5t50.5 150.5q0 99 -51.5 153.5t-135.5 67.5z" />
    <glyph glyph-name="Chi" unicode="&#x3a7;" horiz-adv-x="712" 
d="M35 634l11 25q25 0 74.5 -0.5t73.5 -0.5q19 0 56 0.5t54 0.5l-6 -27l-27 -30q56 -104 104 -183h3q66 108 106 182l-31 33l10 25q10 0 36 -0.5t38 -0.5q21 0 62 0.5t61 0.5l-7 -27q-77 -23 -114 -55q-64 -83 -140 -199q160 -271 171 -287q15 -22 53 -35l75 -31l-8 -26
q-28 0 -84 1t-84 1q-18 0 -55.5 -1t-56.5 -1l5 27l24 30q-24 53 -118 215h-2q-110 -177 -126 -210l44 -35l-7 -27q-15 0 -45.5 1t-45.5 1q-21 0 -61 -1t-60 -1l8 27l66 28q26 9 44 31q99 135 161 228q-124 221 -151 262q-20 29 -46 36z" />
    <glyph glyph-name="Psi" unicode="&#x3a8;" horiz-adv-x="793" 
d="M334 308v293l-78 33l8 25q22 0 67.5 -0.5t68.5 -0.5q24 0 70.5 0.5t69.5 0.5l-9 -26l-70 -32v-292q66 10 96.5 48.5t41.5 136.5q10 84 22 114q22 24 69.5 39t98.5 17l3 -23q-34 -27 -57 -49q-13 -35 -22 -101q-15 -111 -73.5 -162t-178.5 -59q0 -147 4 -210l94 -34
l-8 -27q-26 0 -77 0.5t-76 0.5q-27 0 -80 -0.5t-80 -0.5l7 27l85 34q4 63 4 210q-126 8 -183.5 53t-73.5 158q-11 87 -20 111q-21 20 -55 47l5 25q52 -1 103.5 -18t65.5 -36q9 -22 20 -120q10 -96 40.5 -134t97.5 -48z" />
    <glyph glyph-name="uni03A9" unicode="&#x3a9;" horiz-adv-x="849" 
d="M361 0h-300q-19 101 -27 175l21 2l66 -86h168v9q-86 37 -141.5 105t-55.5 169q0 135 96 219t243 84q145 0 237 -82.5t92 -215.5q0 -176 -199 -279v-9h166q6 7 28 36.5t38 48.5l23 2q-19 -123 -30 -178h-301l-7 7q10 52 18 88q126 92 126 284q-1 119 -53.5 188.5
t-141.5 69.5q-91 0 -144.5 -74.5t-53.5 -193.5q0 -178 123 -274q9 -50 14 -88z" />
    <glyph glyph-name="Iotadieresis" unicode="&#x3aa;" horiz-adv-x="366" 
d="M44 633l9 26q21 0 64.5 -0.5t65.5 -0.5q24 0 70.5 0.5t69.5 0.5l-7 -27l-70 -33v-256q0 -253 5 -283l88 -34l-7 -27q-24 0 -74 1t-77 1t-77.5 -1t-73.5 -1l8 27l75 34q6 21 6 283v256zM77 846l9 2q10 -4 29 -25t27 -38l-2 -9q-6 -15 -24.5 -34.5t-32.5 -29.5l-10 -2
q-16 9 -32.5 28t-25.5 35l2 9q27 42 60 64zM288 846l8 2q11 -4 30 -25t27 -38l-3 -9q-6 -15 -24.5 -34.5t-32.5 -29.5l-10 -2q-15 10 -32 29t-25 34l2 9q24 40 60 64z" />
    <glyph glyph-name="Upsilondieresis" unicode="&#x3ab;" horiz-adv-x="702" 
d="M174 26l101 36q6 75 6 175t-20 177t-72.5 129t-133.5 52q-23 0 -53 -6l2 28q32 23 77 37t83 14q51 0 87.5 -21.5t56 -53t31 -81.5t14.5 -90.5t3 -97.5h18q7 150 72.5 247t177.5 97q16 0 39 -18t34 -39l-3 -19q-8 2 -27 2q-118 0 -189.5 -100t-71.5 -258q0 -123 3 -175
l108 -35l-8 -27q-26 0 -81 0.5t-82 0.5q-29 0 -88 -0.5t-89 -0.5zM255 846l9 2q10 -4 29 -25t27 -38l-2 -9q-6 -15 -24.5 -34.5t-32.5 -29.5l-10 -2q-16 9 -32.5 28t-25.5 35l2 9q27 42 60 64zM466 846l8 2q11 -4 30 -25t27 -38l-3 -9q-6 -15 -24.5 -34.5t-32.5 -29.5
l-10 -2q-15 10 -32 29t-25 34l2 9q24 40 60 64z" />
    <glyph glyph-name="alphatonos" unicode="&#x3ac;" horiz-adv-x="577" 
d="M455 443l80 14l10 -15l-58 -78q-14 -23 -49 -91q28 -159 44 -201q23 -17 77 -19l-7 -27q-47 -39 -122 -39q-34 0 -52 10q-9 34 -23 129h-3q-78 -139 -176 -139q-63 0 -102.5 58.5t-39.5 152.5q0 117 59 187.5t163 70.5q76 0 110.5 -28t53.5 -92h2q25 70 33 107zM230 65h1
q25 0 56 31t57 84q-5 54 -11.5 92t-17.5 72.5t-29 52t-43 17.5q-82 0 -82 -173q0 -82 20 -129t49 -47zM276 493l-30 9l37 180q56 6 95 -16v-15z" />
    <glyph glyph-name="epsilontonos" unicode="&#x3ad;" horiz-adv-x="445" 
d="M378 324l-22 -10q-13 24 -35 93q-16 7 -40 7q-43 0 -71 -22.5t-28 -59.5q0 -31 18.5 -49.5t51.5 -21.5q50 13 93 15l4 -8q-11 -47 -37 -65q-25 1 -65 10q-77 -13 -77 -72q0 -41 29.5 -67t81.5 -27q36 -1 51 7q62 54 90 70l6 -28q-5 -19 -27 -46.5t-36 -35.5
q-63 -27 -131 -27q-92 0 -145 37t-53 98q0 82 128 107v3q-106 15 -106 96q0 58 53 93t145 35q100 0 153 -42q-12 -53 -31 -90zM228 493l-30 9l37 180q56 6 95 -16v-15z" />
    <glyph glyph-name="etatonos" unicode="&#x3ae;" horiz-adv-x="557" 
d="M83 286v81l-51 24l8 23q12 9 77.5 25.5t85.5 16.5l2 -2l-6 -72l2 -1q52 40 85 57.5t63 17.5q138 0 138 -179q0 -116 -11 -391l11 -82q-39 -36 -135 -38l-5 4q19 288 19 495q0 114 -78 114q-39 0 -83 -38v-341l-127 -13q5 95 5 299zM280 493l-30 9l37 180q56 6 95 -16v-15
z" />
    <glyph glyph-name="iotatonos" unicode="&#x3af;" horiz-adv-x="282" 
d="M70 50v387q43 12 122 19v-383q10 -18 84 -26l-11 -29q-33 -31 -102 -31q-44 0 -68.5 17.5t-24.5 45.5zM133 493l-30 9l37 180q56 6 95 -16v-15z" />
    <glyph glyph-name="upsilondieresistonos" unicode="&#x3b0;" horiz-adv-x="516" 
d="M85 377l-58 29l10 22q25 10 79 19t95 9l2 -4q0 -14 -2.5 -63t-4 -116t-1.5 -143q1 -34 25.5 -54t60.5 -20q114 0 114 174q0 34 -16 91q-56 85 -64 99l2 13q8 7 46 16t57 8q44 -55 44 -175q0 -133 -61.5 -214t-164.5 -81q-63 0 -112 35q-53 40 -53 108q0 29 1 122.5
t1 124.5zM120 650l8 2q11 -5 29 -24.5t25 -34.5l-2 -10q-5 -14 -23 -32t-32 -27l-9 -2q-32 19 -55 59l2 10q27 40 57 59zM237 502l-29 9l25 177q58 3 96 -19v-15zM393 650l7 2q11 -5 29 -24.5t25 -34.5l-3 -10q-5 -14 -23 -32t-31 -27l-9 -2q-33 21 -55 59l2 10q28 40 58 59
z" />
    <glyph glyph-name="alpha" unicode="&#x3b1;" horiz-adv-x="577" 
d="M455 443l80 14l10 -15l-58 -78q-14 -23 -49 -91q28 -159 44 -201q23 -17 77 -19l-7 -27q-47 -39 -122 -39q-34 0 -52 10q-9 34 -23 129h-3q-78 -139 -176 -139q-63 0 -102.5 58.5t-39.5 152.5q0 117 59 187.5t163 70.5q76 0 110.5 -28t53.5 -92h2q25 70 33 107zM230 65h1
q25 0 56 31t57 84q-5 54 -11.5 92t-17.5 72.5t-29 52t-43 17.5q-82 0 -82 -173q0 -82 20 -129t49 -47z" />
    <glyph glyph-name="beta" unicode="&#x3b2;" horiz-adv-x="553" 
d="M70 -230v694q0 116 60 175.5t154 59.5q82 0 133.5 -43t51.5 -120q0 -64 -40.5 -102.5t-93.5 -53.5v-5q50 -6 90 -26q94 -46 94 -153q0 -57 -22.5 -100t-57.5 -65.5t-69.5 -33.5t-67.5 -11q-41 0 -94 33l9 32q21 -6 43 -6q50 0 90 36.5t40 115.5q0 69 -37 106t-97 37
q-24 0 -45 -4l24 59q10 -1 25 -1q50 1 75 39.5t25 92.5q0 61 -24.5 97t-63.5 36q-90 0 -88 -166q2 -431 14 -607l12 -82q-47 -36 -134 -38z" />
    <glyph glyph-name="gamma" unicode="&#x3b3;" horiz-adv-x="518" 
d="M-13 378l2 27q24 17 76 33.5t83 17.5q30 -12 66 -79q24 -45 43.5 -118.5t25.5 -140.5h4q11 47 95 282l1 53l2 3q32 0 73.5 -8.5t65.5 -20.5l-6 -19q-10 -6 -71 -32q-51 -68 -109 -232q-34 -91 -40 -152q5 -155 3 -180q-15 -17 -56.5 -31t-77.5 -15l-8 10q2 21 11.5 62
t22 86t14.5 56q7 95 -42.5 224t-110.5 164l-36.5 5.5z" />
    <glyph glyph-name="delta" unicode="&#x3b4;" horiz-adv-x="537" 
d="M280 26h1q52 0 77.5 45.5t25.5 112.5q0 73 -34 123.5t-94 97.5h-2q-88 -52 -88 -190q0 -72 30 -130.5t84 -58.5zM295 700h1q69 0 120.5 -26.5t72.5 -57.5v-8q-13 -16 -37 -31t-39 -14q-75 89 -156 90q-30 1 -45 -8.5t-15 -21.5q0 -14 19 -34t70 -60q121 -90 169.5 -160.5
t48.5 -149.5q0 -106 -68.5 -169t-166.5 -63q-104 0 -170 63t-66 163q0 158 189 220l1 2q-114 88 -114 142q0 48 55 85.5t131 37.5z" />
    <glyph glyph-name="epsilon" unicode="&#x3b5;" horiz-adv-x="445" 
d="M378 324l-22 -10q-13 24 -35 93q-16 7 -40 7q-43 0 -71 -22.5t-28 -59.5q0 -31 18.5 -49.5t51.5 -21.5q50 13 93 15l4 -8q-11 -47 -37 -65q-25 1 -65 10q-77 -13 -77 -72q0 -41 29.5 -67t81.5 -27q36 -1 51 7q62 54 90 70l6 -28q-5 -19 -27 -46.5t-36 -35.5
q-63 -27 -131 -27q-92 0 -145 37t-53 98q0 82 128 107v3q-106 15 -106 96q0 58 53 93t145 35q100 0 153 -42q-12 -53 -31 -90z" />
    <glyph glyph-name="zeta" unicode="&#x3b6;" horiz-adv-x="422" 
d="M273 -167l-32 13q46 61 46 121q-14 12 -103 33q-72 14 -109 64t-37 160q0 105 46 194t112 148v2q-91 10 -130 49v9q38 57 91 83h20q1 -21 -1 -73q19 -21 56 -30q35 33 78 55t81 23l9 -6q-1 -31 -23 -62t-36 -37q-41 -17 -91 -17q-34 -31 -65 -112.5t-31 -188.5
q0 -81 24.5 -117.5t79.5 -50.5q3 -1 22.5 -5.5t35.5 -9.5q64 -16 77 -33q0 -54 -26 -103.5t-50 -72.5t-44 -36z" />
    <glyph glyph-name="eta" unicode="&#x3b7;" horiz-adv-x="557" 
d="M83 286v81l-51 24l8 23q12 9 77.5 25.5t85.5 16.5l2 -2l-6 -72l2 -1q52 40 85 57.5t63 17.5q138 0 138 -179q0 -116 -11 -391l11 -82q-39 -36 -135 -38l-5 4q19 288 19 495q0 114 -78 114q-39 0 -83 -38v-341l-127 -13q5 95 5 299z" />
    <glyph glyph-name="theta" unicode="&#x3b8;" horiz-adv-x="541" 
d="M167 390h206q-8 271 -100 271q-50 0 -77 -78.5t-29 -192.5zM264 329h-98q1 -133 30 -218t79 -85q97 0 99 322q-40 -19 -110 -19zM272 701h1q113 0 169.5 -93.5t56.5 -261.5q0 -171 -58 -265t-176 -94q-111 0 -167.5 93.5t-56.5 262.5q0 167 61 262.5t170 95.5z" />
    <glyph glyph-name="iota" unicode="&#x3b9;" horiz-adv-x="282" 
d="M70 50v387q43 12 122 19v-383q10 -18 84 -26l-11 -29q-33 -31 -102 -31q-44 0 -68.5 17.5t-24.5 45.5z" />
    <glyph glyph-name="kappa" unicode="&#x3ba;" horiz-adv-x="532" 
d="M214 211l5 13q3 4 41 48.5l68 81t40 52.5q7 47 8 50q22 2 75 -5t73 -16l-10 -25q-13 -5 -67 -21q-23 -8 -37 -18q-17 -14 -92 -94q25 -38 132 -181q15 -21 33.5 -44.5l28 -36t13.5 -18.5l-13 -13q-66 1 -99.5 11t-62.5 38q-41 38 -136 178zM84 287v85l-53 25l7 22
q13 7 76 21.5t90 15.5v-456l-125 -13q5 96 5 300z" />
    <glyph glyph-name="lambda" unicode="&#x3bb;" horiz-adv-x="530" 
d="M526 43l-11 -27q-48 -24 -170 -26q-5 15 -47 156t-65 209l-113 -347q-36 -15 -103 -19l-14 20q27 30 60 63q92 185 147 344q-5 17 -23 69q-33 90 -62.5 121t-65.5 31q-15 0 -37 -4l2 31q39 35 100 35q66 0 111 -60.5t96 -218.5q90 -277 127 -355q40 -11 68 -22z" />
    <glyph glyph-name="uni03BC" unicode="&#x3bc;" horiz-adv-x="564" 
d="M473 387v-314q11 -18 84 -26l-10 -29q-33 -29 -101 -31q-29 0 -55.5 16.5t-35.5 55.5l-2 1q-61 -73 -116 -73q-39 0 -63 25l-2 -1q-12 -167 9 -235l-10 -8q-58 4 -79 35t-22 98v74v90v104q0 40 0.5 140t0.5 124q11 7 53.5 15t73.5 8l2 -3q0 -3 -7 -108.5t-11 -198.5
q-1 -30 13 -51q23 -31 68 -31q51 0 88 42v327q11 6 59 14.5t81 8.5l5 -8z" />
    <glyph glyph-name="nu" unicode="&#x3bd;" horiz-adv-x="492" 
d="M-6 388l11 29q31 13 91 26.5t83 12.5l5 -48q23 -72 105 -294h2q78 135 82 209l-15.5 65t-11.5 46l3 5q8 8 38 14t50 3q24 -18 24 -73q0 -40 -30.5 -104.5t-82 -147.5t-61.5 -102q-22 -30 -58 -46h-13q-1 3 -24.5 65.5l-48.5 127.5l-49 126t-31 72z" />
    <glyph glyph-name="xi" unicode="&#x3be;" horiz-adv-x="468" 
d="M394 408l-57 -70q-35 5 -54 5q-55 0 -91 -33.5t-36 -85.5q0 -95 116 -117l89 -20q69 -17 83 -36q-1 -72 -43.5 -132t-74.5 -77l-32 12q41 70 37 121q-32 15 -125 33q-171 33 -171 171q0 126 154 181v3q-55 14 -86.5 53.5t-31.5 96.5q0 81 63 132.5t164 51.5
q41 0 76.5 -11t53.5 -26q1 -11 -12.5 -49.5t-25.5 -57.5l-20 -7q-29 62 -42 107q-10 3 -25 3q-46 0 -82 -32.5t-36 -88.5t36 -85.5t100 -29.5q41 0 71 3z" />
    <glyph glyph-name="omicron" unicode="&#x3bf;" horiz-adv-x="543" 
d="M272 456h1q104 0 170 -64.5t66 -165.5q0 -107 -67 -173t-171 -66q-99 0 -168.5 62.5t-69.5 167.5q0 107 72 173t167 66zM269 417h-1q-34 0 -57.5 -30t-33 -70.5t-9.5 -84.5q0 -48 11 -93t37 -79t63 -34q28 0 47.5 18.5t29.5 49t14 60.5t4 61q0 46 -10 89.5t-34.5 78
t-60.5 34.5z" />
    <glyph glyph-name="pi" unicode="&#x3c0;" horiz-adv-x="613" 
d="M151 442h363q63 13 70 14l4 -1q-2 -25 -10.5 -53t-18.5 -38l-6 -5l-47 23h-24v-309q10 -18 84 -26l-9 -29q-36 -31 -102 -31q-46 0 -70.5 19.5t-24.5 48.5v327h-132v-218q0 -117 -15 -143q-14 -16 -55 -25t-85 -9l-13 20q18 22 60 61q8 26 8 94v220h-27q-30 0 -88 -17
l-2 25q12 18 48.5 35t91.5 17z" />
    <glyph glyph-name="rho" unicode="&#x3c1;" horiz-adv-x="546" 
d="M197 -114l12 -82q-46 -35 -133 -39l-6 4v376v81q0 92 50 149q68 81 178 81q92 0 153 -61.5t61 -163.5q0 -51 -16.5 -93.5t-42.5 -70t-58.5 -46t-63 -26.5t-57.5 -8q-31 0 -81 28l-2 -1q2 -98 6 -128zM191 278l1 -219q24 -14 59 -14q56 0 95.5 49.5t39.5 135.5t-32 135
t-79 49q-84 0 -84 -136z" />
    <glyph glyph-name="uni03C2" unicode="&#x3c2;" horiz-adv-x="437" 
d="M287 -158l-31 14q40 62 40 119q-21 16 -100 34q-85 19 -123.5 66t-38.5 125q0 63 30.5 116t85.5 90q75 50 153 50q74 0 111 -27q2 -11 -11.5 -51.5t-25.5 -56.5l-21 -7q-18 33 -33 69q-23 19 -63 19q-60 0 -90 -39.5t-30 -107.5q0 -63 27 -94.5t83 -47.5l26 -7.5l34 -9.5
q81 -19 97 -43q0 -76 -42 -134t-78 -77z" />
    <glyph glyph-name="sigma" unicode="&#x3c3;" horiz-adv-x="545" 
d="M277 385h-1q-50 0 -83 -45t-33 -131q0 -82 32 -132t80 -50q99 0 99 188q0 99 -42 145q-23 25 -52 25zM559 472l8 -6q-3 -21 -18.5 -51.5t-30.5 -40.5q-22 0 -148 11l-2 -2q118 -58 118 -174q0 -101 -63 -161t-159 -60q-110 0 -170 65t-60 159q0 60 23.5 107.5t63.5 76.5
t89 43t102 12q27 -1 57.5 -1t66.5 0.5t55 0.5q2 1 14.5 5l26.5 8.5t27 7.5z" />
    <glyph glyph-name="tau" unicode="&#x3c4;" horiz-adv-x="464" 
d="M151 442h214q63 13 70 14l5 -1q-1 -23 -11 -52t-19 -39l-5 -5q-3 1 -20 10t-27 13h-72v-310q10 -19 84 -27l-8 -27q-33 -31 -105 -31q-44 0 -68.5 17.5t-24.5 45.5v332h-53q-44 0 -95 -17l-4 25q12 19 48 35.5t91 16.5z" />
    <glyph glyph-name="upsilon" unicode="&#x3c5;" horiz-adv-x="516" 
d="M85 377l-58 29l10 22q25 10 79 19t95 9l2 -4q0 -14 -2.5 -63t-4 -116t-1.5 -143q1 -34 25.5 -54t60.5 -20q114 0 114 174q0 34 -16 91q-56 85 -64 99l2 13q8 7 46 16t57 8q44 -55 44 -175q0 -133 -61.5 -214t-164.5 -81q-63 0 -112 35q-53 40 -53 108q0 29 1 122.5
t1 124.5z" />
    <glyph glyph-name="phi" unicode="&#x3c6;" horiz-adv-x="662" 
d="M392 574v-118q107 -14 171.5 -73.5t64.5 -157.5q0 -103 -68.5 -161.5t-169.5 -71.5q-2 -24 -3 -85.5t-2 -74.5q-12 -23 -35.5 -41.5t-43.5 -24.5l-13 7q-4 26 -6 215q-115 8 -184.5 67.5t-69.5 160.5q0 168 197 232l16 -32q-85 -60 -85 -184q0 -83 36 -133.5t90 -65.5
l-6 497q14 12 46.5 28t53.5 20zM391 411l-2 -377q53 11 89 57.5t36 132.5t-40 132.5t-83 54.5z" />
    <glyph glyph-name="chi" unicode="&#x3c7;" horiz-adv-x="482" 
d="M-3 390l10 27q61 27 164 39q8 -16 51 -114t50 -112h2q64 137 74 168l-1 55l2 3q92 2 142 -19l-9 -25l-74 -29q-49 -72 -113 -207q70 -164 146 -323q6 -8 25.5 -30l29.5 -34l-12 -21q-33 -3 -84.5 6.5t-68.5 28.5q-6 13 -25.5 58.5l-45 106.5l-39.5 92h-1
q-70 -146 -99 -218l-6 -55q-37 -13 -127 -19l5 29l61 55q57 94 144 261q-70 164 -121 259z" />
    <glyph glyph-name="psi" unicode="&#x3c8;" horiz-adv-x="672" 
d="M396 561l14 -6l-8 -518q44 6 66.5 37.5t31.5 102.5q4 29 9 85t9.5 93.5t8.5 48.5q9 17 41 32.5t83 19.5l8 -25q-34 -34 -44 -79q-33 -178 -35 -186q-17 -74 -63.5 -120t-113.5 -54q-1 -14 -2 -83t-4 -88q-28 -44 -80 -53l-10 7q-6 46 -8 213q-100 9 -153 58t-66 173
q-16 135 -19 148q-21 11 -53 24l11 28q77 33 146 37l2 -2q13 -22 26 -221q7 -93 31 -137t75 -58l-12 461q12 14 45.5 34t63.5 28z" />
    <glyph glyph-name="omega" unicode="&#x3c9;" horiz-adv-x="688" 
d="M245 456l16 -33q-44 -31 -70.5 -82t-26.5 -115q0 -81 25.5 -122.5t67.5 -41.5q45 0 62 50q-33 93 -38 159q13 14 68.5 14.5t69.5 -14.5q-10 -80 -44 -159q15 -50 61 -50q37 0 66.5 40t29.5 123q0 63 -24 114.5t-66 81.5l19 35q71 -20 116 -65q72 -70 72 -175
q0 -107 -51.5 -167.5t-134.5 -60.5q-44 0 -73.5 23t-41.5 59h-4q-15 -37 -47 -59.5t-78 -22.5q-81 0 -131 60t-50 150q0 104 62 173q53 57 145 85z" />
    <glyph glyph-name="iotadieresis" unicode="&#x3ca;" horiz-adv-x="282" 
d="M70 50v387q43 12 122 19v-383q10 -18 84 -26l-11 -29q-33 -31 -102 -31q-44 0 -68.5 17.5t-24.5 45.5zM44 651l8 2q11 -5 29.5 -26t25.5 -36l-2 -9q-11 -30 -56 -63l-10 -2q-33 21 -56 62l2 10q26 40 59 62zM236 651l9 2q10 -5 28.5 -26t26.5 -36l-2 -9
q-7 -15 -24.5 -33.5t-31.5 -29.5l-10 -2q-15 10 -31.5 28.5t-24.5 33.5l1 10q29 42 59 62z" />
    <glyph glyph-name="upsilondieresis" unicode="&#x3cb;" horiz-adv-x="516" 
d="M85 377l-58 29l10 22q25 10 79 19t95 9l2 -4q0 -14 -2.5 -63t-4 -116t-1.5 -143q1 -34 25.5 -54t60.5 -20q114 0 114 174q0 34 -16 91q-56 85 -64 99l2 13q8 7 46 16t57 8q44 -55 44 -175q0 -133 -61.5 -214t-164.5 -81q-63 0 -112 35q-53 40 -53 108q0 29 1 122.5
t1 124.5zM163 651l8 2q11 -5 29.5 -26t25.5 -36l-2 -9q-11 -30 -56 -63l-10 -2q-33 21 -56 62l2 10q26 40 59 62zM355 651l9 2q10 -5 28.5 -26t26.5 -36l-2 -9q-7 -15 -24.5 -33.5t-31.5 -29.5l-10 -2q-15 10 -31.5 28.5t-24.5 33.5l1 10q29 42 59 62z" />
    <glyph glyph-name="omicrontonos" unicode="&#x3cc;" horiz-adv-x="543" 
d="M272 456h1q104 0 170 -64.5t66 -165.5q0 -107 -67 -173t-171 -66q-99 0 -168.5 62.5t-69.5 167.5q0 107 72 173t167 66zM269 417h-1q-34 0 -57.5 -30t-33 -70.5t-9.5 -84.5q0 -48 11 -93t37 -79t63 -34q28 0 47.5 18.5t29.5 49t14 60.5t4 61q0 46 -10 89.5t-34.5 78
t-60.5 34.5zM266 493l-30 9l37 180q56 6 95 -16v-15z" />
    <glyph glyph-name="upsilontonos" unicode="&#x3cd;" horiz-adv-x="516" 
d="M85 377l-58 29l10 22q25 10 79 19t95 9l2 -4q0 -14 -2.5 -63t-4 -116t-1.5 -143q1 -34 25.5 -54t60.5 -20q114 0 114 174q0 34 -16 91q-56 85 -64 99l2 13q8 7 46 16t57 8q44 -55 44 -175q0 -133 -61.5 -214t-164.5 -81q-63 0 -112 35q-53 40 -53 108q0 29 1 122.5
t1 124.5zM265 493l-30 9l37 180q56 6 95 -16v-15z" />
    <glyph glyph-name="omegatonos" unicode="&#x3ce;" horiz-adv-x="688" 
d="M245 456l16 -33q-44 -31 -70.5 -82t-26.5 -115q0 -81 25.5 -122.5t67.5 -41.5q45 0 62 50q-33 93 -38 159q13 14 68.5 14.5t69.5 -14.5q-10 -80 -44 -159q15 -50 61 -50q37 0 66.5 40t29.5 123q0 63 -24 114.5t-66 81.5l19 35q71 -20 116 -65q72 -70 72 -175
q0 -107 -51.5 -167.5t-134.5 -60.5q-44 0 -73.5 23t-41.5 59h-4q-15 -37 -47 -59.5t-78 -22.5q-81 0 -131 60t-50 150q0 104 62 173q53 57 145 85zM345 493l-30 9l37 180q56 6 95 -16v-15z" />
    <glyph glyph-name="uni03D0" unicode="&#x3d0;" horiz-adv-x="545" 
d="M70 163v239q0 152 62.5 225t164.5 73q82 0 127.5 -39.5t45.5 -109.5q0 -31 -10.5 -56t-32.5 -44t-42 -31t-51 -27v-5q49 -6 87 -25q89 -46 89 -155q0 -104 -73 -162t-172 -59q-73 0 -116 21q-46 21 -62.5 56.5t-16.5 98.5zM192 418v-42q52 13 87 30q84 43 83 143
q-2 111 -77 111q-49 0 -71 -57t-22 -185zM192 336v-175q0 -73 29 -105q25 -28 65 -28q37 0 66.5 38.5t29.5 129.5q0 158 -116 158q-36 0 -74 -18z" />
    <glyph glyph-name="uni03D1" unicode="&#x3d1;" horiz-adv-x="539" 
d="M71 234l-55 17l8 23q15 8 63 20.5t102 18.5l2 -2q11 -18 11 -75v-84q0 -121 74 -121q100 0 104 295q0 40 -2 60l-2 1q-26 -18 -62 -32t-65 -14q-86 0 -134 47.5t-48 117.5q0 84 60.5 136.5t148.5 52.5q109 0 165.5 -81.5t56.5 -243.5q0 -181 -64.5 -281.5t-185.5 -100.5
q-167 0 -167 154v41q0 37 -10 51zM297 405h1q35 0 75 18q-2 31 -6.5 63t-16 74t-35.5 68.5t-57 26.5t-54.5 -31.5t-21.5 -82.5q0 -60 32 -98t83 -38z" />
    <glyph glyph-name="uni03F0" unicode="&#x3f0;" horiz-adv-x="615" 
d="M40 45l84 28q15 20 26.5 63.5t11.5 94.5q1 57 -15.5 93.5t-39.5 48.5l-79 8l6 25q31 19 75.5 34t66.5 15q20 0 38.5 -35t18.5 -91q0 -92 -35 -176h7l122.5 170.5t98.5 134.5q91 1 164 -30l-8 -24l-87 -23q-45 -74 -45 -184q-1 -100 45 -130l91 -10l-7 -28
q-16 -12 -57 -27t-63 -15q-30 1 -54.5 35t-23.5 90q1 81 41 196l-4 1l-93 -134.5l-89.5 -131t-43.5 -61.5q-93 -1 -162 40z" />
    <glyph glyph-name="afii10023" unicode="&#x401;" horiz-adv-x="592" 
d="M33 634l8 26q23 0 69 -0.5t69 -0.5h248q34 10 100 13l3 -4q-1 -19 -10 -76t-15 -79l-18 -7q-36 65 -57 110l-184 -10v-241q124 0 254 14l5 -12q-3 -10 -27 -37.5t-34 -27.5q-6 0 -92 5.5t-106 6.5q0 -183 4 -261l187 -10q88 112 107 131l20 -7q-2 -19 -16 -85t-22 -85
q-63 3 -177 3h-173q-24 0 -76.5 -0.5t-76.5 -0.5l8 26l82 35q6 24 6 284v257zM200 846l9 2q10 -4 29 -25t27 -38l-2 -9q-6 -15 -24.5 -34.5t-32.5 -29.5l-10 -2q-16 9 -32.5 28t-25.5 35l2 9q27 42 60 64zM411 846l8 2q11 -4 30 -25t27 -38l-3 -9q-6 -15 -24.5 -34.5
t-32.5 -29.5l-10 -2q-15 10 -32 29t-25 34l2 9q24 40 60 64z" />
    <glyph glyph-name="afii10051" unicode="&#x402;" horiz-adv-x="789" 
d="M129 659h442q61 13 92 14l4 -5q-3 -29 -15 -88.5t-18 -78.5l-17 -9q-44 106 -51 126l-169 -6v-233q85 37 132 37q90 0 153.5 -67t63.5 -179q0 -136 -73.5 -219t-190.5 -120l-16 34q22 12 44 31.5t47 53t40 86.5t15 118q0 96 -40 149t-108 53q-36 0 -67 -14q0 -138 6 -282
l99 -35l-8 -26q-22 0 -75 0.5t-81 0.5q-29 0 -85 -0.5t-81 -0.5l8 26l88 35q3 31 3 274v278l-136 7q-58 -96 -75 -118l-19 -6q-2 25 -0.5 89t5.5 85l6 4q11 -1 77 -14z" />
    <glyph glyph-name="afii10052" unicode="&#x403;" horiz-adv-x="541" 
d="M37 635l10 25q21 0 64 -0.5t65 -0.5h232q73 12 101 13l3 -4q-2 -20 -13.5 -86t-16.5 -82l-18 -9q-18 31 -58 124l-160 -8v-280q0 -241 4 -267l101 -34l-9 -27q-24 0 -76 0.5t-80 0.5q-25 0 -76.5 -0.5t-77.5 -0.5l8 27l75 34q4 24 4 286v255zM230 704l-17 28l160 127
q18 -2 39 -22t32 -44l-1 -13z" />
    <glyph glyph-name="afii10053" unicode="&#x404;" horiz-adv-x="682" 
d="M599 379l7 -12q-4 -11 -29 -38t-37 -27q-28 0 -159 5t-200 6q7 -120 79 -197t198 -78q26 0 49 7q88 80 135 105l15 -13q-10 -27 -38.5 -72.5t-41.5 -55.5q-25 -9 -77.5 -18.5t-86.5 -9.5q-56 0 -109 12t-101.5 39t-84 66t-57 97t-21.5 128q0 84 33.5 153t88 112t120.5 66
t134 23q88 0 143 -32q39 19 89 23l5 -4q-2 -23 -19.5 -85.5t-26.5 -84.5l-16 -6q-18 37 -42 117q-36 22 -105 22q-117 0 -188 -78t-74 -184q289 0 417 14z" />
    <glyph glyph-name="afii10054" unicode="&#x405;" horiz-adv-x="536" 
d="M277 677h2q64 0 103 -29q19 14 75 33l13 -7q-1 -19 -13 -76.5t-24 -86.5l-17 -8q-28 50 -45 107q-26 20 -78 20q-54 0 -88.5 -29.5t-34.5 -76.5q0 -56 59 -89q19 -11 71 -37.5l78 -40.5q70 -38 96 -80t26 -92q0 -56 -24.5 -98t-64.5 -64t-81 -32t-82 -10q-62 0 -125 24
t-86 44q5 24 24.5 74t28.5 63l16 8q14 -33 40 -151q29 -18 92 -17q64 1 100.5 31.5t36.5 84.5q0 60 -66 97q-131 72 -148 82q-103 59 -103 164q1 79 60 135.5t159 56.5z" />
    <glyph glyph-name="afii10055" unicode="&#x406;" horiz-adv-x="366" 
d="M44 633l9 26q21 0 64.5 -0.5t65.5 -0.5q24 0 70.5 0.5t69.5 0.5l-7 -27l-70 -33v-256q0 -253 5 -283l88 -34l-7 -27q-24 0 -74 1t-77 1t-77.5 -1t-73.5 -1l8 27l75 34q6 21 6 283v256z" />
    <glyph glyph-name="afii10056" unicode="&#x407;" horiz-adv-x="366" 
d="M44 633l9 26q21 0 64.5 -0.5t65.5 -0.5q24 0 70.5 0.5t69.5 0.5l-7 -27l-70 -33v-256q0 -253 5 -283l88 -34l-7 -27q-24 0 -74 1t-77 1t-77.5 -1t-73.5 -1l8 27l75 34q6 21 6 283v256zM77 846l9 2q10 -4 29 -25t27 -38l-2 -9q-6 -15 -24.5 -34.5t-32.5 -29.5l-10 -2
q-16 9 -32.5 28t-25.5 35l2 9q27 42 60 64zM288 846l8 2q11 -4 30 -25t27 -38l-3 -9q-6 -15 -24.5 -34.5t-32.5 -29.5l-10 -2q-15 10 -32 29t-25 34l2 9q24 40 60 64z" />
    <glyph glyph-name="afii10057" unicode="&#x408;" horiz-adv-x="344" 
d="M25 632l8 27q23 0 70 -0.5t72 -0.5q23 0 71.5 0.5t73.5 0.5l-6 -27l-70 -35v-434q0 -76 -21 -133q-24 -70 -78.5 -126.5t-97.5 -83.5l-28 22v8q56 45 76 93.5t22 132.5q2 64 0 278q-3 207 -4 244z" />
    <glyph glyph-name="afii10058" unicode="&#x409;" horiz-adv-x="922" 
d="M276 633l100 49l4 -5q0 -33 13 -72l88 -238q98 38 183 38q109 0 165 -51t56 -135q0 -222 -344 -222q-71 0 -125 2l9 26l38 31l-26 77.5l-58 174.5l-70 213h-2q-155 -450 -157 -457l79 -38l-9 -27q-17 0 -54.5 0.5t-55.5 0.5q-16 0 -50.5 -0.5t-51.5 -0.5l10 27l63 39
q19 39 82.5 198.5l120.5 310.5q5 16 1 27zM496 330l104 -289q60 5 104 44.5t44 119.5q0 70 -40 107.5t-109 37.5q-60 0 -103 -20z" />
    <glyph glyph-name="afii10059" unicode="&#x40a;" horiz-adv-x="1015" 
d="M120 347v253l-76 33l11 26q21 0 63.5 -0.5t64.5 -0.5q21 0 60 0.5t58 0.5l-9 -27l-47 -34v-216h255v217l-50 34l10 26q17 0 51.5 -0.5t51.5 -0.5q25 0 74 0.5t73 0.5l-8 -27l-77 -34v-211q48 12 111 12q116 0 179 -51t63 -137q0 -52 -19.5 -91t-51 -62t-79 -37t-94.5 -19
t-106 -5q-145 0 -211 3l8 28l69 31q6 26 6 278q-43 -11 -126 -11h-129q0 -230 1 -263l56 -36l-10 -28q-18 0 -56.5 0.5t-58.5 0.5q-24 0 -72 -0.5t-71 -0.5l9 27l71 34q6 138 6 287zM840 206v1q0 76 -43 110.5t-112 34.5q-20 0 -60 -5q0 -205 3 -309q103 0 157.5 38.5
t54.5 129.5z" />
    <glyph glyph-name="afii10060" unicode="&#x40b;" horiz-adv-x="828" 
d="M128 659h447q59 12 92 14l4 -5q-3 -26 -15 -83t-18 -78l-17 -11q-20 40 -49 122l-176 -6v-237q86 39 159 39q85 0 134 -53q35 -41 35 -123v-166q0 -11 21 -23l58 -29l-13 -26q-125 -2 -206 8q14 77 14 224q0 129 -113 129q-49 0 -89 -18q0 -30 6 -276l95 -36l-10 -26
q-21 0 -71.5 0.5t-78.5 0.5q-29 0 -85 -0.5t-81 -0.5l9 26l87 36q3 30 3 273v278l-139 6q-43 -78 -73 -111l-17 -7q-2 21 -0.5 84.5t5.5 84.5l5 4q16 -1 77 -14z" />
    <glyph glyph-name="afii10061" unicode="&#x40c;" horiz-adv-x="689" 
d="M119 343v257l-75 33l9 26q21 0 64.5 -0.5t65.5 -0.5q23 0 69 0.5t70 0.5l-8 -27l-68 -33v-250q36 11 53 20t32 25q96 110 164 209l2 56q13 0 38 -0.5t38 -0.5q76 0 111 1l-8 -28l-122 -43q-102 -109 -170 -196l-1 -3q10 -16 40 -57q121 -166 257 -335l-11 -12
q-72 1 -115 17.5t-78 55.5q-34 38 -177 228q-25 35 -53 28q0 -226 5 -254l88 -34l-11 -27q-23 0 -71.5 0.5t-74.5 0.5t-77 -0.5t-74 -0.5l8 27l74 34q6 20 6 283zM323 705l-17 28l160 127q18 -2 39 -22t32 -44l-1 -13z" />
    <glyph glyph-name="afii10062" unicode="&#x40e;" horiz-adv-x="678" 
d="M4 633l11 26q21 0 63 -0.5t63 -0.5q23 0 67 0.5t64 0.5l-9 -28l-40 -27l174 -336h3q86 208 130 331l-59 34l9 26q12 0 40.5 -0.5t44.5 -0.5q20 0 58 0.5t59 0.5l-6 -27l-51 -23q-18 -8 -26.5 -18t-21.5 -37l-103 -228t-88 -194q-79 -167 -173 -167q-44 0 -70 42
q-16 23 -20 56l10 14q53 -24 104 -24q40 0 64 23.5t24 50.5q-1 23 -25 69q-87 171 -197 368q-14 24 -23.5 32.5t-28.5 17.5zM462 823l38 17l11 -4q-31 -130 -158 -130q-55 0 -88.5 28t-33.5 67q0 3 2 11q6 8 29.5 18t37.5 10l5 -5q3 -27 22.5 -46.5t55.5 -19.5q55 0 79 54z
" />
    <glyph glyph-name="afii10145" unicode="&#x40f;" horiz-adv-x="782" 
d="M119 347v252l-74 33l10 27q21 0 64 -0.5t64 -0.5q22 0 61.5 0.5t57.5 0.5l-11 -29l-45 -32v-259q0 -214 5 -284q45 -9 141 -9q97 0 139 9q5 74 5 291v252l-50 35l9 26q17 0 53 -0.5t53 -0.5q26 0 74.5 0.5t72.5 0.5l-7 -27l-78 -34v-257q0 -250 7 -280l85 -35l-8 -27
q-23 0 -71 0.5t-72 0.5h-154q-27 -132 -43 -194l-32 -13q-8 30 -24.5 107.5l-21.5 99.5h-151q-24 0 -73 -0.5t-72 -0.5l9 27l71 34q6 132 6 287z" />
    <glyph glyph-name="afii10017" unicode="&#x410;" horiz-adv-x="726" 
d="M293 633l104 49l4 -5q0 -31 15 -72q18 -53 196 -500q14 -32 31.5 -45t72.5 -35l-8 -26q-23 0 -72 0.5t-73 0.5q-18 0 -55.5 -0.5t-57.5 -0.5l8 25l36 32q-3 10 -12.5 34l-25 64.5l-27.5 72.5q-102 -6 -217 -4l-58 -159l82 -38l-7 -27q-18 0 -56 0.5t-56 0.5t-54 -0.5
t-54 -0.5l8 27l69 39q58 114 215 510q5 12 2 27zM326 527h-2l-92 -245q16 0 89.5 -2t91.5 -2z" />
    <glyph glyph-name="afii10018" unicode="&#x411;" horiz-adv-x="639" 
d="M119 343v258l-83 33l10 26q22 0 65.5 -0.5t64.5 -0.5h268q48 12 99 12l2 -4q-1 -20 -11.5 -80.5t-15.5 -77.5l-18 -10q-10 17 -31 62t-26 54l-197 -8v-226q46 12 111 12q118 0 181.5 -49t63.5 -134q0 -65 -28.5 -109t-81.5 -65.5t-110.5 -30t-133.5 -8.5q-145 0 -213 3
l9 27l69 32q6 23 6 284zM462 204v1q0 74 -43.5 108t-113.5 34q-24 0 -59 -5q0 -200 3 -304q104 2 158.5 38t54.5 128z" />
    <glyph glyph-name="afii10019" unicode="&#x412;" horiz-adv-x="642" 
d="M40 629l8 25q130 13 249 13q267 0 267 -150q0 -68 -50 -107t-121 -48v-7q212 -20 212 -163q0 -195 -346 -195q-108 0 -222 3l7 27l69 34q6 48 6 226v319zM246 626v-257q184 2 184 136q0 70 -54 101q-37 20 -106 20h-24zM463 193v1q0 64 -46.5 100t-170.5 35v-19
q0 -210 4 -274q131 0 180 58q33 38 33 99z" />
    <glyph glyph-name="afii10020" unicode="&#x413;" horiz-adv-x="541" 
d="M37 635l10 25q21 0 64 -0.5t65 -0.5h232q73 12 101 13l3 -4q-2 -20 -13.5 -86t-16.5 -82l-18 -9q-18 31 -58 124l-160 -8v-280q0 -241 4 -267l101 -34l-9 -27q-24 0 -76 0.5t-80 0.5q-25 0 -76.5 -0.5t-77.5 -0.5l8 27l75 34q4 24 4 286v255z" />
    <glyph glyph-name="afii10021" unicode="&#x414;" horiz-adv-x="741" 
d="M307 633l101 49l4 -5q0 -33 14 -71l208 -556l79 -7q-27 -156 -48 -239l-32 -11q-6 34 -18 110t-15 97h-463l-34.5 -95.5t-39.5 -101.5l-33 -10v89v92v69l72 7q73 168 212 525q6 14 2 27zM336 47h1q93 0 157 8q-9 29 -155 463h-2q-143 -396 -162 -463q70 -8 161 -8z" />
    <glyph glyph-name="afii10022" unicode="&#x415;" horiz-adv-x="592" 
d="M33 634l8 26q23 0 69 -0.5t69 -0.5h248q34 10 100 13l3 -4q-1 -19 -10 -76t-15 -79l-18 -7q-36 65 -57 110l-184 -10v-241q124 0 254 14l5 -12q-3 -10 -27 -37.5t-34 -27.5q-6 0 -92 5.5t-106 6.5q0 -183 4 -261l187 -10q88 112 107 131l20 -7q-2 -19 -16 -85t-22 -85
q-63 3 -177 3h-173q-24 0 -76.5 -0.5t-76.5 -0.5l8 26l82 35q6 24 6 284v257z" />
    <glyph glyph-name="afii10024" unicode="&#x416;" horiz-adv-x="962" 
d="M419 350v250l-74 32l9 27q22 0 64.5 -0.5t63.5 -0.5q23 0 68.5 0.5t67.5 0.5l-8 -28l-68 -32v-249q59 21 76 39q83 93 160 215l2 55q12 0 36.5 -0.5t37.5 -0.5q68 0 99 1l-11 -27l-108 -44q-79 -88 -174 -209v-3q39 -25 53 -44l242 -334l-12 -12q-64 1 -105.5 18
t-73.5 55q-18 22 -44 57.5l-62 86l-61 83.5q-17 24 -27.5 29t-27.5 -1q0 -220 5 -255l84 -33l-9 -27q-22 0 -69 0.5t-73 0.5q-25 0 -73 -0.5t-71 -0.5l7 27l70 33q6 19 6 255q-16 7 -30 1t-31 -29l-82 -113t-85 -114q-31 -38 -71 -55t-102 -18l-11 13l243 332q15 23 51 45v2
q-95 120 -174 210l-118 44l10 27q28 -1 93 -1q14 0 37 0.5t34 0.5l2 -55q81 -124 159 -213q20 -22 75 -41z" />
    <glyph glyph-name="afii10025" unicode="&#x417;" horiz-adv-x="571" 
d="M126 479l-18 -8q-34 74 -47 118q114 88 227 88q97 0 152 -43.5t56 -117.5q0 -60 -53 -101q-42 -31 -98 -50v-6q49 -10 88 -27q97 -39 97 -140q0 -98 -79 -154.5t-187 -56.5q-78 0 -140 25t-82 51q24 72 55 126l18 7q15 -39 39 -147q29 -14 69 -13q76 2 121.5 43t45.5 117
q0 59 -35 95.5t-113 36.5q-46 0 -86 -8l-5 16l49 50q33 -3 49 -3q57 0 88 32t31 83q0 62 -34.5 97.5t-97.5 35.5q-39 0 -69 -15q-19 -76 -41 -131z" />
    <glyph glyph-name="afii10026" unicode="&#x418;" horiz-adv-x="795" 
d="M120 347v251l-74 34l9 27q21 0 64.5 -1t65.5 -1q20 0 60.5 1t61.5 1l-9 -29l-56 -32v-268q0 -113 -7 -240h7l279 528l-1 39h94q24 0 73 1t73 1l-9 -28l-75 -32v-257q0 -258 6 -282l88 -33l-7 -28q-23 0 -71 0.5t-74 0.5q-23 0 -67 -0.5t-65 -0.5l8 28l56 33q4 55 4 263
q0 123 8 254h-9l-280 -534l1 -43h-94q-23 0 -72 -0.5t-74 -0.5l9 27l71 34q6 138 6 287z" />
    <glyph glyph-name="afii10027" unicode="&#x419;" horiz-adv-x="795" 
d="M120 347v251l-74 34l9 27q21 0 64.5 -1t65.5 -1q20 0 60.5 1t61.5 1l-9 -29l-56 -32v-268q0 -113 -7 -240h7l279 528l-1 39h94q24 0 73 1t73 1l-9 -28l-75 -32v-257q0 -258 6 -282l88 -33l-7 -28q-23 0 -71 0.5t-74 0.5q-23 0 -67 -0.5t-65 -0.5l8 28l56 33q4 55 4 263
q0 123 8 254h-9l-280 -534l1 -43h-94q-23 0 -72 -0.5t-74 -0.5l9 27l71 34q6 138 6 287zM509 824l38 17l11 -4q-31 -130 -158 -130q-55 0 -88.5 28t-33.5 67q0 3 2 11q6 8 29.5 18t37.5 10l5 -5q3 -27 22.5 -46.5t55.5 -19.5q55 0 79 54z" />
    <glyph glyph-name="afii10028" unicode="&#x41a;" horiz-adv-x="689" 
d="M119 343v257l-75 33l9 26q21 0 64.5 -0.5t65.5 -0.5q23 0 69 0.5t70 0.5l-8 -27l-68 -33v-250q36 11 53 20t32 25q96 110 164 209l2 56q13 0 38 -0.5t38 -0.5q76 0 111 1l-8 -28l-122 -43q-102 -109 -170 -196l-1 -3q10 -16 40 -57q121 -166 257 -335l-11 -12
q-72 1 -115 17.5t-78 55.5q-34 38 -177 228q-25 35 -53 28q0 -226 5 -254l88 -34l-11 -27q-23 0 -71.5 0.5t-74.5 0.5t-77 -0.5t-74 -0.5l8 27l74 34q6 20 6 283z" />
    <glyph glyph-name="afii10029" unicode="&#x41b;" horiz-adv-x="726" 
d="M293 634l104 49l4 -6q0 -26 15 -71q30 -83 196 -501q14 -32 31.5 -45t72.5 -35l-7 -26q-24 0 -72.5 0.5t-73.5 0.5q-19 0 -57 -0.5t-58 -0.5l8 25l36 32l-165 466h-2l-169 -458l84 -38l-8 -27q-18 0 -57 0.5t-58 0.5q-18 0 -53.5 -0.5t-53.5 -0.5l7 27l68 39
q21 39 88.5 198.5l127.5 311.5q5 13 2 27z" />
    <glyph glyph-name="afii10030" unicode="&#x41c;" horiz-adv-x="940" 
d="M62 631l11 26l201 2q1 -32 5 -41q9 -22 34.5 -75l74 -152l89.5 -185h2l196 409q3 7 3 44l218 -2l-7 -27l-84 -32q1 -82 11 -297.5t14 -239.5l91 -35l-7 -27q-22 0 -70.5 0.5t-72.5 0.5t-72 -0.5t-71 -0.5l8 27l60 35l-3 251t-3 234h-4l-239 -550l-23 -5l-229 538h-2
q-25 -284 -28 -466l89 -38l-6 -26q-19 0 -59 0.5t-61 0.5q-18 0 -55.5 -0.5t-55.5 -0.5l6 26l72 37q14 67 63 509q-11 25 -23 32t-73 28z" />
    <glyph glyph-name="afii10031" unicode="&#x41d;" horiz-adv-x="791" 
d="M43 632l9 27q22 0 66 -1t65 -1t60 1t58 1l-9 -29l-46 -33v-219h299v219l-48 36l7 26q18 0 53.5 -1t52.5 -1q25 0 74.5 1t72.5 1l-7 -28l-78 -34v-256q0 -256 7 -279l88 -36l-8 -27q-23 0 -72 0.5t-74 0.5q-21 0 -61.5 -0.5t-60.5 -0.5l8 28l45 34q1 31 1 268
q-35 -7 -121 -7h-178q0 -226 1 -259l56 -37l-8 -27q-19 0 -57.5 0.5t-59.5 0.5q-24 0 -73 -0.5t-72 -0.5l8 27l72 34q6 138 6 287v251z" />
    <glyph glyph-name="afii10032" unicode="&#x41e;" horiz-adv-x="796" 
d="M399 677h1q47 0 95 -12t95 -39t83 -65t58.5 -95.5t23.5 -126.5q1 -89 -30 -160t-83.5 -113t-114.5 -63.5t-127 -21.5q-50 0 -100 13t-97 40.5t-83 66.5t-57.5 96.5t-21.5 125.5q0 107 54 190t134.5 123.5t169.5 40.5zM388 637h-1q-96 0 -149 -85t-53 -212
q0 -81 25.5 -153t79 -119.5t123.5 -47.5q55 0 95 28t61.5 75t31.5 97t10 104q0 73 -24.5 143t-77 120t-121.5 50z" />
    <glyph glyph-name="afii10033" unicode="&#x41f;" horiz-adv-x="775" 
d="M43 632l9 27q22 0 66 -0.5t65 -0.5h410q26 0 74.5 0.5t72.5 0.5l-8 -28l-77 -33v-253q0 -259 7 -282l87 -38l-9 -26q-23 0 -71.5 0.5t-72.5 0.5q-21 0 -62 -0.5t-61 -0.5l10 28l44 33q1 31 1 280v265q-54 7 -146 7q-82 0 -136 -7v-265q0 -246 1 -277l55 -36l-10 -28
q-18 0 -56 0.5t-58 0.5q-25 0 -74 -0.5t-73 -0.5l9 27l73 34q6 138 6 287v252z" />
    <glyph glyph-name="afii10034" unicode="&#x420;" horiz-adv-x="615" 
d="M39 626l9 26q172 15 235 15q143 0 211 -42q85 -53 85 -159q0 -46 -16.5 -83.5t-41.5 -60t-57.5 -37.5t-62.5 -20.5t-58 -5.5q-26 0 -44 5l-9 30q74 7 113.5 51.5t39.5 116.5q0 162 -196 162v-268q0 -104 1.5 -172.5t3 -93.5t1.5 -26l116 -38l-7 -27q-29 0 -88.5 0.5
t-89.5 0.5q-24 0 -72.5 -0.5t-72.5 -0.5l8 26l70 37q4 18 4 292v248z" />
    <glyph glyph-name="afii10035" unicode="&#x421;" horiz-adv-x="696" 
d="M418 677h1q93 0 152 -33q44 19 90 25l6 -4q-2 -25 -18.5 -92t-24.5 -86l-22 -10q-24 57 -41 127q-36 23 -107 23q-127 0 -200.5 -86t-73.5 -211t75.5 -210.5t206.5 -85.5q29 0 47 5q84 83 140 127l20 -16q-9 -29 -36.5 -78.5t-39.5 -62.5q-26 -10 -79.5 -19t-91.5 -9
q-74 0 -140.5 20.5t-121.5 61t-87.5 107.5t-32.5 153q0 88 35.5 158t92 111.5t121 63t129.5 21.5z" />
    <glyph glyph-name="afii10036" unicode="&#x422;" horiz-adv-x="682" 
d="M137 659h418q70 13 94 14l4 -5q-3 -26 -15 -88.5t-18 -84.5l-17 -7q-1 3 -22.5 56.5t-28.5 74.5l-151 -8v-244q0 -156 6 -306l117 -35l-9 -27q-29 0 -86.5 0.5t-86.5 0.5q-30 0 -90 -0.5t-90 -0.5l7 27l103 35q3 30 3 274v276l-141 8q-51 -90 -76 -123l-18 -5
q-3 116 5 178l6 4q23 -1 86 -14z" />
    <glyph glyph-name="afii10037" unicode="&#x423;" horiz-adv-x="678" 
d="M4 633l11 26q21 0 63 -0.5t63 -0.5q23 0 67 0.5t64 0.5l-9 -28l-40 -27l174 -336h3q86 208 130 331l-59 34l9 26q12 0 40.5 -0.5t44.5 -0.5q20 0 58 0.5t59 0.5l-6 -27l-51 -23q-18 -8 -26.5 -18t-21.5 -37l-103 -228t-88 -194q-79 -167 -173 -167q-44 0 -70 42
q-16 23 -20 56l10 14q53 -24 104 -24q40 0 64 23.5t24 50.5q-1 23 -25 69q-87 171 -197 368q-14 24 -23.5 32.5t-28.5 17.5z" />
    <glyph glyph-name="afii10038" unicode="&#x424;" horiz-adv-x="838" 
d="M360 619l-70 27l9 24q21 0 61 -0.5t60 -0.5q22 0 66 0.5t65 0.5l-7 -25l-65 -27v-28q318 -19 318 -255q0 -68 -28 -118t-76.5 -77t-100 -40.5t-113.5 -16.5v-30l83 -29l-8 -25q-22 0 -67 0.5t-69 0.5q-25 0 -71 -0.5t-67 -0.5l8 25l72 29v30q-320 17 -320 248
q0 56 19 100t50 72t74 47t85.5 28t91.5 12v29zM358 122v429q-187 -26 -187 -212q0 -190 187 -217zM479 551v-429q187 26 187 211q0 195 -187 218z" />
    <glyph glyph-name="afii10039" unicode="&#x425;" horiz-adv-x="712" 
d="M35 634l11 25q25 0 74.5 -0.5t73.5 -0.5q19 0 56 0.5t54 0.5l-6 -27l-27 -30q56 -104 104 -183h3q66 108 106 182l-31 33l10 25q10 0 36 -0.5t38 -0.5q21 0 62 0.5t61 0.5l-7 -27q-77 -23 -114 -55q-64 -83 -140 -199q160 -271 171 -287q15 -22 53 -35l75 -31l-8 -26
q-28 0 -84 1t-84 1q-18 0 -55.5 -1t-56.5 -1l5 27l24 30q-24 53 -118 215h-2q-110 -177 -126 -210l44 -35l-7 -27q-15 0 -45.5 1t-45.5 1q-21 0 -61 -1t-60 -1l8 27l66 28q26 9 44 31q99 135 161 228q-124 221 -151 262q-20 29 -46 36z" />
    <glyph glyph-name="afii10040" unicode="&#x426;" horiz-adv-x="784" 
d="M119 347v253l-75 33l10 26q22 0 65 -0.5t64 -0.5t60 0.5t58 0.5l-10 -29l-45 -32v-263q0 -205 4 -280q47 -9 142 -9q96 0 140 9q4 75 4 280v264l-48 34l9 26q18 0 52.5 -0.5t51.5 -0.5q26 0 74.5 0.5t72.5 0.5l-8 -27l-77 -34v-257q0 -244 7 -291l76 -7
q-27 -148 -48 -237l-33 -13l-33 207h-454q-25 0 -73.5 -0.5t-72.5 -0.5l9 27l72 34q6 132 6 287z" />
    <glyph glyph-name="afii10041" unicode="&#x427;" horiz-adv-x="715" 
d="M96 453v146l-75 34l10 26q21 0 65 -0.5t66 -0.5q20 0 58.5 0.5t57.5 0.5l-9 -26l-46 -34v-134q0 -69 35 -101.5t109 -32.5q66 0 102 20v248l-75 34l9 26q22 0 65 -0.5t65 -0.5q24 0 70.5 0.5t69.5 0.5l-7 -27l-70 -34v-254q0 -254 5 -284l88 -34l-8 -27q-23 0 -73 0.5
t-77 0.5t-77 -0.5t-74 -0.5l6 27l77 34q6 18 6 250q-90 -45 -171 -45q-119 0 -172 67q-30 38 -30 121z" />
    <glyph glyph-name="afii10042" unicode="&#x428;" horiz-adv-x="1007" 
d="M120 347v253l-75 32l9 27q21 0 65 -0.5t66 -0.5q21 0 59 0.5t56 0.5l-12 -29l-44 -32v-255q0 -217 5 -288q31 -9 88 -9q61 0 100 9q5 130 5 292v253l-68 32l9 27q20 0 61.5 -0.5t62.5 -0.5t62.5 0.5t63.5 0.5l-11 -29l-56 -32v-256q0 -216 5 -287q31 -9 86 -9q64 0 102 9
q5 95 5 287v257l-50 33l9 27q17 0 53 -0.5t53 -0.5q25 0 72 0.5t70 0.5l-8 -27l-75 -34v-258q0 -257 6 -279l86 -35l-8 -27q-23 0 -71 0.5t-72 0.5h-654q-22 0 -69.5 -0.5t-71.5 -0.5l8 26l72 35q6 132 6 287z" />
    <glyph glyph-name="afii10043" unicode="&#x429;" horiz-adv-x="1007" 
d="M120 347v253l-73 32l9 27q21 0 64 -0.5t64 -0.5t59.5 0.5t55.5 0.5l-11 -29l-44 -32v-255q0 -215 5 -288q31 -9 88 -9q61 0 100 9q5 135 5 292v253l-67 32l8 27q20 0 61.5 -0.5t62.5 -0.5t62.5 0.5t63.5 0.5l-10 -29l-57 -32v-256q0 -216 5 -287q31 -9 86 -9q64 0 102 9
q5 95 5 286v258l-51 34l10 26q17 0 53 -0.5t53 -0.5q25 0 72 0.5t70 0.5l-8 -28l-75 -33v-258q0 -237 6 -291l76 -7q-25 -139 -48 -235l-32 -14l-16.5 102t-17.5 105h-681q-22 0 -70.5 -0.5t-73.5 -0.5l10 26l73 35q6 132 6 287z" />
    <glyph glyph-name="afii10044" unicode="&#x42a;" horiz-adv-x="767" 
d="M261 344v267l-127 7q-46 -83 -76 -123l-18 -5q-2 27 -0.5 92.5t5.5 86.5l6 4q13 -1 82 -15h194q33 0 78 0.5t63 0.5l-8 -27l-74 -33v-210q52 12 105 12q114 0 176 -50.5t62 -138.5q0 -65 -28 -109.5t-79.5 -66.5t-107 -30.5t-127.5 -8.5q-146 0 -214 3l12 27l70 32
q6 23 6 285zM591 206v1q0 78 -40.5 113t-104.5 35q-30 0 -60 -5q0 -208 3 -312q95 1 148.5 37.5t53.5 130.5z" />
    <glyph glyph-name="afii10045" unicode="&#x42b;" horiz-adv-x="923" 
d="M120 343v258l-73 32l7 26q22 0 65 -0.5t65 -0.5q23 0 69 0.5t69 0.5l-7 -27l-70 -32v-213q50 12 105 12q114 0 175 -49.5t61 -136.5q0 -53 -19.5 -92.5t-51 -62.5t-77.5 -37.5t-91.5 -19t-101.5 -4.5q-140 0 -207 3l9 27l67 30q6 26 6 286zM448 207v1q0 76 -41.5 110
t-104.5 34q-14 0 -57 -5q0 -205 3 -309q93 1 146.5 38.5t53.5 130.5zM604 633l8 26q22 0 65 -0.5t64 -0.5q24 0 70.5 0.5t69.5 0.5l-8 -27l-69 -32v-257q0 -251 5 -284l88 -33l-7 -27q-24 0 -74.5 0.5t-76.5 0.5t-76.5 -0.5t-74.5 -0.5l7 27l76 33q6 21 6 284v258z" />
    <glyph glyph-name="afii10046" unicode="&#x42c;" horiz-adv-x="639" 
d="M120 343v257l-76 33l10 26q22 0 65 -1t65 -1q24 0 70 1t70 1l-7 -27l-71 -33v-212q48 12 109 12q122 0 184.5 -49t62.5 -137q0 -66 -28.5 -110.5t-81 -66.5t-110 -30.5t-133.5 -8.5q-144 0 -211 3l7 26l69 31q6 26 6 286zM462 206v1q0 76 -43.5 110.5t-112.5 34.5
q-22 0 -60 -5q0 -205 3 -308q101 1 157 38t56 129z" />
    <glyph glyph-name="afii10047" unicode="&#x42d;" horiz-adv-x="682" 
d="M115 299l-9 13q6 11 34 36t44 28q204 -10 318 -12q-4 88 -42.5 148.5t-90.5 86t-113 25.5q-51 0 -96 -18q-15 -71 -39 -130l-20 -12q-31 67 -48 132q125 81 259 81q135 0 232 -90t97 -249q0 -94 -34 -165.5t-90 -112t-118.5 -60t-128.5 -19.5q-75 0 -144 25t-89 49
q36 91 60 129l19 7q17 -47 34 -148q38 -12 89 -11t94.5 15.5t82 45t61.5 86.5t24 133q-254 -5 -386 -13z" />
    <glyph glyph-name="afii10048" unicode="&#x42e;" horiz-adv-x="1046" 
d="M120 344v257l-75 32l10 26q22 0 65 -0.5t64 -0.5q23 0 69 0.5t70 0.5l-7 -26l-71 -33v-220h119q19 133 109 215t216 82q132 0 224 -90t94 -253q1 -91 -26 -161t-73.5 -111t-102.5 -61t-118 -20q-85 0 -157 37t-120.5 116.5t-49.5 187.5h-115q0 -230 5 -263l88 -33l-9 -27
q-23 0 -72 0.5t-76 0.5q-26 0 -76 -0.5t-74 -0.5l7 27l76 33q6 21 6 285zM676 637h-1q-81 0 -128 -82t-47 -216q0 -84 22 -155t68.5 -117t108.5 -46q47 0 81 26t52 71t26 95.5t8 109.5q0 133 -52.5 223.5t-137.5 90.5z" />
    <glyph glyph-name="afii10049" unicode="&#x42f;" horiz-adv-x="681" 
d="M561 605v-253q0 -176 5 -293l85 -33l-8 -28q-26 0 -76 1t-72 1q-27 0 -74.5 -1t-69.5 -1l7 28l72 33q5 107 5 244q-42 0 -71.5 -16t-55.5 -58q-117 -186 -121 -191q-50 -58 -174 -58l-9 13q18 17 44 53t64 94l43 66q31 48 56.5 69.5t81.5 38.5v3q-101 11 -146.5 56
t-45.5 111q0 184 311 184q132 0 230 -13l-9 -26zM435 343v283q-194 2 -194 -141q0 -69 45 -105.5t129 -36.5h20z" />
    <glyph glyph-name="afii10065" unicode="&#x430;" horiz-adv-x="480" 
d="M281 266l1 28q1 107 -87 107q-24 0 -53 -12q-8 -77 -18 -116l-9 -6q-12 3 -41.5 34t-38.5 59q58 49 139 79q44 17 70 17q43 0 75 -15t48.5 -38.5t24.5 -48.5t8 -50q0 -94 -2 -222q19 -33 74 -53l-5 -15q-31 -25 -78 -25q-83 0 -105 54h-2q-72 -56 -118 -56q-60 0 -95 39
t-35 85q0 59 42 81q21 14 85 36.5t120 37.5zM157 132v-1q0 -38 22 -56t49 -18q25 0 43 18q8 7 8 22l2 132q-60 -22 -92 -40q-32 -21 -32 -57z" />
    <glyph glyph-name="afii10066" unicode="&#x431;" horiz-adv-x="543" 
d="M296 456h2q93 0 151.5 -59t58.5 -163q0 -118 -69 -182.5t-167 -64.5q-108 0 -169 79.5t-61 220.5q0 198 119 310q38 40 90 64.5t104 24.5q60 0 91 4.5t49 19.5l13 -12q-22 -70 -73 -105q-14 -9 -42 -9q-17 0 -52.5 2.5t-64.5 2.5q-71 0 -105.5 -40t-34.5 -126
q0 -26 4 -45h2q23 32 62.5 55t91.5 23zM275 412h-1q-51 0 -74.5 -52t-23.5 -132q0 -88 28.5 -145t77.5 -57q92 0 93 200q0 88 -27 137t-73 49z" />
    <glyph glyph-name="afii10067" unicode="&#x432;" horiz-adv-x="528" 
d="M89 193v199l-60 20l10 26q107 13 212 13q111 0 162 -24.5t51 -80.5q0 -48 -36.5 -72.5t-91.5 -30.5v-6q84 -6 122 -32.5t38 -76.5q0 -133 -273 -133q-44 0 -110.5 1t-92.5 1l9 27l57 27q3 33 3 142zM208 412v-157q131 0 131 85q0 72 -107 72h-24zM208 217v-11
q0 -108 2 -172h16q56 0 96 23t40 73q0 44 -32.5 66t-121.5 21z" />
    <glyph glyph-name="afii10068" unicode="&#x433;" horiz-adv-x="430" 
d="M89 233v153l-64 31l10 26q18 0 55 -0.5t56 -0.5h166q37 9 90 11l3 -4q-1 -19 -12 -69t-18 -72l-17 -9q-34 76 -44 102l-103 -8v-171q0 -135 2 -165l81 -31l-8 -26q-23 0 -67 0.5t-66 0.5q-26 0 -69.5 -0.5t-62.5 -0.5l8 26l58 31q2 22 2 176z" />
    <glyph glyph-name="afii10069" unicode="&#x434;" horiz-adv-x="541" 
d="M204 422l97 39l5 -5q0 -21 8 -48l28 -74l51 -128l64 -160l64 -7q-29 -159 -39 -191l-30 -16q-4 20 -15 80l-16 88h-308l-52 -155l-30 -12q-1 21 -4.5 66.5t-5.5 81t-3 59.5l49 6q98 232 140 342q3 7 1 17zM230 45h1q68 0 92 7q-14 37 -94 271h-3l-51 -146t-43 -125
q24 -7 98 -7z" />
    <glyph glyph-name="afii10070" unicode="&#x435;" horiz-adv-x="475" 
d="M331 226h-169q-1 -5 -1 -13q-1 -74 40 -120t105 -46q16 0 28 4q60 47 95 64l6 -16q-4 -22 -29 -51t-42 -40q-57 -21 -105 -21q-102 0 -164 61.5t-62 167.5q0 102 67 171t160 69q80 0 132.5 -48t52.5 -132q0 -26 -10 -32q-32 -18 -104 -18zM162 269h157q5 17 5 32
q0 51 -18.5 83t-51.5 32q-42 0 -67 -49t-25 -98z" />
    <glyph glyph-name="afii10072" unicode="&#x436;" horiz-adv-x="753" 
d="M320 248v140l-52 30l6 26q17 0 51 -0.5t50 -0.5q18 0 56 0.5t57 0.5l-8 -26l-46 -30v-140q54 6 73 33q43 54 77 110l4 53q7 0 27 -0.5t32 -0.5q16 0 46 0.5t44 0.5l-10 -28l-81 -37q-70 -75 -107 -121v-3q45 -17 64 -43l65 -101t76 -114l-9 -10q-61 0 -97.5 11.5
t-62.5 47.5q-16 22 -85 134q-13 22 -24.5 28.5t-31.5 5.5q0 -67 2 -159l59 -29l-9 -27q-20 0 -57.5 0.5t-55.5 0.5q-20 0 -58 -0.5t-56 -0.5l8 27l50 29q3 60 3 159q-21 1 -33.5 -5.5t-25.5 -26.5q-70 -110 -88 -135q-26 -37 -60.5 -48.5t-93.5 -11.5l-8 10q20 28 72 108.5
t71 106.5q22 28 59 45v3q-48 58 -105 119l-91 37l9 28q13 0 39.5 -0.5t39.5 -0.5q12 0 32.5 0.5t27.5 0.5l4 -53q29 -47 78 -110q21 -27 73 -33z" />
    <glyph glyph-name="afii10073" unicode="&#x437;" horiz-adv-x="448" 
d="M102 300l-16 -9q-30 45 -45 96q91 69 191 69q74 0 116.5 -31t42.5 -80q0 -44 -37 -68q-27 -18 -74 -31v-6q37 -5 71 -18q64 -24 64 -87q0 -68 -64.5 -108t-157.5 -40q-52 0 -100 18.5t-66 38.5q23 63 48 100l18 7q17 -37 32 -110q25 -10 51 -9q50 1 79 27t29 71
q0 79 -98 79q-27 0 -61 -4l-4 15l36 41q30 -3 42 -3q28 0 48.5 19.5t20.5 51.5q0 37 -23 58t-62 21q-29 0 -49 -10q-14 -63 -32 -98z" />
    <glyph glyph-name="afii10074" unicode="&#x438;" horiz-adv-x="583" 
d="M90 234v151l-59 33l10 26q17 0 52 -1t53 -1t54 1t53 1l-7 -28l-43 -30v-111q0 -78 -7 -173h9l158 300l-2 40h74q20 0 59.5 1t58.5 1l-8 -26l-52 -31v-155q0 -134 4 -175l61 -31l-8 -27q-19 0 -59 1t-60 1q-19 0 -55 -1t-54 -1l8 27l46 29q4 104 4 139q0 50 6 156l-7 -1
l-157 -303l3 -45h-78q-20 0 -61.5 -1t-61.5 -1l8 27l54 29q4 41 4 179z" />
    </font>
</defs>
</svg>
