<?xml version="1.0" standalone="no"?>
<!DOCTYPE svg PUBLIC "-//W3C//DTD SVG 1.1//EN" "http://www.w3.org/Graphics/SVG/1.1/DTD/svg11.dtd" >
<svg>
<metadata>
Created by FontForge 20090622 at Wed Jul 15 09:37:20 2015
 By deploy user
Copyright &#194;&#169; 2000 Adobe Systems Incorporated. All Rights Reserved. Patent Des. pending.
</metadata>
<defs>
<font id="WarnockPro-Regular" horiz-adv-x="326" >
  <font-face 
    font-family="Warnock Pro"
    font-weight="400"
    font-stretch="normal"
    units-per-em="1000"
    panose-1="2 10 6 3 6 5 11 2 2 4"
    ascent="735"
    descent="-265"
    x-height="440"
    cap-height="659"
    bbox="-177 -533 1474 950"
    underline-thickness="50"
    underline-position="-75"
    unicode-range="U+0020-U+FB06"
  />
<missing-glyph horiz-adv-x="500" 
d="M0 0v700h500v-700h-500zM250 395l170 255h-340zM280 350l170 -255v510zM80 50h340l-170 255zM50 605v-510l170 255z" />
    <glyph glyph-name="T_h" unicode="Th" horiz-adv-x="1117" 
d="M297 334v281l-182 6q-34 -68 -58 -102l-16 -5q-6 73 -2 156l4 3q15 -1 69 -14h471q42 0 67 11l-1 23l84 17l6 -4q-3 -141 -3 -313l2 -1q77 60 140 60q71 0 110 -47t39 -105v-227q0 -13 4 -18t16 -10l53 -26l-8 -22q-80 -2 -159 8q10 84 10 257q0 132 -109 132
q-53 0 -98 -37q0 -289 3 -307l72 -29l-8 -22q-19 0 -55 1t-55 1q-17 0 -52 -1t-53 -1l7 22l54 29q3 24 3 233q0 199 -2 323q-37 16 -68 15l-196 -6v-249q0 -113 1 -183.5t2.5 -96.5t1.5 -32l104 -31l-8 -24q-20 0 -68.5 1t-75.5 1t-77 -1t-72 -1l8 24l92 31q3 50 3 280z" />
    <glyph glyph-name="T_h.caron" unicode="&#x164;h" horiz-adv-x="1117" 
d="M297 334v281l-182 6q-34 -68 -58 -102l-16 -5q-6 73 -2 156l4 3q15 -1 69 -14h471q42 0 67 11l-1 23l84 17l6 -4q-3 -141 -3 -313l2 -1q77 60 140 60q71 0 110 -47t39 -105v-227q0 -13 4 -18t16 -10l53 -26l-8 -22q-80 -2 -159 8q10 84 10 257q0 132 -109 132
q-53 0 -98 -37q0 -289 3 -307l72 -29l-8 -22q-19 0 -55 1t-55 1q-17 0 -52 -1t-53 -1l7 22l54 29q3 24 3 233q0 199 -2 323q-37 16 -68 15l-196 -6v-249q0 -113 1 -183.5t2.5 -96.5t1.5 -32l104 -31l-8 -24q-20 0 -68.5 1t-75.5 1t-77 -1t-72 -1l8 24l92 31q3 50 3 280z
M347 699h-20l-131 109l17 24q42 -19 124 -61q84 42 125 61l16 -24z" />
    <glyph glyph-name="T_h.commaaccent" unicode="&#x162;h" horiz-adv-x="1117" 
d="M297 334v281l-182 6q-34 -68 -58 -102l-16 -5q-6 73 -2 156l4 3q15 -1 69 -14h471q42 0 67 11l-1 23l84 17l6 -4q-3 -141 -3 -313l2 -1q77 60 140 60q71 0 110 -47t39 -105v-227q0 -13 4 -18t16 -10l53 -26l-8 -22q-80 -2 -159 8q10 84 10 257q0 132 -109 132
q-53 0 -98 -37q0 -289 3 -307l72 -29l-8 -22q-19 0 -55 1t-55 1q-17 0 -52 -1t-53 -1l7 22l54 29q3 24 3 233q0 199 -2 323q-37 16 -68 15l-196 -6v-249q0 -113 1 -183.5t2.5 -96.5t1.5 -32l104 -31l-8 -24q-20 0 -68.5 1t-75.5 1t-77 -1t-72 -1l8 24l92 31q3 50 3 280z
M299 -213l-17 22q43 36 43 67q0 19 -13 31l-24 15v16l55 30h11q14 -6 24 -23t11 -41q0 -33 -24 -66t-66 -51z" />
    <glyph glyph-name="f_f_j" unicode="ffj" horiz-adv-x="821" 
d="M378 395h-195q-3 -63 -3 -136q0 -183 2 -207l75 -30l-7 -23q-20 0 -58 0.5t-58 0.5q-17 0 -53 -0.5t-56 -0.5l8 23l60 28q3 39 3 202v142l-69 13l14 32h55q0 111 79 186q31 29 74.5 46.5t83.5 17.5q81 0 124 -46q72 67 159 67q76 0 111 -35q-11 -49 -34 -88l-17 -7
q-21 38 -39 88q-13 5 -31 5q-65 0 -98.5 -48t-40.5 -123q-2 -40 -2 -63h195q32 10 84 12v-363q0 -99 -38 -170q-54 -104 -134 -161l-29 16l-1 7q73 53 95.5 127t22.5 182q0 211 -1 316l-194 -10q-3 -66 -3 -136q0 -187 3 -210l78 -27l-7 -23q-19 0 -58 0.5t-58 0.5
q-17 0 -52.5 -0.5t-53.5 -0.5l7 23l54 24q3 48 3 206v143zM184 439h194q0 88 41 154q-40 57 -111 57q-61 0 -90.5 -50.5t-32.5 -126.5q-1 -12 -1 -34z" />
    <glyph glyph-name="f_j" unicode="fj" horiz-adv-x="539" 
d="M45 439h53q0 135 86 211q71 60 154 60q70 0 108 -33q-15 -57 -36 -90l-16 -6q-15 24 -39 86q-9 6 -33 6q-61 0 -95.5 -48t-39.5 -121q-3 -60 -3 -65h194q35 10 85 12v-363q0 -102 -37 -171q-32 -62 -64.5 -96.5t-72.5 -63.5l-27 14v8q50 37 77 90.5t34 102.5t7 118
q0 116 -2 314l-194 -10q-3 -69 -3 -133q0 -187 2 -209l85 -30l-8 -23q-23 0 -62.5 0.5t-58.5 0.5q-16 0 -54 -0.5t-61 -0.5l5 22l65 29q4 63 3 204v140l-66 14z" />
    <glyph glyph-name="ff" unicode="ff" horiz-adv-x="583" 
d="M378 395h-195q-3 -63 -3 -136q0 -178 2 -208l75 -29l-7 -23q-18 0 -56 0.5t-59 0.5q-17 0 -53 -0.5t-56 -0.5l5 23l62 29q4 56 4 201l-1 142l-68 14l12 31h57q0 117 83 191q67 59 153 59q76 0 118 -42q60 63 138 63q49 0 73 -24q-11 -45 -34 -87l-16 -7q-10 18 -35 79
q-4 1 -12 1q-42 0 -67 -41t-30 -114q-3 -36 -3 -78h139l-15 -32l-124 -12q-3 -63 -3 -136q0 -194 2 -207l93 -30l-7 -23q-20 0 -63 0.5t-66 0.5q-17 0 -51 -0.5t-51 -0.5l6 23l50 27q3 42 3 203v143zM184 439h194q0 90 35 155q-33 56 -102 56q-61 0 -92.5 -49.5
t-33.5 -127.5q-1 -11 -1 -34z" />
    <glyph glyph-name="fi" unicode="fi" horiz-adv-x="551" 
d="M41 439h55q0 135 87 211q69 60 156 60q69 0 106 -33q-13 -53 -36 -89l-16 -6q-21 37 -39 86q-8 5 -29 5q-65 0 -99.5 -47.5t-39.5 -121.5q-3 -60 -3 -65h190q31 9 89 11v-201q0 -137 2 -197l74 -31l-8 -22q-17 0 -50.5 0.5t-52.5 0.5q-15 0 -50.5 -0.5t-51.5 -0.5l7 22
l44 31q0 12 1 83t1 117v151l-195 -10q-3 -69 -3 -134q0 -184 2 -206l76 -30l-7 -24q-19 0 -56.5 0.5t-56.5 0.5q-16 0 -54 -0.5t-61 -0.5l6 22l64 28q3 39 3 202v143l-68 13z" />
    <glyph glyph-name="fl" unicode="fl" horiz-adv-x="552" 
d="M310 439l-17 -33l-111 -13q0 -1 -0.5 -48t-0.5 -86q0 -185 2 -207l75 -30l-6 -23q-20 0 -59 0.5t-58 0.5q-17 0 -52.5 -0.5t-54.5 -0.5l6 23l60 26q3 42 3 204v141l-69 12l16 34h53q0 66 17 115.5t60 91.5q62 64 151 64q41 0 73 -15q46 12 65 15v-308q0 -200 3 -353
l69 -27l-9 -23q-20 0 -55 0.5t-52 0.5q-20 0 -56 -0.5t-50 -0.5l6 23l58 28q2 60 2 334v250q-30 35 -81 35q-101 0 -112 -156q-2 -27 -2 -74h126z" />
    <glyph glyph-name="ffi" unicode="ffi" horiz-adv-x="831" 
d="M378 395h-195q-3 -63 -3 -136q0 -182 2 -206l75 -29l-7 -25q-20 0 -58 1t-58 1q-17 0 -53 -1t-56 -1l6 23l62 29q3 39 3 201v142l-70 13l13 32h57q0 111 79 186q67 64 162 64q77 0 119 -45q70 66 159 66q77 0 112 -35q-8 -41 -34 -88l-16 -6q-20 33 -39 85q-14 6 -35 6
q-64 0 -97 -47t-39 -121q-2 -44 -2 -65h195q30 9 84 11v-200q0 -148 2 -198l73 -30l-7 -23q-19 0 -54.5 1t-52.5 1t-50.5 -1t-49.5 -1l7 23l44 30q4 96 4 199v154l-195 -10q-3 -66 -3 -136q0 -190 3 -208l77 -27l-8 -25q-19 0 -57 1t-57 1q-17 0 -52.5 -1t-53.5 -1l7 25
l54 23q3 42 3 205v143zM184 439h194q0 90 41 154q-39 58 -109 58q-62 0 -92 -50.5t-33 -127.5q-1 -13 -1 -34z" />
    <glyph glyph-name="ffl" unicode="ffl" horiz-adv-x="831" 
d="M462 262v-1q0 -192 3 -210l75 -29l-7 -23q-19 0 -55.5 0.5t-53.5 0.5q-18 0 -55 -0.5t-56 -0.5l7 23l55 25q3 45 3 207v142h-195q-3 -63 -3 -135q0 -180 2 -208l70 -31l-7 -23q-19 0 -56 0.5t-55 0.5q-17 0 -53.5 -0.5t-55.5 -0.5l5 23l63 29q3 39 3 203v141l-73 14
l14 31h59q0 117 81 189q69 61 159 61q76 0 118 -44q60 63 150 65q44 0 74 -15q19 7 66 15v-308q0 -198 3 -354l69 -27l-8 -23q-18 0 -53 0.5t-52 0.5q-21 0 -57 -0.5t-53 -0.5l6 23l59 26q0 7 0.5 44t1 114t0.5 181v249q-30 36 -78 36q-104 0 -115 -168q-2 -36 -2 -64h129
l-18 -33l-112 -13q0 -1 -1 -47t-1 -85zM183 440h195q0 89 38 155q-36 56 -107 56q-59 0 -90.5 -48t-34.5 -124q-1 -15 -1 -39z" />
    <glyph glyph-name=".notdef" horiz-adv-x="500" 
d="M0 0v700h500v-700h-500zM250 395l170 255h-340zM280 350l170 -255v510zM80 50h340l-170 255zM50 605v-510l170 255z" />
    <glyph glyph-name=".null" horiz-adv-x="0" 
 />
    <glyph glyph-name="nonmarkingreturn" horiz-adv-x="333" 
 />
    <glyph glyph-name="space" unicode=" " horiz-adv-x="235" 
 />
    <glyph glyph-name="exclam" unicode="!" horiz-adv-x="232" 
d="M138 220l-31 -16q-23 286 -33 359l-19 48q49 30 116 38l9 -6q-4 -64 -42 -423zM121 117l8 3q11 -4 29.5 -25t26.5 -37l-2 -10q-6 -14 -25 -33.5t-32 -26.5l-9 -3q-32 19 -57 61l3 10q26 41 58 61z" />
    <glyph glyph-name="quotedbl" unicode="&#x22;" horiz-adv-x="332" 
d="M113 474l-32 -16q-18 162 -23 187l-18 29q43 21 87 32h13q-19 -186 -27 -232zM265 478l-32 -17q-3 23 -11 90t-12 97l-18 29q35 17 86 32h14q-17 -175 -27 -231z" />
    <glyph glyph-name="numbersign" unicode="#" horiz-adv-x="502" 
d="M324 406h-118l-37 -142h119zM92 470h89l43 169l44 5l-44 -174h118l43 169l44 5l-46 -174h93l-31 -65l-80 1l-36 -142h91l-29 -63l-78 1l-47 -187l-43 -6l48 193h-118l-47 -187l-44 -6l49 193l-104 -1l30 63h90l37 142h-103z" />
    <glyph glyph-name="dollar" unicode="$" horiz-adv-x="502" 
d="M229 633v86l35 9v-95q68 -3 107 -37q9 7 65 29l7 -5q-4 -62 -28 -141l-16 -9q-21 38 -37 91q-31 31 -98 34v-228q40 -13 59.5 -20t51 -23.5t47 -32.5t28 -43.5t12.5 -60.5q0 -47 -20 -82t-52.5 -54t-63 -28t-62.5 -12v-97l-35 -10v105q-50 2 -107.5 22t-92.5 48
q3 17 20 55.5t27 53.5l13 6q6 -16 29 -121q10 -7 42 -15t69 -9v237q-41 13 -68.5 25.5t-56 33.5t-43 51t-14.5 70q0 68 49 115.5t133 51.5zM229 378v217q-53 -6 -80.5 -35t-27.5 -71q0 -43 26.5 -67.5t81.5 -43.5zM264 276v-225q50 4 83 33.5t33 77.5q0 44 -28 68t-88 46z
" />
    <glyph glyph-name="percent" unicode="%" horiz-adv-x="698" 
d="M185 653h1q67 0 105 -51t38 -121q0 -81 -41.5 -130.5t-104.5 -49.5q-61 0 -102 45t-41 126q0 84 44.5 132.5t100.5 48.5zM186 621h-1q-39 0 -56.5 -44.5t-17.5 -101.5q0 -54 18.5 -98.5t57.5 -44.5q25 0 42 24.5t23 55.5t6 64q0 21 -2.5 42.5t-9.5 46.5t-22.5 40.5
t-37.5 15.5zM539 666l32 -27l-418 -679l-31 29zM515 340h1q66 0 104 -52t38 -121q0 -80 -41.5 -129.5t-104.5 -49.5q-61 0 -102 45t-41 126q0 84 44.5 132.5t101.5 48.5zM515 308h-1q-39 0 -56.5 -43.5t-17.5 -102.5q0 -32 6.5 -62.5t25 -55.5t45.5 -25q25 0 41.5 24.5
t22.5 55t6 64.5q0 21 -3 42.5t-9.5 46.5t-22 40.5t-37.5 15.5z" />
    <glyph glyph-name="ampersand" unicode="&#x26;" horiz-adv-x="737" 
d="M197 322h-2q-34 -29 -51 -56t-17 -65q0 -66 47 -109t112 -43q71 0 123 53v2q-43 37 -109.5 104t-102.5 114zM709 18l-7 -20q-30 -12 -76 -12q-45 0 -86.5 22t-102.5 71q-86 -93 -186 -93q-86 0 -149 51t-63 139q0 63 58 112q42 35 81 62q-53 71 -53 143q0 63 46 111.5
t113 48.5h1q65 0 103 -37t39 -92q0 -56 -57 -101q-16 -12 -97 -67q35 -43 97.5 -103t97.5 -87q33 45 60 101t33 85l-15 64l4 5q28 0 72.5 -12.5t62.5 -25.5l-2 -7l-62 -43q-71 -122 -125 -191q135 -104 213 -124zM250 383l3 -1q104 70 104 145q0 38 -21 64t-55 26h-1
q-37 0 -61 -30.5t-24 -72.5q0 -62 55 -131z" />
    <glyph glyph-name="quotesingle" unicode="'" horiz-adv-x="180" 
d="M113 475l-32 -17q-1 11 -9 83.5t-14 103.5l-18 29q43 21 87 32h13q-17 -175 -27 -231z" />
    <glyph glyph-name="parenleft" unicode="(" 
d="M70 272v1q0 131 50 253t152 198l19 -22q-60 -62 -102.5 -169.5t-42.5 -260.5q0 -151 42.5 -258t102.5 -172l-19 -22q-102 76 -152 198.5t-50 253.5z" />
    <glyph glyph-name="parenright" unicode=")" 
d="M256 273v-1q0 -130 -50 -252.5t-153 -199.5l-19 22q60 63 103 171t43 260t-43 259.5t-103 169.5l19 21q103 -76 153 -197.5t50 -252.5z" />
    <glyph glyph-name="asterisk" unicode="*" horiz-adv-x="366" 
d="M191 488l7 4l90 -41l21 -4q-2 -17 -21 -40t-35 -26l-8 21zM173 520l-12 -4l-88 38l-23 4q2 17 20.5 41.5t32.5 26.5l9 -20zM164 503l-3 -11l-82 -60l-14 -17q-11 6 -21.5 38t-4.5 46l19 -4zM197 503l2 12l81 61l15 16q13 -11 23 -42t6 -44l-22 5zM193 526l-10 -2l-11 106
l-5 20q12 5 46.5 -0.5t38.5 -13.5l-13 -16zM173 479l8 5l13 -105l7 -25q-13 -4 -46 2.5t-43 17.5l16 17z" />
    <glyph glyph-name="plus" unicode="+" horiz-adv-x="590" 
d="M325 -3l-60 -12v225h-200l12 51h188v192l60 12v-204h199l-12 -51h-187v-213z" />
    <glyph glyph-name="comma" unicode="," horiz-adv-x="228" 
d="M50 -124l-20 25q68 61 68 123q0 21 -10 36l-41 22v15l78 47h15q11 -4 23 -27t13 -58q1 -51 -32 -98.5t-94 -84.5z" />
    <glyph glyph-name="hyphen" unicode="-" horiz-adv-x="367" 
d="M282 212l-238 -27l33 72l51 -1l195 11l1 -6z" />
    <glyph glyph-name="period" unicode="." horiz-adv-x="228" 
d="M113 119l6 3q12 -5 31.5 -26t27.5 -38l-3 -9q-7 -15 -26.5 -35.5t-32.5 -26.5l-8 -3q-15 9 -32 27.5t-26 34.5l3 10q28 44 60 63z" />
    <glyph glyph-name="slash" unicode="/" horiz-adv-x="365" 
d="M100 -56h-52l225 733h52z" />
    <glyph glyph-name="zero" unicode="0" horiz-adv-x="502" 
d="M255 653h1q97 0 157.5 -86.5t60.5 -241.5q0 -91 -20 -159.5t-53 -106t-71 -55t-80 -17.5q-41 0 -78 17t-70 53t-53 102.5t-20 154.5q0 84 20.5 151.5t54 107t72.5 60t79 20.5zM251 618h-1q-44 0 -74 -47.5t-42 -112.5t-12 -140q0 -71 13.5 -136.5t45 -112.5t74.5 -47
q62 0 94 83.5t32 213.5q0 50 -6.5 99t-21 95.5t-41 75.5t-61.5 29z" />
    <glyph glyph-name="one" unicode="1" horiz-adv-x="502" 
d="M217 566h-131l10 22q5 2 36 12l77.5 25.5t79.5 27.5h10q0 -47 3 -321t3 -280l127 -30l-8 -23q-28 0 -84 0.5t-84 0.5q-30 0 -88 -0.5t-86 -0.5l8 23l118 30q9 162 9 514z" />
    <glyph glyph-name="two" unicode="2" horiz-adv-x="502" 
d="M33 13l38 45q13 8 19 15q108 98 180 198q66 92 66 185q0 65 -35 106.5t-97 41.5q-37 0 -77 -19q-4 -23 -15 -70t-17 -59l-15 -10q-8 12 -23 46.5t-22 58.5q40 42 96.5 72t114.5 30q33 0 64 -10t59 -30.5t45 -58t18 -86.5q1 -64 -30 -118t-94 -119q-72 -73 -170 -161v-2
q76 0 251 7q56 69 58 71l24 -1q-4 -26 -19 -80t-24 -70q-8 0 -87.5 2.5t-133.5 2.5h-174v13z" />
    <glyph glyph-name="three" unicode="3" horiz-adv-x="502" 
d="M87 153l14 7q13 -32 31 -123q25 -10 63 -10q72 0 118 42.5t46 112.5q0 60 -33 95.5t-95 43.5q-74 -16 -99 -18l-5 8q3 10 17 28.5t24 24.5q28 0 64 -4q101 33 101 130q0 54 -32.5 87.5t-88.5 33.5q-41 0 -74 -20q-11 -77 -26 -111l-15 -8q-23 33 -46 97q99 86 197 86
q91 0 134 -45.5t43 -102.5q0 -62 -39 -98t-105 -59v-4q91 -9 134.5 -51.5t44.5 -108.5q0 -62 -38 -108.5t-92.5 -68t-114.5 -21.5q-59 0 -106 17.5t-70 37.5q22 72 48 110z" />
    <glyph glyph-name="four" unicode="4" horiz-adv-x="502" 
d="M368 193l2 -142l93 -29l-8 -23q-23 0 -66 0.5t-66 0.5q-25 0 -75 -0.5t-74 -0.5l9 23l95 29q0 13 2 58.5t2 80.5l-254 -3l-18 32q37 70 142.5 228.5t124.5 178.5q38 20 90 27l2 -423h57q31 44 54 65l12 -2q0 -15 -9.5 -77.5t-13.5 -75.5l-13 -6q-14 18 -31 60zM282 231
l8 352l-4 1l-46.5 -74l-42 -66.5l-31 -49.5t-32.5 -54l-26 -46.5l-32 -58.5q70 -4 206 -4z" />
    <glyph glyph-name="five" unicode="5" horiz-adv-x="502" 
d="M81 294l-15 11q13 77 31 201l20 138q57 -3 230 -3q31 0 94 21l9 -19q-25 -33 -73 -64q-14 -10 -39 -11q-56 -3 -186 -3l-18 -99.5l-21 -119.5l2 -1q76 39 145 39q55 0 95.5 -17t61 -44.5t29.5 -56t9 -57.5q0 -57 -24 -101.5t-62.5 -69.5t-80.5 -38t-83 -13q-48 0 -93 15
t-67 32q25 82 46 115l15 7q7 -17 19.5 -62t15.5 -63q18 -6 45 -6q72 0 121.5 47.5t49.5 123.5q0 58 -32.5 99.5t-107.5 41.5q-67 0 -136 -43z" />
    <glyph glyph-name="six" unicode="6" horiz-adv-x="502" 
d="M426 662l13 -29q-126 -19 -211.5 -100.5t-95.5 -206.5l2 -1q96 72 162 72t121 -49.5t55 -143.5q0 -101 -64.5 -159t-149.5 -58q-106 0 -165.5 74.5t-59.5 196.5q0 160 103 271q54 59 133.5 94t156.5 39zM257 341h-1q-58 0 -111 -49q-15 -15 -15 -56q0 -85 35 -150t99 -65
q58 0 87 50t29 114q0 74 -35.5 115t-87.5 41z" />
    <glyph glyph-name="seven" unicode="7" horiz-adv-x="502" 
d="M118 -12l-8 11q16 52 137 260q105 184 157 308q-33 2 -144 2q-93 0 -157 -2q-21 -51 -41 -82l-18 -7q-3 13 -5 81t-1 84l3 3q40 -5 61 -5h190q128 0 173 1l-3 -26q-8 -47 -127 -285.5t-127 -271.5l-6 -59z" />
    <glyph glyph-name="eight" unicode="8" horiz-adv-x="502" 
d="M258 653h1q82 0 129.5 -46t47.5 -110q0 -27 -9.5 -50t-31.5 -44t-34 -30.5t-41 -29.5v-2q46 -26 74 -48q65 -51 65 -127q0 -68 -56 -123.5t-158 -55.5q-91 0 -146.5 49t-55.5 114q0 50 28.5 84.5t104.5 83.5l-1 3q-30 18 -50 36q-56 49 -56 121q0 79 57.5 127t131.5 48z
M252 619h-1q-42 0 -73.5 -30t-31.5 -85q0 -50 42 -88q27 -22 99 -58q74 57 73 134q-1 54 -30.5 90.5t-77.5 36.5zM258 21h1q48 0 81.5 31.5t33.5 85.5q0 52 -40 88q-35 34 -126 77q-81 -57 -81 -139q0 -65 38.5 -104t92.5 -39z" />
    <glyph glyph-name="nine" unicode="9" horiz-adv-x="502" 
d="M84 -18l-15 29q22 5 43 11.5t66 29t79 51t66 81t42 117.5l-2 1q-74 -54 -142 -54q-74 0 -129 52t-55 140q0 95 65.5 154t148.5 59q59 0 103 -25.5t67 -67t34 -84.5t11 -88q0 -91 -33 -166t-87.5 -124.5t-121.5 -79t-140 -36.5zM246 619h-1q-59 0 -89 -48.5t-29 -113.5
q1 -72 41 -113.5t97 -41.5q47 0 81 25q17 11 20 28q4 28 4 52q0 93 -33 152.5t-91 59.5z" />
    <glyph glyph-name="colon" unicode=":" horiz-adv-x="227" 
d="M113 119l6 3q12 -5 31.5 -26t27.5 -38l-3 -9q-7 -15 -26.5 -35.5t-32.5 -26.5l-8 -3q-15 9 -32 27.5t-26 34.5l3 10q28 44 60 63zM113 428l6 3q12 -4 31.5 -25t27.5 -38l-3 -10q-6 -15 -25.5 -35t-33.5 -28l-8 -2q-15 9 -32 28t-26 35l3 9q26 43 60 63z" />
    <glyph glyph-name="semicolon" unicode=";" horiz-adv-x="227" 
d="M112 428l8 2q11 -5 30 -25.5t28 -37.5l-3 -10q-6 -15 -25.5 -35t-32.5 -28l-9 -2q-15 9 -32 28t-26 35l3 9q25 41 59 64zM48 -124l-19 25q68 61 68 123q0 21 -10 36l-41 22v15l78 47h14q12 -5 24 -27.5t13 -57.5q1 -51 -32 -99t-95 -84z" />
    <glyph glyph-name="less" unicode="&#x3c;" horiz-adv-x="547" 
d="M66 191l12 61l403 208l-9 -62l-350 -178v-2l359 -181l-9 -57z" />
    <glyph glyph-name="equal" unicode="=" horiz-adv-x="590" 
d="M522 173l-13 -51h-440l13 51h440zM522 351l-13 -51h-440l13 51h440z" />
    <glyph glyph-name="greater" unicode="&#x3e;" horiz-adv-x="547" 
d="M481 252l-12 -60l-402 -210l9 61l345 179v3l-354 178l9 57z" />
    <glyph glyph-name="question" unicode="?" horiz-adv-x="391" 
d="M200 650h2q62 0 108 -37t46 -109q0 -37 -18.5 -65.5t-55.5 -61.5q-86 -75 -85 -110q0 -24 16 -50l-23 -13q-22 8 -45.5 38.5t-24.5 64.5q21 49 88 110q38 35 52 58t14 47q0 32 -24.5 60t-70.5 28q-28 0 -48 -11q-9 -58 -29 -102l-14 -8q-27 41 -44 98q30 26 74.5 44.5
t81.5 18.5zM183 117l9 3q11 -5 30 -25.5t26 -36.5l-2 -10q-6 -14 -25.5 -33.5t-32.5 -26.5l-9 -3q-34 20 -56 61l2 10q32 46 58 61z" />
    <glyph glyph-name="at" unicode="@" horiz-adv-x="816" 
d="M481 363h-1q-41 0 -82 -38q-40 -37 -69.5 -100t-29.5 -113q0 -38 21 -38q25 0 71.5 40t86.5 105q27 39 52 125q-18 19 -49 19zM616 409l6 -5l-27 -51q-33 -114 -66 -279q-3 -11 5 -11q78 0 132 60.5t54 158.5q0 112 -74 182t-193 70q-82 0 -148 -30.5t-105.5 -81
t-60.5 -112t-21 -127.5q0 -148 88 -230t217 -82q170 0 295 122l18 -25q-137 -148 -336 -148q-158 0 -256 99.5t-98 259.5q0 165 115 279t295 114q137 0 227 -80t90 -215q0 -110 -82.5 -184t-203.5 -71q-23 0 -37 6q5 21 21.5 80t19.5 72h-4q-46 -69 -102.5 -113t-100.5 -44
q-28 0 -44.5 23.5t-16.5 62.5q0 61 35 131.5t99 115.5q61 45 119 45q40 0 64 -26l6 20z" />
    <glyph glyph-name="A" unicode="A" horiz-adv-x="710" 
d="M297 633l75 49l6 -5q-1 -24 14 -69q28 -83 209 -530q14 -19 32.5 -29.5t68.5 -26.5l-7 -23q-18 0 -58 0.5t-60 0.5q-17 0 -52 -0.5t-54 -0.5l6 21l37 29q-8 28 -75 193q-94 -7 -223 -5q-51 -130 -68 -181l88 -34l-6 -23q-17 0 -58 0.5t-60 0.5q-18 0 -52 -0.5t-51 -0.5
l6 24l70 33q25 51 94 213t125 306q7 18 3 31zM331 539h-2l-50.5 -133t-43.5 -118q12 0 89.5 -2t100.5 -2z" />
    <glyph glyph-name="B" unicode="B" horiz-adv-x="603" 
d="M39 629l8 23q150 13 229 13q246 0 246 -151q0 -67 -49 -105t-116 -49v-7q208 -21 208 -161q0 -195 -334 -195q-97 0 -193 3l7 24l72 29q6 45 6 234v322zM212 627v-260q98 2 156 32.5t58 107.5q0 67 -53 97q-43 23 -131 23h-30zM461 192v1q0 24 -5 43t-21 38t-42.5 31.5
t-72.5 20t-108 6.5v-28q0 -232 3 -270q92 1 139.5 15t72.5 42q34 38 34 101z" />
    <glyph glyph-name="C" unicode="C" horiz-adv-x="687" 
d="M421 677h2q97 0 156 -38q29 18 76 29l6 -4q-3 -30 -17.5 -88t-22.5 -73l-18 -10q-19 38 -34 111q-17 12 -53 21t-73 9q-138 0 -218 -85.5t-80 -219.5q0 -131 83.5 -216t225.5 -85q42 0 66 8q84 88 117 113l23 -5q-6 -23 -32 -73t-36 -58q-28 -13 -80 -22.5t-93 -9.5
q-72 0 -138 20.5t-120 61t-86 108t-32 153.5q0 85 35 154.5t91 111.5t121 64.5t131 22.5z" />
    <glyph glyph-name="D" unicode="D" horiz-adv-x="735" 
d="M36 630l7 22q143 13 231 13q196 0 306.5 -80t110.5 -241q0 -56 -14.5 -104.5t-36.5 -80.5t-52.5 -58.5t-57 -41t-56.5 -25.5q-97 -37 -270 -37q-48 0 -174 3l8 24l79 26q6 19 6 293v269zM212 627v-284q0 -297 4 -309q192 0 278 77q94 82 94 229q0 140 -92 216
q-88 73 -284 71z" />
    <glyph glyph-name="E" unicode="E" horiz-adv-x="565" 
d="M36 637l7 23q21 0 62 -0.5t61 -0.5h248q8 2 39 6.5t44 4.5l3 -3q-3 -44 -26 -145l-16 -9q-18 39 -43 108l-203 -8v-250q130 0 254 12l4 -9q-4 -8 -28 -33t-32 -25q-6 0 -94 5.5t-104 5.5q0 -189 4 -272l212 -8q1 2 37 52t50 66l20 1q-2 -24 -14.5 -80t-20.5 -81
q-65 3 -181 3h-158q-23 0 -69.5 -0.5t-67.5 -0.5l8 24l85 29q6 24 6 291v266z" />
    <glyph glyph-name="F" unicode="F" horiz-adv-x="531" 
d="M40 638l9 22q18 0 55.5 -0.5t56.5 -0.5h253q66 12 81 12l3 -3q-1 -15 -9.5 -71.5t-13.5 -77.5l-18 -10q-22 51 -42 112l-203 -8v-266q159 0 260 13l4 -10q-3 -8 -27 -33t-30 -25q-11 0 -101 5.5t-106 5.5q0 -194 4 -248l111 -32l-8 -24q-18 0 -68.5 0.5t-81.5 0.5
q-20 0 -62.5 -0.5t-64.5 -0.5l6 23l71 33q4 19 4 287v267z" />
    <glyph glyph-name="G" unicode="G" horiz-adv-x="743" 
d="M368 289l45 30q138 10 274 8q-9 -84 -29.5 -204.5t-29.5 -138.5h-7q-41 8 -50 34q-82 -37 -163 -37q-162 0 -263.5 94t-101.5 251q0 149 109 250t276 101q96 0 161 -43q36 25 77 38l7 -5q-2 -27 -18 -91t-24 -81l-19 -9q-16 37 -33 113q-55 33 -137 33q-131 0 -214 -83
t-83 -220q0 -128 79.5 -213t220.5 -85q70 0 122 20q2 45 16 220l-211 6z" />
    <glyph glyph-name="H" unicode="H" horiz-adv-x="771" 
d="M43 635l9 24q18 0 57 -0.5t58 -0.5q21 0 52 0.5t43 0.5l-7 -24l-43 -31v-227h348v226l-49 35l8 21q15 0 43 -0.5t43 -0.5q25 0 69.5 0.5t62.5 0.5l-8 -25l-80 -30v-263q0 -264 7 -285l92 -32l-9 -25q-19 0 -64.5 0.5t-69.5 0.5q-18 0 -49 -0.5t-44 -0.5l7 25l40 31
q1 33 1 279q-35 -6 -129 -6h-219q0 -243 1 -269l46 -37l-8 -23q-12 0 -40.5 0.5t-46.5 0.5q-22 0 -66.5 -0.5t-64.5 -0.5l9 24l75 30q6 150 6 294v259z" />
    <glyph glyph-name="I" unicode="I" horiz-adv-x="336" 
d="M44 636l7 23q19 0 58 -0.5t59 -0.5t62 0.5t62 0.5l-7 -24l-73 -29v-263q0 -247 5 -290l92 -30l-7 -24q-17 0 -61.5 0.5t-72.5 0.5q-26 0 -72.5 -0.5t-64.5 -0.5l7 24l79 30q6 24 6 290v264z" />
    <glyph glyph-name="J" unicode="J" horiz-adv-x="317" 
d="M30 635l9 24q21 0 61.5 -0.5t63.5 -0.5q20 0 61.5 0.5t61.5 0.5l-6 -25l-69 -30v-459q0 -63 -16 -106q-24 -73 -69 -129t-79 -78l-26 16v7q61 51 81.5 114t19.5 158q1 71 0 243q-2 200 -4 236z" />
    <glyph glyph-name="K" unicode="K" horiz-adv-x="676" 
d="M667 659l-13 -25l-51 -13t-55 -15q-15 -4 -33 -20q-59 -58 -193 -214v-2q89 -106 223 -251l59 -63.5l42 -44t20 -21.5l-12 -5q-66 3 -107 24t-82 63q-108 108 -227 252v8l165.5 191.5t71.5 93.5q-4 24 -2 44q47 2 78 1.5t69 -2t47 -1.5zM44 638l7 22q19 0 57 -0.5
t57 -0.5q21 0 63 0.5t64 0.5l-7 -23l-73 -31v-263q0 -247 5 -290l92 -30l-7 -24q-18 0 -64.5 0.5t-75.5 0.5q-25 0 -69.5 -0.5t-61.5 -0.5l6 24l80 30q6 25 6 290v264z" />
    <glyph glyph-name="L" unicode="L" horiz-adv-x="563" 
d="M40 635l8 24q16 0 55.5 -0.5t63.5 -0.5q23 0 64 0.5t60 0.5l-9 -24l-70 -30v-261q0 -264 4 -296l214 -13q66 100 93 131l19 1q-3 -33 -14.5 -91.5t-19.5 -79.5q-9 0 -49 1t-116 2t-174 1q-25 0 -71.5 -0.5t-68.5 -0.5l7 23l83 30q4 26 4 291v262z" />
    <glyph glyph-name="M" unicode="M" horiz-adv-x="933" 
d="M61 633l10 25l162 1q2 -22 12 -46q8 -19 36 -76l82 -168.5l106 -219.5h2l229 470q3 7 3 40l185 -1l-8 -25l-85 -29q2 -92 11.5 -311t12.5 -240l91 -30l-5 -24q-18 0 -63 0.5t-67 0.5q-21 0 -61.5 -0.5t-59.5 -0.5l8 24l62 30q-2 66 -4.5 253t-3.5 255h-3l-259 -570
l-19 -2l-242 547h-2q-24 -285 -30 -480l90 -34l-6 -23q-18 0 -57.5 0.5t-61.5 0.5q-17 0 -52 -0.5t-51 -0.5l5 23l71 33q22 124 60 526q-7 21 -21 28t-77 24z" />
    <glyph glyph-name="N" unicode="N" horiz-adv-x="766" 
d="M269 23l-7 -24q-19 0 -58 0.5t-61 0.5q-18 0 -57.5 -0.5t-57.5 -0.5l6 24l82 36q13 179 18 500l-15 22t-14 16t-10.5 10.5t-13.5 8.5t-13.5 5.5t-19.5 6l-23 7.5l9 24l137 5q9 -20 38 -57q156 -196 407 -479h3q0 20 -3 229.5t-3 243.5l-85 35l10 23q19 0 52.5 -0.5
t48.5 -0.5q19 0 60.5 0.5t61.5 0.5l-6 -26l-85 -32q-11 -476 -11 -515q0 -62 -5 -102l-11 -5q-60 43 -173 174.5l-297 360.5h-2q-2 -388 7 -455z" />
    <glyph glyph-name="O" unicode="O" horiz-adv-x="785" 
d="M390 677h1q49 0 97.5 -12.5t94 -40t80.5 -66t56.5 -95t22.5 -122.5q1 -90 -29.5 -161.5t-82 -113.5t-112 -63.5t-124.5 -21.5t-125 21t-112.5 61.5t-82.5 107.5t-31 151q0 85 32.5 155t84 112t111.5 65t119 23zM386 640h-1q-110 0 -173.5 -85t-63.5 -217
q0 -129 71.5 -225t185.5 -96q61 0 107.5 27t73 73t39 99t12.5 113q0 128 -71.5 219.5t-179.5 91.5z" />
    <glyph glyph-name="P" unicode="P" horiz-adv-x="568" 
d="M42 627l8 23q139 15 209 15q123 0 189 -42q82 -50 82 -154q0 -56 -22.5 -98.5t-57.5 -64.5t-70 -32.5t-68 -10.5q-26 0 -40 5l-10 25q84 7 126.5 52t42.5 119q0 170 -219 163v-271q0 -105 1.5 -175.5t3 -97.5t1.5 -28l110 -32l-9 -24q-25 0 -77 0.5t-78 0.5
q-20 0 -60.5 -0.5t-60.5 -0.5l6 23l70 32q4 20 4 299v254z" />
    <glyph glyph-name="Q" unicode="Q" horiz-adv-x="785" 
d="M390 677h1q60 0 119.5 -20t112 -59.5t85.5 -106.5t34 -152q1 -65 -16 -120t-43 -91.5t-61 -65t-66.5 -44t-63.5 -24.5v-2q98 -56 297 -161l-11 -16q-101 -7 -219 49q-31 15 -187 104q-9 5 -57 20q-57 17 -103.5 43.5t-85.5 66.5t-61 97.5t-22 127.5q0 84 31.5 153.5
t82.5 112t111.5 65.5t121.5 23zM386 640h-1q-110 0 -174 -88t-64 -219q0 -124 71.5 -218t192.5 -104q77 7 129.5 56.5t74.5 116.5t22 147q0 127 -70.5 218t-180.5 91z" />
    <glyph glyph-name="R" unicode="R" horiz-adv-x="620" 
d="M39 620l9 25q92 20 235 20q245 0 245 -168q0 -124 -157 -176v-2q44 -74 153 -218l43 -56l28 -35t14 -18l-7 -8q-96 6 -161 79q-80 91 -178 246l3 6q80 21 123 59t43 108q0 36 -12 63t-31.5 42.5t-48.5 25t-59 12t-68 1.5v-307q0 -231 2 -264l98 -32l-7 -24q-24 0 -71 0.5
t-71 0.5q-22 0 -65 -0.5t-64 -0.5l7 24l75 31q7 133 7 264v290z" />
    <glyph glyph-name="S" unicode="S" horiz-adv-x="512" 
d="M263 677h1q62 0 105 -32q20 16 67 32l9 -5q-14 -100 -36 -152l-15 -8q-11 22 -35 98q-33 25 -88 25q-57 0 -91 -33.5t-34 -81.5q0 -63 58 -98q18 -11 42 -23.5l56 -29l52 -27.5q68 -36 93 -75.5t25 -87.5q0 -56 -24 -97t-62 -61.5t-75 -30t-73 -9.5q-56 0 -114 21.5
t-82 45.5q4 19 21 66t24 59l16 7q5 -13 31 -140q36 -19 98 -18q68 1 108.5 35t40.5 95q0 64 -72 106q-11 6 -66.5 34.5t-83.5 46.5q-95 58 -95 156q0 72 54 127t145 55z" />
    <glyph glyph-name="T" unicode="T" horiz-adv-x="670" 
d="M125 659h428q43 10 82 14l2 -4q-4 -60 -29 -159l-16 -8q-30 82 -41 121l-175 -8v-248q0 -139 6 -313l117 -31l-9 -24q-26 0 -78.5 0.5t-78.5 0.5q-27 0 -80.5 -0.5t-81.5 -0.5l7 24l106 31q3 51 3 280v281l-164 8q-48 -96 -61 -116l-16 -5q-2 28 -2 86t2 81l3 4
q26 -3 76 -14z" />
    <glyph glyph-name="U" unicode="U" horiz-adv-x="735" 
d="M26 635l8 24q20 0 60 -1t59 -1t56.5 1t52.5 1l-6 -24l-54 -31q-1 -124 -1 -384q0 -64 29 -107q54 -75 164 -75q104 0 158 70q33 45 36 128q3 121 -1 368l-73 31l7 24q17 0 49 -1t47 -1q20 0 60 1t57 1l-6 -24l-81 -31q-3 -24 -12 -356q-2 -97 -41 -156
q-70 -109 -222 -109q-165 0 -230 112q-29 47 -31 143q-1 79 -0.5 146t0 130t-1.5 91z" />
    <glyph glyph-name="V" unicode="V" horiz-adv-x="694" 
d="M223 659l-7 -25l-30 -28q26 -72 193 -490h2q138 368 177 489l-37 30l9 24q9 0 32.5 -0.5t36.5 -0.5q18 0 51.5 0.5t49.5 0.5l-6 -24q-59 -23 -81 -45q-42 -82 -223 -547q-18 -33 -43 -62h-12q-82 223 -238 603q-14 19 -31.5 28.5t-59.5 23.5l10 23q13 0 49 -0.5t59 -0.5
q17 0 50.5 0.5t48.5 0.5z" />
    <glyph glyph-name="W" unicode="W" horiz-adv-x="1020" 
d="M9 635l10 24q15 0 51.5 -1t57.5 -1q32 0 90 2l-6 -24l-29 -24q15 -41 205 -505h3q38 75 113 240q-52 127 -110 251q-23 23 -78 38l9 24q14 0 49.5 -1t52.5 -1q21 0 55 2l1 -4l5 -46q14 -43 70 -169h2q60 131 74 169l2 46l2 4q28 -2 45 -2q18 0 50 1t46 1l-7 -24
q-66 -21 -92 -47q-53 -93 -102 -195l122 -282h1q101 264 180 496l-33 28l9 24q36 -2 59 -2q20 0 57 1t53 1l-6 -24q-59 -18 -86 -43q-22 -39 -221 -548q-14 -31 -44 -63h-8q-8 17 -28.5 65l-51.5 122l-55 128h-2l-124 -256q-20 -35 -46 -59h-7l-118 283.5t-140 330.5
q-23 23 -80 40z" />
    <glyph glyph-name="X" unicode="X" horiz-adv-x="697" 
d="M42 636l11 23q21 0 65 -0.5t66 -0.5q18 0 48 0.5t43 0.5l-6 -25l-26 -27q44 -80 119 -201h2q65 102 119 199l-30 31l10 23q10 0 33.5 -0.5t33.5 -0.5q20 0 59 0.5t58 0.5l-7 -25q-70 -17 -109 -51q-65 -88 -148 -213q150 -254 171 -287q14 -23 39 -31l91 -30l-9 -23
q-25 0 -73.5 1t-72.5 1q-17 0 -50 -1t-50 -1l6 24l31 26q-25 49 -137 239h-2l-45.5 -73l-54 -87.5t-39.5 -69.5l46 -35l-7 -24q-12 0 -42.5 1t-46.5 1q-19 0 -57.5 -1t-58.5 -1l7 24l66 24q22 8 43 33q57 72 170 246q-118 204 -150 254q-15 26 -40 33z" />
    <glyph glyph-name="Y" unicode="Y" horiz-adv-x="631" 
d="M6 636l10 23q20 0 59 -0.5t58 -0.5q58 0 84 1l-6 -25l-23 -21q10 -21 153 -276h3l142 271l-35 26l9 25q20 -1 62 -1q20 0 56 0.5t55 0.5l-9 -25l-46 -17q-33 -9 -51 -36q-75 -114 -157 -267q-9 -18 -9 -37q0 -202 3 -223l118 -31l-8 -24q-21 0 -73.5 1t-84.5 1
q-31 0 -84 -1t-74 -1l7 22l101 33q7 63 7 213q0 18 -10 37l-167 287q-27 29 -90 45z" />
    <glyph glyph-name="Z" unicode="Z" horiz-adv-x="635" 
d="M599 659l1 -11l-422 -602v-3q328 -4 332 -4l28.5 42l38 55.5t27.5 37.5l15 2q-2 -26 -12.5 -92.5t-16.5 -87.5q-7 0 -88.5 1t-209 2t-245.5 1l-6 9l434 605l-5 2q-41 0 -152 3t-157 3q-6 -11 -26 -57t-27 -61l-19 -8q-5 42 -9 169l4 4q23 -3 47 -6.5t28 -3.5h440z" />
    <glyph glyph-name="bracketleft" unicode="[" 
d="M175 659v-776l114 -25l-8 -27h-167v881h175l-8 -28z" />
    <glyph glyph-name="backslash" unicode="\" horiz-adv-x="345" 
d="M304 -56h-52l-213 733h52z" />
    <glyph glyph-name="bracketright" unicode="]" 
d="M151 -117v776l-116 25l10 28h166v-881h-176l9 27z" />
    <glyph glyph-name="asciicircum" unicode="^" horiz-adv-x="519" 
d="M454 293l-56 -8l-139 307h-2l-134 -299l-58 -9l164 355l58 9z" />
    <glyph glyph-name="underscore" unicode="_" horiz-adv-x="483" 
d="M483 -99v-48h-483v48h483z" />
    <glyph glyph-name="grave" unicode="`" horiz-adv-x="386" 
d="M242 515l-23 -22l-146 152v15q37 18 83 15z" />
    <glyph glyph-name="a" unicode="a" horiz-adv-x="455" 
d="M285 257v22q-1 72 -27 98.5t-72 26.5q-30 0 -61 -18q-5 -68 -12 -101l-11 -5q-9 5 -32.5 36t-30.5 50q15 14 52.5 35.5t68.5 33.5q45 17 70 17q70 0 103.5 -47.5t33.5 -105.5q0 -34 -1 -111.5t-1 -111.5q25 -41 78 -58l-7 -16q-21 -13 -50 -13q-79 0 -99 57h-2
q-60 -59 -121 -59q-60 0 -93 37t-33 80q0 61 40 81q64 39 207 72zM125 123v-1q0 -40 25.5 -59t55.5 -19q38 0 68 31q9 10 9 23l2 127q-85 -23 -125 -47q-20 -11 -27.5 -22.5t-7.5 -32.5z" />
    <glyph glyph-name="b" unicode="b" horiz-adv-x="526" 
d="M76 -12v393q0 139 -3 252l-58 25l8 20q49 20 140 32q-3 -161 -3 -304q92 46 117 46q83 0 147.5 -58t64.5 -160q0 -64 -24.5 -113.5t-62.5 -77.5t-78 -42t-78 -14q-34 0 -98 32q-39 -23 -72 -31zM160 375v-326q39 -15 70 -15q75 0 121 53t46 135q0 74 -43 124t-114 50
q-40 0 -80 -21z" />
    <glyph glyph-name="c" unicode="c" horiz-adv-x="453" 
d="M37 213v1q0 59 23.5 106t61 75t82 42.5t90.5 14.5q40 0 77 -12t50 -25q-15 -66 -37 -107l-15 -6q-16 37 -32 107q-10 7 -38 7q-79 0 -124 -56t-45 -134q0 -84 49 -137t129 -53q9 0 28 8q50 42 83 57l7 -14q-6 -19 -28 -46.5t-36 -37.5q-40 -16 -94 -16q-38 0 -76 12
t-74 36.5t-58.5 71t-22.5 106.5z" />
    <glyph glyph-name="d" unicode="d" horiz-adv-x="539" 
d="M448 398v-325q31 -42 77 -59l-8 -17q-13 -10 -46 -10q-30 0 -59 14t-41 43h-2q-79 -57 -121 -57q-34 0 -69.5 13t-68 38.5t-53 69.5t-20.5 100q0 76 39.5 133.5t93.5 84t110 26.5q34 0 83 -30h1q0 97 -3 211l-63 26l9 19q50 20 144 32q-3 -156 -3 -312zM364 76v308
q-32 21 -74 21q-70 0 -116 -54t-46 -128q0 -73 44.5 -124.5t110.5 -51.5q41 0 81 29z" />
    <glyph glyph-name="e" unicode="e" horiz-adv-x="454" 
d="M319 233h-190q-1 -5 -1 -14q0 -83 45.5 -131.5t114.5 -48.5q20 0 34 6q55 39 84 54l5 -16q-4 -15 -24.5 -39.5t-32.5 -32.5q-51 -24 -105 -24q-94 0 -153 61t-59 163q0 104 64.5 172.5t152.5 68.5q72 0 120.5 -46t48.5 -127q0 -25 -10 -32q-35 -14 -94 -14zM130 271h199
q5 12 5 30q0 48 -23.5 82t-64.5 34q-55 0 -85.5 -51t-30.5 -95z" />
    <glyph glyph-name="f" unicode="f" horiz-adv-x="300" 
d="M22 -1l6 21l65 31q3 39 3 202v139l-67 15l16 32h51q0 138 69 210q58 61 135 61q49 0 73 -22q-19 -62 -34 -89l-14 -8q-19 27 -39 80q-5 2 -13 2q-37 0 -60.5 -39.5t-27.5 -112.5q-2 -30 -2 -82h128l-17 -33l-111 -13q-3 -60 -3 -132q0 -180 2 -208l95 -31l-7 -23
q-21 0 -67 0.5t-71 0.5q-18 0 -54.5 -0.5t-55.5 -0.5z" />
    <glyph glyph-name="g" unicode="g" horiz-adv-x="480" 
d="M437 396l-71 -4v-2q34 -34 34 -97q0 -69 -50.5 -112.5t-126.5 -43.5q-45 0 -83 18q-28 -28 -28 -45q0 -14 15.5 -29.5t31.5 -16.5q127 12 209 2q38 -5 63 -27q35 -31 35 -80q0 -79 -84 -140q-79 -62 -181 -62q-74 0 -123.5 33t-49.5 83q0 14 15 31l81 88v2q-24 11 -45 32
q-33 33 -33 65q0 20 69 78q-63 39 -63 120q0 65 50.5 114t137.5 49q24 0 76 -8q52 -10 72 -12l86 36l4 -10zM227 418h-1q-42 0 -65.5 -36.5t-23.5 -86.5q0 -48 24 -85.5t68 -37.5q42 0 65.5 35t23.5 90q0 46 -23.5 83.5t-67.5 37.5zM241 -9h-1q-60 0 -84 -11
q-15 -13 -31.5 -38.5t-16.5 -40.5q0 -45 39 -68.5t91 -23.5q67 0 111.5 29t44.5 84q0 50 -51 63q-36 6 -102 6z" />
    <glyph glyph-name="h" unicode="h" horiz-adv-x="551" 
d="M463 301v-228q0 -13 4 -18t16 -10l53 -26l-7 -22q-80 -2 -159 8q9 76 9 255q0 134 -108 134q-53 0 -98 -36q0 -288 3 -306l72 -31l-8 -22q-18 0 -54.5 1t-55.5 1q-18 0 -53 -1t-52 -1l7 23l54 30q3 20 3 232q0 240 -3 349l-58 26l6 19q44 15 142 32q-3 -144 -3 -317l2 -1
q77 60 139 60q71 0 110 -47t39 -104z" />
    <glyph glyph-name="i" unicode="i" horiz-adv-x="268" 
d="M134 658l6 1q11 -4 27 -22t23 -34l-2 -8q-6 -14 -24 -32.5t-29 -24.5l-8 -2q-30 18 -49 57l2 8q24 39 54 57zM41 404l5 19q72 23 133 29v-202q0 -142 2 -198l71 -30l-7 -23q-17 0 -54.5 0.5t-57.5 0.5q-15 0 -49.5 -0.5t-54.5 -0.5l7 23l57 30q2 68 2 200v126z" />
    <glyph glyph-name="j" unicode="j" horiz-adv-x="253" 
d="M127 658l7 1q10 -4 26 -22.5t23 -33.5l-2 -8q-6 -13 -23.5 -31t-29.5 -26l-8 -2q-13 8 -28 25.5t-22 31.5l3 8q26 39 54 57zM32 405l6 18q21 8 67 18t70 11v-364q0 -94 -38 -167q-57 -110 -133 -164l-26 14l-1 9q37 28 61 63t35 78t14.5 80t3.5 89q0 232 -3 291
q-41 17 -56 24z" />
    <glyph glyph-name="k" unicode="k" horiz-adv-x="500" 
d="M498 -11l-6 -5q-89 5 -136 49q-71 66 -165 197l-1 5q85 95 138 165l19 52q85 0 135 -13l-14 -23q-7 -4 -26.5 -11l-44 -16t-33.5 -12q-40 -39 -96 -102v-3q43 -59 230 -283zM175 52l73 -30l-6 -23q-18 0 -56 0.5t-58 0.5q-18 0 -53 -0.5t-52 -0.5l6 22l57 30q3 30 3 229
q0 246 -3 353l-56 26l9 20q72 22 136 31q-3 -159 -3 -346q0 -279 3 -312z" />
    <glyph glyph-name="l" unicode="l" horiz-adv-x="261" 
d="M175 50l71 -27l-9 -24q-19 0 -54 0.5t-52 0.5q-19 0 -56 -0.5t-56 -0.5l5 22l63 29q2 82 2 347q0 190 -3 239l-58 24l10 21q60 20 138 29q-3 -154 -3 -309q0 -203 2 -351z" />
    <glyph glyph-name="m" unicode="m" horiz-adv-x="840" 
d="M96 254v119l-53 22l7 20q19 9 64 22.5t66 14.5l-5 -81h2q98 81 156 81q40 0 72.5 -22t46.5 -60q99 82 165 82q61 0 98 -42t37 -108v-238q0 -10 19 -20l53 -23l-5 -22q-17 0 -53 0.5t-55 0.5q-15 0 -47.5 -0.5t-49.5 -0.5l6 23l44 30q5 92 4 217q0 123 -93 123
q-53 0 -115 -56q6 -38 6 -83v-201l59 -30l-7 -23q-14 0 -46 0.5t-48 0.5t-48.5 -0.5t-49.5 -0.5l6 24l48 28q2 120 2 226q0 114 -96 114q-46 0 -106 -55q0 -254 2 -285l60 -28l-6 -24q-11 0 -45.5 0.5t-56.5 0.5q-16 0 -51 -0.5t-50 -0.5l6 24l55 28q2 40 2 203z" />
    <glyph glyph-name="n" unicode="n" horiz-adv-x="557" 
d="M96 283v88l-53 23l7 21q14 8 61 22t69 15l-6 -79h2q97 79 158 79q71 0 103 -47t32 -112v-227q0 -13 14 -19l59 -25l-7 -23q-12 0 -51.5 0.5t-60.5 0.5q-14 0 -43.5 -0.5t-45.5 -0.5l7 25l40 29q4 60 4 232q0 54 -26.5 80.5t-67.5 26.5q-29 0 -59.5 -16.5t-51.5 -38.5
q0 -267 2 -288l56 -26l-6 -24q-26 1 -96 1q-18 0 -53.5 -0.5t-51.5 -0.5l7 23l55 28q3 24 3 233z" />
    <glyph glyph-name="o" unicode="o" horiz-adv-x="525" 
d="M265 452h1q94 0 158 -64.5t64 -163.5q0 -106 -64 -171.5t-161 -65.5q-90 0 -157.5 61.5t-67.5 165.5q0 107 71 172.5t156 65.5zM262 417h-1q-60 0 -93 -58t-33 -137q0 -77 36.5 -138.5t99.5 -61.5q43 0 71.5 31.5t38.5 72.5t10 89q0 78 -34 140t-95 62z" />
    <glyph glyph-name="p" unicode="p" horiz-adv-x="538" 
d="M173 454l-4 -65l2 -1q92 64 136 64q71 0 132 -57t61 -156q0 -63 -24.5 -113.5t-62 -79.5t-78 -44t-77.5 -15q-35 0 -83 31l-2 -1q0 -91 4 -189l93 -31l-9 -23q-22 0 -65 0.5t-66 0.5q-17 0 -52 -0.5t-53 -0.5l9 25l51 26q4 136 4 275v277l-56 30l9 20q13 6 59.5 16
t71.5 11zM173 356v-300q34 -21 75 -21q66 0 113.5 52t47.5 136q0 71 -39.5 120.5t-103.5 49.5q-42 0 -93 -37z" />
    <glyph glyph-name="q" unicode="q" horiz-adv-x="532" 
d="M449 370v-236q0 -63 0.5 -175.5t0.5 -131.5l85 -29l-7 -24q-20 0 -61.5 0.5t-62.5 0.5q-20 0 -60 -0.5t-61 -0.5l6 23l71 29q1 27 2.5 100t2.5 103l-2 1q-73 -43 -110 -43q-90 0 -152.5 62.5t-62.5 162.5q0 97 72 168.5t169 71.5q44 0 98 -37q16 12 48 23.5t53 13.5l3 -6
q-7 -38 -32 -76zM365 67v314q-31 24 -74 24q-67 0 -113.5 -53t-46.5 -129q0 -80 45.5 -129.5t109.5 -49.5q44 0 79 23z" />
    <glyph glyph-name="r" unicode="r" horiz-adv-x="383" 
d="M44 398l8 20q14 7 54.5 20t60.5 14q12 -45 10 -98h2q28 49 67 73.5t72 24.5q34 0 49 -17q-2 -21 -12.5 -55.5t-20.5 -53.5l-12 -7q-19 26 -36 67q-6 3 -15 3q-23 0 -50 -25t-41 -61v-253l101 -29l-5 -22q-17 0 -65 0.5t-77 0.5q-16 0 -52.5 -0.5t-51.5 -0.5l5 22l57 30
q4 104 4 318z" />
    <glyph glyph-name="s" unicode="s" horiz-adv-x="388" 
d="M198 452h1q38 0 74 -24q23 16 52 26l8 -7q0 -15 -8.5 -60t-15.5 -61l-14 -6q-15 28 -35 77q-20 17 -59 17q-36 0 -56 -20t-20 -49q0 -34 36 -55q17 -10 62 -30t58 -27q76 -37 76 -106q0 -38 -18.5 -67t-47 -44t-56.5 -22t-54 -7q-82 0 -145 43q0 14 9 56t14 53l14 8
q2 -4 47 -114q25 -10 61 -10q40 0 66.5 21t26.5 52q0 41 -40 60q-12 7 -97 48q-88 40 -88 118q0 52 39.5 91t109.5 39z" />
    <glyph glyph-name="t" unicode="t" horiz-adv-x="332" 
d="M170 439h153l-19 -36l-134 -12q0 -14 -0.5 -113t-0.5 -168q0 -28 16 -47q21 -15 50 -15q49 0 81 24l4 -2l-1 -31q-43 -52 -116 -52q-59 0 -96 42q-23 32 -23 108v254l-67 13l17 35h52q9 65 27 115q9 11 29 20.5t31 9.5z" />
    <glyph glyph-name="u" unicode="u" horiz-adv-x="543" 
d="M84 384l-57 25l10 20q50 16 136 16q-7 -79 -7 -293q0 -47 18 -73q27 -29 73 -29q31 0 62.5 16t46.5 42v262q-5 12 -18.5 19.5t-50.5 20.5l10 20q67 17 146 15q-3 -47 -3 -369q25 -43 78 -57l-6 -17q-22 -13 -57 -13q-81 0 -96 75h-2q-71 -77 -146 -77q-63 0 -100 37
q-40 39 -40 124q0 33 1.5 116.5t1.5 119.5z" />
    <glyph glyph-name="v" unicode="v" horiz-adv-x="465" 
d="M-6 417l9 23q27 -1 94 -1q60 0 90 1l-8 -26l-31 -25q16 -46 108 -280l2 -1q33 81 103 277l-43 31l7 24q17 -1 68 -1q60 0 83 1l-7 -25q-38 -16 -62 -45q-33 -62 -141 -335q-15 -32 -38 -53h-9q-3 7 -27.5 68l-62.5 155.5l-68 166.5q-19 26 -67 45z" />
    <glyph glyph-name="w" unicode="w" horiz-adv-x="708" 
d="M200 440l-6 -25l-38 -26q10 -35 90 -276h2l91 232l-9 60q7 6 32.5 18.5t40.5 16.5l7 -5l5 -74q18 -49 98 -254h2q56 174 85 281l-52 28l9 24q12 0 38 -0.5t40 -0.5q13 0 39.5 0.5t39.5 0.5l-5 -24q-38 -15 -61 -38q-26 -64 -125 -350q-12 -18 -40 -46h-8l-117 297h-2
l-103 -250q-18 -27 -40 -47h-8q-84 250 -140 396q-17 22 -63 37l8 25q18 0 50.5 -0.5t48.5 -0.5q15 0 45.5 0.5t45.5 0.5z" />
    <glyph glyph-name="x" unicode="x" horiz-adv-x="490" 
d="M190 402l66 -114h2q43 71 55 95q8 22 8 57q38 -2 56 -2q32 0 92 2l-7 -24q-72 -24 -102 -47q-59 -78 -84 -115q43 -82 104 -175q16 -25 38 -31l71 -24l-9 -24q-10 0 -68 -2.5t-88 -2.5q-42 84 -99 182h-2q-55 -88 -72 -124q3 -11 26 -32l-7 -22q-10 0 -36 1t-39 1
q-17 0 -46.5 -1t-41.5 -1l6 23l55 25q27 13 41 32q78 108 96 135q-85 148 -99 166q-19 16 -87 36l9 24q56 -2 89 -2q17 0 77 2z" />
    <glyph glyph-name="y" unicode="y" horiz-adv-x="458" 
d="M310 416l8 24q10 0 33.5 -0.5t34.5 -0.5q16 0 44.5 0.5t40.5 0.5l-6 -23q-39 -18 -61 -42q-17 -36 -48 -110l-79 -190.5l-84 -202.5q-3 -12 -12 -52.5t-14 -60.5q-7 -4 -23 -4q-21 0 -43 11t-29 21q10 24 87 111q21 42 51 110q-4 8 -31 78.5l-61 158.5t-51 128
q-17 25 -70 44l9 23q31 -1 94 -1t95 1l-7 -24l-32 -25q9 -27 99 -275h2q74 192 99 274z" />
    <glyph glyph-name="z" unicode="z" horiz-adv-x="447" 
d="M397 439l6 -10q-29 -50 -133 -210.5l-117 -180.5v-2q153 0 182 8q48 67 69 92l16 4q-8 -94 -23 -145q-4 0 -79 2.5t-128 2.5h-159l-1 8l262 393l-1 2q-58 0 -169 -5q-39 -69 -50 -82l-15 -4q-3 14 -5.5 66t-0.5 66l3 3l71 -8h272z" />
    <glyph glyph-name="braceleft" unicode="{" 
d="M218 344l-97 -63v-2l97 -64q-14 -146 -14 -217q0 -52 20 -87t67 -64l-12 -27q-53 18 -101 64.5t-48 97.5q0 82 30 226l-99 64l5 15l94 64q-30 113 -30 210q0 51 48.5 98.5t100.5 64.5l12 -27q-48 -27 -67.5 -62.5t-19.5 -89.5q0 -92 14 -201z" />
    <glyph glyph-name="bar" unicode="|" horiz-adv-x="336" 
d="M136 724h64v-965h-64v965z" />
    <glyph glyph-name="braceright" unicode="}" horiz-adv-x="325" 
d="M113 216l100 63v1l-100 65q15 159 15 203q0 52 -20.5 86.5t-67.5 62.5l10 27q54 -17 103 -63.5t49 -98.5q0 -100 -31 -210l98 -64l-4 -15l-94 -65q31 -116 31 -223q0 -52 -49 -99.5t-103 -65.5l-10 27q48 27 68 63.5t20 90.5q0 92 -15 215z" />
    <glyph glyph-name="asciitilde" unicode="~" horiz-adv-x="626" 
d="M532 308l34 -23q-32 -66 -66 -95t-80 -29q-44 0 -118 48l-12.5 8l-12.5 8l-11 7t-11.5 6.5t-10.5 5t-11.5 5l-10.5 3.5t-11 2.5t-11 0.5q-53 0 -106 -94l-34 22q55 125 151 125q22 0 45.5 -9t38 -18l41.5 -27q59 -39 95 -39q53 0 101 93z" />
    <glyph glyph-name="uni00A0" unicode="&#xa0;" horiz-adv-x="235" 
 />
    <glyph glyph-name="exclamdown" unicode="&#xa1;" horiz-adv-x="232" 
d="M110 316l-8 -3q-11 5 -29.5 25.5t-27.5 36.5l3 10q7 15 26 35t32 26l8 3q31 -16 57 -61l-2 -10q-30 -43 -59 -62zM93 212l31 17q23 -288 32 -360l21 -48q-48 -29 -116 -38l-10 5l6.5 70.5l15 157.5t20.5 196z" />
    <glyph glyph-name="cent" unicode="&#xa2;" horiz-adv-x="502" 
d="M273 542v77l34 9v-83q47 0 92 -16.5t62 -33.5q-17 -59 -37 -90l-15 -7q-12 27 -29 98q-26 13 -73 10v-369q25 -4 54 2q52 43 88 65l9 -16q-6 -19 -28 -46t-42 -38q-48 -13 -81 -14v-76l-34 -13v89q-41 2 -77.5 15t-70 38t-53 68t-19.5 99q0 102 66.5 161.5t153.5 70.5z
M273 143v359q-62 -16 -94.5 -65t-32.5 -117q0 -69 33 -115t94 -62z" />
    <glyph glyph-name="sterling" unicode="&#xa3;" horiz-adv-x="502" 
d="M453 157l22 -14q-18 -93 -38 -148q-5 0 -89 2.5t-141 2.5h-204v12l36 38q26 7 34 18q45 66 41 237l-99 10l16 33h82v27q0 172 104 245q50 33 113 33q32 0 60 -9.5t39 -21.5q-12 -58 -34 -103l-17 -8q-21 57 -31 105q-12 2 -20 2q-59 0 -93 -51t-31 -156q0 -23 2 -63h178
l-16 -33l-164 -10q-2 -85 -25 -138.5t-63 -100.5l1 -2q127 -4 275 5q51 74 62 88z" />
    <glyph glyph-name="currency" unicode="&#xa4;" horiz-adv-x="502" 
d="M460 508l-61 -60q42 -56 42 -123q0 -72 -48 -127l63 -54l-39 -45l-58 66q-47 -36 -109 -36q-29 0 -62.5 10t-53.5 28l-57 -67l-33 42l59 52q-45 56 -45 131q0 72 41 121l-62 56l36 47l62 -69q53 43 118 43q63 0 115 -44l56 69zM250 477h-1q-58 0 -93.5 -44t-35.5 -107
q0 -65 38 -108.5t92 -43.5q58 0 93.5 43t35.5 109q0 64 -37.5 107.5t-91.5 43.5z" />
    <glyph glyph-name="yen" unicode="&#xa5;" horiz-adv-x="502" 
d="M70 347h123l-132 248l-54 23l7 25q15 0 46.5 -1t46.5 -1q17 0 52.5 1t53.5 1l-9 -24l-48 -23l113 -231h2l113 229l-62 26l11 23q10 0 38 -1t44 -1q13 0 43 1t46 1l-6 -24l-61 -29q-91 -155 -137 -243h136l-13 -35h-135l1 -74h147l-14 -35h-133q2 -131 4 -154l89 -27
l-7 -23q-21 0 -63 0.5t-63 0.5q-22 0 -66.5 -0.5t-67.5 -0.5l7 23l77 27q4 14 6 154h-148l13 35h135l1 74h-148z" />
    <glyph glyph-name="brokenbar" unicode="&#xa6;" horiz-adv-x="336" 
d="M136 666h64v-366h-64v366zM136 -183v367h64v-367h-64z" />
    <glyph glyph-name="section" unicode="&#xa7;" horiz-adv-x="450" 
d="M95 25l13 7q3 -6 7 -20.5l10 -36.5t11 -38q11 -7 42 -7t57 18.5t25 45.5q-1 39 -61 113l-96 123q-71 96 -70 167q1 61 34.5 112.5t91.5 86.5q46 28 90 28q32 0 53 -14q15 13 55 25l8 -4q-1 -16 -10.5 -60.5t-18.5 -60.5l-14 -7q-10 16 -28 74q-18 12 -46 12
q-30 0 -46 -15t-16 -38q0 -24 20 -55q19 -28 124 -157q81 -96 81 -179q0 -52 -29 -105.5t-86 -95.5q-52 -48 -121 -48q-65 0 -111 34q0 12 11 46.5t20 48.5zM313 4h3q38 46 38 108q0 67 -59 143l-50 63l-41.5 51.5t-29.5 40.5q-39 57 -39 100q0 20 5 35h-3q-49 -49 -49 -117
q0 -60 57 -140l57 -72l56 -70q59 -75 57 -122q0 -6 -2 -20z" />
    <glyph glyph-name="dieresis" unicode="&#xa8;" horiz-adv-x="386" 
d="M102 641l8 2q9 -5 24 -22.5t22 -30.5l-2 -7q-12 -27 -47 -54l-8 -2q-29 18 -48 53l2 8q21 35 49 53zM281 641l7 2q8 -5 24 -22.5t23 -30.5l-2 -7q-10 -26 -48 -54l-8 -2q-12 9 -26.5 25t-20.5 28l1 8q23 35 50 53z" />
    <glyph glyph-name="copyright" unicode="&#xa9;" horiz-adv-x="683" 
d="M342 624h1q125 0 211.5 -89.5t86.5 -219.5q0 -128 -87 -217t-212 -89q-126 0 -213 89t-87 217q0 130 87 219.5t213 89.5zM343 586h-1q-110 0 -182.5 -77t-72.5 -193q0 -114 73 -191.5t183 -77.5q109 0 181 77t72 192q0 116 -72 193t-181 77zM363 477h1q38 0 61 -14
q21 10 46 15l6 -2q0 -14 -7 -52t-11 -43l-10 -7q-19 27 -30 63q-17 10 -45 10q-49 0 -83 -35t-34 -91q0 -55 34.5 -92t91.5 -37q12 0 23 5q8 6 22 18.5t24.5 21t15.5 11.5l11 -9q-1 -11 -15.5 -36.5t-22.5 -32.5q-39 -12 -77 -12q-75 0 -126.5 41.5t-51.5 116.5
q0 57 31.5 95.5t69.5 52t76 13.5z" />
    <glyph glyph-name="ordfeminine" unicode="&#xaa;" horiz-adv-x="290" 
d="M180 454v10q0 60 -57 60q-19 0 -31 -8q-8 -43 -14 -57l-10 -5q-4 1 -17.5 20.5t-16.5 32.5q26 23 72 39q29 9 42 9q46 0 67.5 -26t21.5 -62q0 -44 -2 -112q9 -15 44 -36l-5 -11q-10 -7 -32 -7q-48 0 -61 35q-44 -35 -77 -35q-34 0 -54.5 21.5t-20.5 47.5q0 30 22 43
q13 8 54 21t75 20zM179 371l1 58q-40 -6 -71 -22q-20 -11 -20 -29q0 -17 12.5 -27.5t29.5 -10.5q23 0 43 16q5 5 5 15z" />
    <glyph glyph-name="guillemotleft" unicode="&#xab;" horiz-adv-x="502" 
d="M253 41l-21 -16q-85 110 -182 195q89 80 178 193l23 -17q-32 -65 -104 -176q78 -114 106 -179zM450 41l-24 -16q-48 60 -100 115t-81 80q88 82 177 193l22 -18q-61 -109 -102 -175q80 -120 108 -179z" />
    <glyph glyph-name="logicalnot" unicode="&#xac;" horiz-adv-x="590" 
d="M448 51v222h-368l18 51h409v-257z" />
    <glyph glyph-name="uni00AD" unicode="&#xad;" horiz-adv-x="367" 
d="M282 212l-238 -27l33 72l51 -1l195 11l1 -6z" />
    <glyph glyph-name="registered" unicode="&#xae;" horiz-adv-x="301" 
d="M150 658h1q51 0 86.5 -35t35.5 -87q0 -54 -35.5 -89t-87.5 -35t-87 35t-35 87t35.5 88t86.5 36zM150 635h-1q-38 0 -64.5 -29t-26.5 -70q0 -43 26.5 -72t65.5 -29q40 0 66.5 29t26.5 72q0 41 -26.5 70t-66.5 29zM92 580l3 11q21 5 52 5q50 -1 50 -30q0 -17 -24 -29
q9 -17 24 -36q10 -14 17 -21l-4 -2q-24 1 -39 14q-11 11 -30 44q16 5 21.5 9.5t5.5 14.5q0 12 -9.5 18t-22.5 4v-86l18 -6l-2 -9h-59l2 9l14 6v82z" />
    <glyph glyph-name="macron" unicode="&#xaf;" horiz-adv-x="386" 
d="M292 547h-212l16 56h212z" />
    <glyph glyph-name="degree" unicode="&#xb0;" horiz-adv-x="283" 
d="M142 646h1q44 0 75 -32t31 -78t-31 -77.5t-76 -31.5q-46 0 -77 31t-32 78q0 46 31.5 78t77.5 32zM141 608h-1q-26 0 -43 -20.5t-17 -50.5q0 -32 18 -52t44 -20q25 0 43.5 20.5t18.5 51.5q0 29 -18 50t-45 21z" />
    <glyph glyph-name="plusminus" unicode="&#xb1;" horiz-adv-x="590" 
d="M524 51l-13 -51h-447l13 51h447zM324 113l-59 -13v206h-201l13 51h188v177l59 12v-189h200l-13 -51h-187v-193z" />
    <glyph glyph-name="twosuperior" unicode="&#xb2;" 
d="M282 528l16 -13q-12 -55 -28 -93q-2 0 -50 1.5t-82 1.5h-107v11l24 32q9 5 18 11q34 29 47 41.5t38 39.5t35 52t10 52q0 29 -18 49.5t-52 20.5q-15 0 -34 -7q-5 -32 -21 -82l-13 -7q-19 23 -32 74q64 58 130 58q44 0 77.5 -26t33.5 -79q0 -12 -2 -23t-8 -22l-10.5 -19.5
t-16 -20.5l-18 -18.5t-23.5 -20l-24.5 -19.5l-29.5 -22.5l-30 -22.5q15 0 69 2t64 2q10 14 37 47z" />
    <glyph glyph-name="threesuperior" unicode="&#xb3;" 
d="M83 664l-13 -5q-13 18 -27 59q24 22 58 37t64 15q51 0 78 -23.5t27 -57.5q0 -53 -73 -79v-4q94 -13 94 -82q-1 -50 -46.5 -78t-97.5 -28q-36 0 -67 10.5t-44 24.5q15 46 30 66l11 5q10 -20 26 -71q15 -5 30 -5q36 0 60 21t24 53q0 29 -17 45t-44 18q-55 -8 -57 -8l-6 6
q0 5 8.5 19t15.5 19q3 0 9 -0.5t15.5 -1.5t14.5 -1q46 14 46 58q0 26 -16.5 43t-46.5 17q-15 0 -37 -9q-12 -50 -19 -63z" />
    <glyph glyph-name="acute" unicode="&#xb4;" horiz-adv-x="386" 
d="M178 493l-23 21l96 161q37 0 76 -18v-12z" />
    <glyph glyph-name="mu" unicode="&#xb5;" horiz-adv-x="542" 
d="M445 389v-327q10 -18 84 -25l-5 -21q-36 -29 -83 -29q-28 0 -51.5 18t-26.5 60h-2q-67 -78 -135 -78q-45 0 -72 30l-2 -1q-12 -183 8 -255l-9 -4q-39 4 -56.5 33.5t-17.5 91.5v286q0 155 2 263q10 6 38 13t52 8l2 -3q-12 -150 -15 -304q-1 -40 18 -63q25 -33 74 -33
q32 0 64 18.5t49 45.5v318q9 6 42.5 13.5t57.5 7.5l4 -7q-3 -8 -9.5 -27t-10.5 -29z" />
    <glyph glyph-name="paragraph" unicode="&#xb6;" horiz-adv-x="506" 
d="M405 654l-34 -118v-498q0 -83 -16.5 -143t-44 -89t-53.5 -41t-54 -12q-21 0 -37 11q-29 27 -38 52l8 13q21 -7 53 -7q138 0 138 212v41q-34 -15 -51 -15q-87 0 -162 63.5t-75 169.5q0 109 80 176t188 67h16l4 104z" />
    <glyph glyph-name="periodcentered" unicode="&#xb7;" horiz-adv-x="217" 
d="M107 294l6 3q12 -5 31.5 -26t27.5 -37l-3 -10q-6 -15 -25.5 -35t-33.5 -27l-8 -3q-15 9 -32 28t-26 35l3 9q28 44 60 63z" />
    <glyph glyph-name="cedilla" unicode="&#xb8;" horiz-adv-x="386" 
d="M223 1h38l-39 -57q34 -18 47 -34.5t13 -39.5q0 -30 -28.5 -55.5t-81.5 -41.5l-14 28q61 24 61 56q0 14 -13.5 24.5t-49.5 25.5z" />
    <glyph glyph-name="onesuperior" unicode="&#xb9;" 
d="M134 704l-78 -2l5 20q39 16 127 48h11q0 -36 1.5 -168t1.5 -137l71 -19l-7 -21q-16 0 -49.5 0.5t-50.5 0.5q-18 0 -54 -0.5t-54 -0.5l9 21l60 19q7 143 7 239z" />
    <glyph glyph-name="ordmasculine" unicode="&#xba;" horiz-adv-x="321" 
d="M161 557h1q56 0 94 -35t38 -89q0 -58 -38.5 -94.5t-96.5 -36.5q-54 0 -93.5 32.5t-39.5 90.5q0 61 41.5 96.5t93.5 35.5zM158 529h-1q-30 0 -46.5 -30t-16.5 -68q0 -39 19 -70.5t50 -31.5q32 0 48 30t16 71q0 36 -18 67.5t-51 31.5z" />
    <glyph glyph-name="guillemotright" unicode="&#xbb;" horiz-adv-x="502" 
d="M247 396l22 17q85 -110 182 -195q-97 -88 -178 -193l-23 18q39 77 104 175q-74 109 -107 178zM51 396l24 17q90 -114 179 -195q-112 -112 -175 -193l-22 18l102 175q-82 123 -108 178z" />
    <glyph glyph-name="onequarter" unicode="&#xbc;" horiz-adv-x="704" 
d="M134 587l-78 -2l5 20q39 16 127 48h11q0 -36 1.5 -168t1.5 -137l71 -19l-7 -21q-16 0 -49.5 0.5t-50.5 0.5q-18 0 -54 -0.5t-54 -0.5l9 21l60 19q7 144 7 239zM546 666l30 -25l-421 -682l-28 27zM578 99l2 -63l59 -19l-7 -18q-15 0 -44.5 0.5t-43.5 0.5q-17 0 -49.5 -0.5
t-48.5 -0.5l5 18l59 19l3 60l-146 -2l-10 20q25 43 81.5 123.5t67.5 90.5q13 9 72 16v-215h32q16 18 27 29l11 -3q1 -7 -4 -40.5t-7 -42.5l-12 -4q-6 9 -18 32zM514 130l8 167h-5q-56 -79 -107 -166z" />
    <glyph glyph-name="onehalf" unicode="&#xbd;" horiz-adv-x="704" 
d="M126 587l-78 -2l5 20q39 16 127 48h11q0 -36 1.5 -168t1.5 -137l71 -19l-7 -21q-16 0 -49.5 0.5t-50.5 0.5q-18 0 -54 -0.5t-54 -0.5l9 21l60 19q7 144 7 239zM535 666l30 -25l-421 -682l-28 27zM653 102l16 -13q-12 -55 -28 -93q-2 0 -50 1.5t-82 1.5h-107v11l24 32
q9 5 18 11q34 29 47 41.5t38 39.5t35 52t10 52q0 29 -18 49.5t-52 20.5q-15 0 -34 -7q-5 -32 -21 -82l-13 -7q-19 23 -32 74q64 58 130 58q44 0 77.5 -26t33.5 -79q0 -12 -2 -23t-8 -22l-10.5 -19.5t-16 -20.5l-18 -18.5t-23.5 -20l-24.5 -19.5l-29.5 -22.5l-30 -22.5
q15 0 69 2t64 2q10 14 37 47z" />
    <glyph glyph-name="threequarters" unicode="&#xbe;" horiz-adv-x="704" 
d="M96 547l-13 -5q-13 18 -27 59q24 22 58 37t64 15q51 0 78 -23.5t27 -57.5q0 -53 -73 -79v-4q94 -13 94 -82q-1 -50 -46.5 -78t-97.5 -28q-36 0 -67 10.5t-44 24.5q15 46 30 66l11 5q10 -20 26 -71q15 -5 30 -5q36 0 60 21t24 53q0 29 -17 45t-44 18q-55 -8 -57 -8l-6 6
q0 5 8.5 19t15.5 19q3 0 9 -0.5t15.5 -1.5t14.5 -1q46 14 46 58q0 25 -16.5 42.5t-46.5 17.5q-14 0 -37 -9q-13 -50 -19 -63zM554 666l30 -25l-421 -682l-28 27zM581 99l2 -63l59 -19l-7 -18q-15 0 -44.5 0.5t-43.5 0.5q-17 0 -49.5 -0.5t-48.5 -0.5l5 18l59 19l3 60
l-146 -2l-10 20q25 43 81.5 123.5t67.5 90.5q13 9 72 16v-215h32q16 18 27 29l11 -3q1 -7 -4 -40.5t-7 -42.5l-12 -4q-6 9 -18 32zM517 130l8 167h-5q-56 -79 -107 -166z" />
    <glyph glyph-name="questiondown" unicode="&#xbf;" horiz-adv-x="391" 
d="M207 316l-7 -3q-11 5 -30.5 26t-26.5 36l2 10q6 14 25.5 34t32.5 26l9 3q14 -8 31 -27t25 -34l-2 -10q-29 -44 -59 -61zM190 -217h-1q-61 0 -107.5 37.5t-46.5 109.5q0 37 18 65.5t55 61.5q87 73 86 109q0 22 -16 50l23 13q22 -8 45.5 -38.5t24.5 -64.5q-23 -49 -88 -109
q-38 -35 -51.5 -58.5t-13.5 -47.5q0 -31 25 -58.5t67 -27.5q28 0 50 10q13 67 29 100l14 6q29 -43 44 -96q-30 -26 -74.5 -44t-82.5 -18z" />
    <glyph glyph-name="Agrave" unicode="&#xc0;" horiz-adv-x="710" 
d="M297 633l75 49l6 -5q-1 -24 14 -69q28 -83 209 -530q14 -19 32.5 -29.5t68.5 -26.5l-7 -23q-18 0 -58 0.5t-60 0.5q-17 0 -52 -0.5t-54 -0.5l6 21l37 29q-8 28 -75 193q-94 -7 -223 -5q-51 -130 -68 -181l88 -34l-6 -23q-17 0 -58 0.5t-60 0.5q-18 0 -52 -0.5t-51 -0.5
l6 24l70 33q25 51 94 213t125 306q7 18 3 31zM331 539h-2l-50.5 -133t-43.5 -118q12 0 89.5 -2t100.5 -2zM407 738l-15 -25l-196 73l-2 13q28 42 57 53z" />
    <glyph glyph-name="Aacute" unicode="&#xc1;" horiz-adv-x="710" 
d="M297 633l75 49l6 -5q-1 -24 14 -69q28 -83 209 -530q14 -19 32.5 -29.5t68.5 -26.5l-7 -23q-18 0 -58 0.5t-60 0.5q-17 0 -52 -0.5t-54 -0.5l6 21l37 29q-8 28 -75 193q-94 -7 -223 -5q-51 -130 -68 -181l88 -34l-6 -23q-17 0 -58 0.5t-60 0.5q-18 0 -52 -0.5t-51 -0.5
l6 24l70 33q25 51 94 213t125 306q7 18 3 31zM331 539h-2l-50.5 -133t-43.5 -118q12 0 89.5 -2t100.5 -2zM298 701l-13 26l155 112q16 -4 34 -19.5t28 -31.5l-2 -13z" />
    <glyph glyph-name="Acircumflex" unicode="&#xc2;" horiz-adv-x="710" 
d="M297 633l75 49l6 -5q-1 -24 14 -69q28 -83 209 -530q14 -19 32.5 -29.5t68.5 -26.5l-7 -23q-18 0 -58 0.5t-60 0.5q-17 0 -52 -0.5t-54 -0.5l6 21l37 29q-8 28 -75 193q-94 -7 -223 -5q-51 -130 -68 -181l88 -34l-6 -23q-17 0 -58 0.5t-60 0.5q-18 0 -52 -0.5t-51 -0.5
l6 24l70 33q25 51 94 213t125 306q7 18 3 31zM331 539h-2l-50.5 -133t-43.5 -118q12 0 89.5 -2t100.5 -2zM337 835h20l131 -107l-17 -26l-124 61l-126 -61l-15 26z" />
    <glyph glyph-name="Atilde" unicode="&#xc3;" horiz-adv-x="710" 
d="M297 633l75 49l6 -5q-1 -24 14 -69q28 -83 209 -530q14 -19 32.5 -29.5t68.5 -26.5l-7 -23q-18 0 -58 0.5t-60 0.5q-17 0 -52 -0.5t-54 -0.5l6 21l37 29q-8 28 -75 193q-94 -7 -223 -5q-51 -130 -68 -181l88 -34l-6 -23q-17 0 -58 0.5t-60 0.5q-18 0 -52 -0.5t-51 -0.5
l6 24l70 33q25 51 94 213t125 306q7 18 3 31zM331 539h-2l-50.5 -133t-43.5 -118q12 0 89.5 -2t100.5 -2zM470 811l25 -19q-48 -83 -98 -83q-19 0 -62 24q-35 18 -45 18q-24 0 -59 -46l-24 19q50 88 96 88q17 0 56 -21q37 -22 52 -22q26 0 59 42z" />
    <glyph glyph-name="Adieresis" unicode="&#xc4;" horiz-adv-x="710" 
d="M297 633l75 49l6 -5q-1 -24 14 -69q28 -83 209 -530q14 -19 32.5 -29.5t68.5 -26.5l-7 -23q-18 0 -58 0.5t-60 0.5q-17 0 -52 -0.5t-54 -0.5l6 21l37 29q-8 28 -75 193q-94 -7 -223 -5q-51 -130 -68 -181l88 -34l-6 -23q-17 0 -58 0.5t-60 0.5q-18 0 -52 -0.5t-51 -0.5
l6 24l70 33q25 51 94 213t125 306q7 18 3 31zM331 539h-2l-50.5 -133t-43.5 -118q12 0 89.5 -2t100.5 -2zM248 822l7 3q10 -5 25.5 -22.5t21.5 -31.5l-1 -7q-6 -13 -22 -30t-27 -24l-8 -2q-29 15 -49 53l2 8q23 34 51 53zM445 822l7 3q9 -5 25 -22.5t23 -31.5l-2 -7
q-6 -12 -22 -29.5t-26 -24.5l-9 -2q-29 17 -48 53l1 8q21 32 51 53z" />
    <glyph glyph-name="Aring" unicode="&#xc5;" horiz-adv-x="710" 
d="M297 633l75 49l6 -5q-1 -24 14 -69q28 -83 209 -530q14 -19 32.5 -29.5t68.5 -26.5l-7 -23q-18 0 -58 0.5t-60 0.5q-17 0 -52 -0.5t-54 -0.5l6 21l37 29q-8 28 -75 193q-94 -7 -223 -5q-51 -130 -68 -181l88 -34l-6 -23q-17 0 -58 0.5t-60 0.5q-18 0 -52 -0.5t-51 -0.5
l6 24l70 33q25 51 94 213t125 306q7 18 3 31zM331 539h-2l-50.5 -133t-43.5 -118q12 0 89.5 -2t100.5 -2zM345 876h1q35 0 62 -23t27 -63q0 -39 -27.5 -62.5t-62.5 -23.5t-62.5 23.5t-27.5 62.5q0 40 27 63t63 23zM345 842h-1q-19 0 -32 -13.5t-13 -38.5q0 -26 13 -39
t33 -13q46 0 46 52q0 26 -12.5 39t-33.5 13z" />
    <glyph glyph-name="AE" unicode="&#xc6;" horiz-adv-x="932" 
d="M484 299h-218q-7 -16 -43 -90l-72 -153l90 -33l-10 -24q-15 0 -56 0.5t-62 0.5q-17 0 -51.5 -0.5t-52.5 -0.5l9 24l68 33l288 553l-115 25l8 25q33 0 89 -0.5t81 -0.5h351q45 12 81 12l3 -3q-6 -56 -27 -154l-14 -6q-29 66 -44 113l-225 -7l10 -269q149 0 263 11l6 -9
q-3 -8 -26.5 -32.5t-31.5 -24.5q-5 0 -102 5t-108 5q2 -93 12 -252l208 -8l92 121l16 -1q-3 -27 -15.5 -83t-20.5 -79q-61 3 -186 3h-140q-24 0 -72.5 -0.5t-73.5 -0.5l7 24l86 30q2 5 -2 246zM290 344h192l-2 270h-55z" />
    <glyph glyph-name="Ccedilla" unicode="&#xc7;" horiz-adv-x="687" 
d="M434 -19l-27 -37q35 -19 48 -35.5t13 -38.5q0 -30 -29 -55.5t-81 -41.5l-14 28q61 27 61 56q0 14 -13.5 24t-50.5 26l55 75q-70 3 -132 25t-112 63t-79.5 106.5t-29.5 147.5q0 85 34.5 154.5t90.5 111.5t121.5 64.5t132.5 22.5h2q98 0 155 -38q28 15 76 26l6 -4
q-3 -29 -17.5 -86t-22.5 -71l-18 -9q-19 36 -34 109q-17 12 -53 21t-73 9q-138 0 -218 -85.5t-80 -219.5q0 -131 83.5 -216t225.5 -85q42 0 66 8q78 81 121 113l19 -5q-6 -22 -32 -73t-36 -59q-62 -27 -158 -31z" />
    <glyph glyph-name="Egrave" unicode="&#xc8;" horiz-adv-x="565" 
d="M36 637l7 23q21 0 62 -0.5t61 -0.5h248q8 2 39 6.5t44 4.5l3 -3q-3 -44 -26 -145l-16 -9q-18 39 -43 108l-203 -8v-250q130 0 254 12l4 -9q-4 -8 -28 -33t-32 -25q-6 0 -94 5.5t-104 5.5q0 -189 4 -272l212 -8q1 2 37 52t50 66l20 1q-2 -24 -14.5 -80t-20.5 -81
q-65 3 -181 3h-158q-23 0 -69.5 -0.5t-67.5 -0.5l8 24l85 29q6 24 6 291v266zM361 726l-15 -25l-196 73l-2 13q28 42 57 53z" />
    <glyph glyph-name="Eacute" unicode="&#xc9;" horiz-adv-x="565" 
d="M36 637l7 23q21 0 62 -0.5t61 -0.5h248q8 2 39 6.5t44 4.5l3 -3q-3 -44 -26 -145l-16 -9q-18 39 -43 108l-203 -8v-250q130 0 254 12l4 -9q-4 -8 -28 -33t-32 -25q-6 0 -94 5.5t-104 5.5q0 -189 4 -272l212 -8q1 2 37 52t50 66l20 1q-2 -24 -14.5 -80t-20.5 -81
q-65 3 -181 3h-158q-23 0 -69.5 -0.5t-67.5 -0.5l8 24l85 29q6 24 6 291v266zM231 701l-13 26l155 112q16 -4 34 -19.5t28 -31.5l-2 -13z" />
    <glyph glyph-name="Ecircumflex" unicode="&#xca;" horiz-adv-x="565" 
d="M36 637l7 23q21 0 62 -0.5t61 -0.5h248q8 2 39 6.5t44 4.5l3 -3q-3 -44 -26 -145l-16 -9q-18 39 -43 108l-203 -8v-250q130 0 254 12l4 -9q-4 -8 -28 -33t-32 -25q-6 0 -94 5.5t-104 5.5q0 -189 4 -272l212 -8q1 2 37 52t50 66l20 1q-2 -24 -14.5 -80t-20.5 -81
q-65 3 -181 3h-158q-23 0 -69.5 -0.5t-67.5 -0.5l8 24l85 29q6 24 6 291v266zM280 835h20l131 -107l-17 -26l-124 61l-126 -61l-15 26z" />
    <glyph glyph-name="Edieresis" unicode="&#xcb;" horiz-adv-x="565" 
d="M36 637l7 23q21 0 62 -0.5t61 -0.5h248q8 2 39 6.5t44 4.5l3 -3q-3 -44 -26 -145l-16 -9q-18 39 -43 108l-203 -8v-250q130 0 254 12l4 -9q-4 -8 -28 -33t-32 -25q-6 0 -94 5.5t-104 5.5q0 -189 4 -272l212 -8q1 2 37 52t50 66l20 1q-2 -24 -14.5 -80t-20.5 -81
q-65 3 -181 3h-158q-23 0 -69.5 -0.5t-67.5 -0.5l8 24l85 29q6 24 6 291v266zM186 823l7 3q10 -5 25.5 -22.5t21.5 -31.5l-1 -7q-6 -13 -22 -30t-27 -24l-8 -2q-29 15 -49 53l2 8q23 34 51 53zM383 823l7 3q9 -5 25 -22.5t23 -31.5l-2 -7q-6 -12 -22 -29.5t-26 -24.5l-9 -2
q-29 17 -48 53l1 8q21 32 51 53z" />
    <glyph glyph-name="Igrave" unicode="&#xcc;" horiz-adv-x="336" 
d="M44 636l7 23q19 0 58 -0.5t59 -0.5t62 0.5t62 0.5l-7 -24l-73 -29v-263q0 -247 5 -290l92 -30l-7 -24q-17 0 -61.5 0.5t-72.5 0.5q-26 0 -72.5 -0.5t-64.5 -0.5l7 24l79 30q6 24 6 290v264zM241 726l-15 -25l-196 73l-2 13q28 42 57 53z" />
    <glyph glyph-name="Iacute" unicode="&#xcd;" horiz-adv-x="336" 
d="M44 636l7 23q19 0 58 -0.5t59 -0.5t62 0.5t62 0.5l-7 -24l-73 -29v-263q0 -247 5 -290l92 -30l-7 -24q-17 0 -61.5 0.5t-72.5 0.5q-26 0 -72.5 -0.5t-64.5 -0.5l7 24l79 30q6 24 6 290v264zM113 701l-13 26l155 112q16 -4 34 -19.5t28 -31.5l-2 -13z" />
    <glyph glyph-name="Icircumflex" unicode="&#xce;" horiz-adv-x="336" 
d="M44 636l7 23q19 0 58 -0.5t59 -0.5t62 0.5t62 0.5l-7 -24l-73 -29v-263q0 -247 5 -290l92 -30l-7 -24q-17 0 -61.5 0.5t-72.5 0.5q-26 0 -72.5 -0.5t-64.5 -0.5l7 24l79 30q6 24 6 290v264zM160 838h20l131 -107l-17 -26l-124 61l-126 -61l-15 26z" />
    <glyph glyph-name="Idieresis" unicode="&#xcf;" horiz-adv-x="336" 
d="M44 636l7 23q19 0 58 -0.5t59 -0.5t62 0.5t62 0.5l-7 -24l-73 -29v-263q0 -247 5 -290l92 -30l-7 -24q-17 0 -61.5 0.5t-72.5 0.5q-26 0 -72.5 -0.5t-64.5 -0.5l7 24l79 30q6 24 6 290v264zM69 823l7 3q10 -5 25.5 -22.5t21.5 -31.5l-1 -7q-6 -13 -22 -30t-27 -24l-8 -2
q-29 15 -49 53l2 8q23 34 51 53zM266 823l7 3q9 -5 25 -22.5t23 -31.5l-2 -7q-6 -12 -22 -29.5t-26 -24.5l-9 -2q-29 17 -48 53l1 8q21 32 51 53z" />
    <glyph glyph-name="Eth" unicode="&#xd0;" horiz-adv-x="746" 
d="M45 366h89v246l-88 18l8 22q143 13 231 13q196 0 306.5 -80t110.5 -240q0 -70 -21 -126.5t-56.5 -92t-69 -57t-71.5 -35.5q-96 -37 -266 -37q-51 0 -177 3l8 24l79 26q6 18 6 274h-102zM223 366h188l-18 -42h-170q0 -277 4 -289q192 0 278 77q94 83 94 228q0 143 -92 217
q-48 39 -115 54t-169 14v-259z" />
    <glyph glyph-name="Ntilde" unicode="&#xd1;" horiz-adv-x="766" 
d="M269 23l-7 -24q-19 0 -58 0.5t-61 0.5q-18 0 -57.5 -0.5t-57.5 -0.5l6 24l82 36q13 179 18 500l-15 22t-14 16t-10.5 10.5t-13.5 8.5t-13.5 5.5t-19.5 6l-23 7.5l9 24l137 5q9 -20 38 -57q156 -196 407 -479h3q0 20 -3 229.5t-3 243.5l-85 35l10 23q19 0 52.5 -0.5
t48.5 -0.5q19 0 60.5 0.5t61.5 0.5l-6 -26l-85 -32q-11 -476 -11 -515q0 -62 -5 -102l-11 -5q-60 43 -173 174.5l-297 360.5h-2q-2 -388 7 -455zM516 803l25 -19q-48 -83 -98 -83q-19 0 -62 24q-35 18 -45 18q-24 0 -59 -46l-24 19q50 88 96 88q17 0 56 -21q37 -22 52 -22
q26 0 59 42z" />
    <glyph glyph-name="Ograve" unicode="&#xd2;" horiz-adv-x="785" 
d="M390 677h1q49 0 97.5 -12.5t94 -40t80.5 -66t56.5 -95t22.5 -122.5q1 -90 -29.5 -161.5t-82 -113.5t-112 -63.5t-124.5 -21.5t-125 21t-112.5 61.5t-82.5 107.5t-31 151q0 85 32.5 155t84 112t111.5 65t119 23zM386 640h-1q-110 0 -173.5 -85t-63.5 -217
q0 -129 71.5 -225t185.5 -96q61 0 107.5 27t73 73t39 99t12.5 113q0 128 -71.5 219.5t-179.5 91.5zM471 737l-15 -25l-196 73l-2 13q28 42 57 53z" />
    <glyph glyph-name="Oacute" unicode="&#xd3;" horiz-adv-x="785" 
d="M390 677h1q49 0 97.5 -12.5t94 -40t80.5 -66t56.5 -95t22.5 -122.5q1 -90 -29.5 -161.5t-82 -113.5t-112 -63.5t-124.5 -21.5t-125 21t-112.5 61.5t-82.5 107.5t-31 151q0 85 32.5 155t84 112t111.5 65t119 23zM386 640h-1q-110 0 -173.5 -85t-63.5 -217
q0 -129 71.5 -225t185.5 -96q61 0 107.5 27t73 73t39 99t12.5 113q0 128 -71.5 219.5t-179.5 91.5zM332 713l-13 26l155 112q16 -4 34 -19.5t28 -31.5l-2 -13z" />
    <glyph glyph-name="Ocircumflex" unicode="&#xd4;" horiz-adv-x="785" 
d="M390 677h1q49 0 97.5 -12.5t94 -40t80.5 -66t56.5 -95t22.5 -122.5q1 -90 -29.5 -161.5t-82 -113.5t-112 -63.5t-124.5 -21.5t-125 21t-112.5 61.5t-82.5 107.5t-31 151q0 85 32.5 155t84 112t111.5 65t119 23zM386 640h-1q-110 0 -173.5 -85t-63.5 -217
q0 -129 71.5 -225t185.5 -96q61 0 107.5 27t73 73t39 99t12.5 113q0 128 -71.5 219.5t-179.5 91.5zM384 838h20l131 -107l-17 -26l-124 61l-126 -61l-15 26z" />
    <glyph glyph-name="Otilde" unicode="&#xd5;" horiz-adv-x="785" 
d="M390 677h1q49 0 97.5 -12.5t94 -40t80.5 -66t56.5 -95t22.5 -122.5q1 -90 -29.5 -161.5t-82 -113.5t-112 -63.5t-124.5 -21.5t-125 21t-112.5 61.5t-82.5 107.5t-31 151q0 85 32.5 155t84 112t111.5 65t119 23zM386 640h-1q-110 0 -173.5 -85t-63.5 -217
q0 -129 71.5 -225t185.5 -96q61 0 107.5 27t73 73t39 99t12.5 113q0 128 -71.5 219.5t-179.5 91.5zM516 819l25 -19q-48 -83 -98 -83q-19 0 -62 24q-35 18 -45 18q-24 0 -59 -46l-24 19q50 88 96 88q17 0 56 -21q37 -22 52 -22q26 0 59 42z" />
    <glyph glyph-name="Odieresis" unicode="&#xd6;" horiz-adv-x="785" 
d="M390 677h1q49 0 97.5 -12.5t94 -40t80.5 -66t56.5 -95t22.5 -122.5q1 -90 -29.5 -161.5t-82 -113.5t-112 -63.5t-124.5 -21.5t-125 21t-112.5 61.5t-82.5 107.5t-31 151q0 85 32.5 155t84 112t111.5 65t119 23zM386 640h-1q-110 0 -173.5 -85t-63.5 -217
q0 -129 71.5 -225t185.5 -96q61 0 107.5 27t73 73t39 99t12.5 113q0 128 -71.5 219.5t-179.5 91.5zM294 823l7 3q10 -5 25.5 -22.5t21.5 -31.5l-1 -7q-6 -13 -22 -30t-27 -24l-8 -2q-29 15 -49 53l2 8q23 34 51 53zM491 823l7 3q9 -5 25 -22.5t23 -31.5l-2 -7
q-6 -12 -22 -29.5t-26 -24.5l-9 -2q-29 17 -48 53l1 8q21 32 51 53z" />
    <glyph glyph-name="multiply" unicode="&#xd7;" horiz-adv-x="590" 
d="M507 406l-172 -176l170 -172l-37 -45l-173 176l-172 -176l-38 44l169 173l-171 174l39 43l173 -177l175 179z" />
    <glyph glyph-name="Oslash" unicode="&#xd8;" horiz-adv-x="785" 
d="M591 618l59 77l28 -26l-56 -73q118 -98 119 -253q1 -91 -30 -163t-82.5 -114t-111 -63.5t-121.5 -21.5q-117 0 -208 58l-68 -90l-27 28l66 86q-116 100 -116 260q0 86 33 156t85 111.5t111.5 64t117.5 22.5q114 0 201 -59zM214 126l336 444q-63 70 -165 70
q-109 0 -173.5 -87t-64.5 -222q0 -118 65 -205h2zM574 537l-338 -444q27 -33 72.5 -54.5t93.5 -21.5q50 0 90 18t67 48.5t45 71.5t26 85t8 91q0 117 -62 206h-2z" />
    <glyph glyph-name="Ugrave" unicode="&#xd9;" horiz-adv-x="735" 
d="M26 635l8 24q20 0 60 -1t59 -1t56.5 1t52.5 1l-6 -24l-54 -31q-1 -124 -1 -384q0 -64 29 -107q54 -75 164 -75q104 0 158 70q33 45 36 128q3 121 -1 368l-73 31l7 24q17 0 49 -1t47 -1q20 0 60 1t57 1l-6 -24l-81 -31q-3 -24 -12 -356q-2 -97 -41 -156
q-70 -109 -222 -109q-165 0 -230 112q-29 47 -31 143q-1 79 -0.5 146t0 130t-1.5 91zM449 726l-15 -25l-196 73l-2 13q28 42 57 53z" />
    <glyph glyph-name="Uacute" unicode="&#xda;" horiz-adv-x="735" 
d="M26 635l8 24q20 0 60 -1t59 -1t56.5 1t52.5 1l-6 -24l-54 -31q-1 -124 -1 -384q0 -64 29 -107q54 -75 164 -75q104 0 158 70q33 45 36 128q3 121 -1 368l-73 31l7 24q17 0 49 -1t47 -1q20 0 60 1t57 1l-6 -24l-81 -31q-3 -24 -12 -356q-2 -97 -41 -156
q-70 -109 -222 -109q-165 0 -230 112q-29 47 -31 143q-1 79 -0.5 146t0 130t-1.5 91zM324 701l-13 26l155 112q16 -4 34 -19.5t28 -31.5l-2 -13z" />
    <glyph glyph-name="Ucircumflex" unicode="&#xdb;" horiz-adv-x="735" 
d="M26 635l8 24q20 0 60 -1t59 -1t56.5 1t52.5 1l-6 -24l-54 -31q-1 -124 -1 -384q0 -64 29 -107q54 -75 164 -75q104 0 158 70q33 45 36 128q3 121 -1 368l-73 31l7 24q17 0 49 -1t47 -1q20 0 60 1t57 1l-6 -24l-81 -31q-3 -24 -12 -356q-2 -97 -41 -156
q-70 -109 -222 -109q-165 0 -230 112q-29 47 -31 143q-1 79 -0.5 146t0 130t-1.5 91zM377 835h20l131 -107l-17 -26l-124 61l-126 -61l-15 26z" />
    <glyph glyph-name="Udieresis" unicode="&#xdc;" horiz-adv-x="735" 
d="M26 635l8 24q20 0 60 -1t59 -1t56.5 1t52.5 1l-6 -24l-54 -31q-1 -124 -1 -384q0 -64 29 -107q54 -75 164 -75q104 0 158 70q33 45 36 128q3 121 -1 368l-73 31l7 24q17 0 49 -1t47 -1q20 0 60 1t57 1l-6 -24l-81 -31q-3 -24 -12 -356q-2 -97 -41 -156
q-70 -109 -222 -109q-165 0 -230 112q-29 47 -31 143q-1 79 -0.5 146t0 130t-1.5 91zM287 823l7 3q10 -5 25.5 -22.5t21.5 -31.5l-1 -7q-6 -13 -22 -30t-27 -24l-8 -2q-29 15 -49 53l2 8q23 34 51 53zM484 823l7 3q9 -5 25 -22.5t23 -31.5l-2 -7q-6 -12 -22 -29.5t-26 -24.5
l-9 -2q-29 17 -48 53l1 8q21 32 51 53z" />
    <glyph glyph-name="Yacute" unicode="&#xdd;" horiz-adv-x="631" 
d="M6 636l10 23q20 0 59 -0.5t58 -0.5q58 0 84 1l-6 -25l-23 -21q10 -21 153 -276h3l142 271l-35 26l9 25q20 -1 62 -1q20 0 56 0.5t55 0.5l-9 -25l-46 -17q-33 -9 -51 -36q-75 -114 -157 -267q-9 -18 -9 -37q0 -202 3 -223l118 -31l-8 -24q-21 0 -73.5 1t-84.5 1
q-31 0 -84 -1t-74 -1l7 22l101 33q7 63 7 213q0 18 -10 37l-167 287q-27 29 -90 45zM279 701l-13 26l155 112q16 -4 34 -19.5t28 -31.5l-2 -13z" />
    <glyph glyph-name="Thorn" unicode="&#xde;" horiz-adv-x="564" 
d="M50 22l69 28q4 16 4 294v267l-76 26l8 22q19 0 55.5 -0.5t54.5 -0.5q21 0 62.5 0.5t63.5 0.5l-8 -23l-71 -26v-88q26 2 69 4q109 3 177.5 -40t68.5 -136q0 -55 -22.5 -95.5t-58 -60.5t-67.5 -28.5t-61 -8.5q-32 0 -51 8l-8 27h15q78 0 115.5 43.5t37.5 107.5
q0 73 -44 110.5t-120 37.5q-29 0 -51 -6v-127q0 -67 0.5 -122t1.5 -86.5t2 -53l1.5 -32t0.5 -13.5l89 -28l-9 -24q-22 0 -65 1t-64 1q-19 0 -61 -1t-66 -1z" />
    <glyph glyph-name="germandbls" unicode="&#xdf;" horiz-adv-x="553" 
d="M43 439h54q4 134 75 208q61 63 151 63q71 0 116.5 -41.5t45.5 -106.5q0 -20 -3 -29q-47 -32 -79.5 -72.5t-32.5 -74.5q0 -18 11 -33t46 -44q49 -41 71 -76t22 -78q0 -78 -57.5 -123t-136.5 -45q-47 0 -80 13q8 48 24 91l14 8q18 -31 38 -77q4 -1 14 -1q36 0 71 28t35 77
q0 27 -13.5 49t-46.5 51l-69 63q-19 19 -19 44q0 71 113 184q7 19 7 28q0 61 -30 95t-74 34q-58 0 -90.5 -51.5t-35.5 -154.5q-3 -74 -3 -208q0 -182 4 -212l20 -31l-4 -18q-20 1 -68 1q-15 0 -50 -0.5t-57 -0.5l6 21l60 28q5 30 5 204v141l-69 12z" />
    <glyph glyph-name="agrave" unicode="&#xe0;" horiz-adv-x="455" 
d="M285 257v22q-1 72 -27 98.5t-72 26.5q-30 0 -61 -18q-5 -68 -12 -101l-11 -5q-9 5 -32.5 36t-30.5 50q15 14 52.5 35.5t68.5 33.5q45 17 70 17q70 0 103.5 -47.5t33.5 -105.5q0 -34 -1 -111.5t-1 -111.5q25 -41 78 -58l-7 -16q-21 -13 -50 -13q-79 0 -99 57h-2
q-60 -59 -121 -59q-60 0 -93 37t-33 80q0 61 40 81q64 39 207 72zM125 123v-1q0 -40 25.5 -59t55.5 -19q38 0 68 31q9 10 9 23l2 127q-85 -23 -125 -47q-20 -11 -27.5 -22.5t-7.5 -32.5zM258 515l-23 -22l-146 152v15q37 18 83 15z" />
    <glyph glyph-name="aacute" unicode="&#xe1;" horiz-adv-x="455" 
d="M285 257v22q-1 72 -27 98.5t-72 26.5q-30 0 -61 -18q-5 -68 -12 -101l-11 -5q-9 5 -32.5 36t-30.5 50q15 14 52.5 35.5t68.5 33.5q45 17 70 17q70 0 103.5 -47.5t33.5 -105.5q0 -34 -1 -111.5t-1 -111.5q25 -41 78 -58l-7 -16q-21 -13 -50 -13q-79 0 -99 57h-2
q-60 -59 -121 -59q-60 0 -93 37t-33 80q0 61 40 81q64 39 207 72zM125 123v-1q0 -40 25.5 -59t55.5 -19q38 0 68 31q9 10 9 23l2 127q-85 -23 -125 -47q-20 -11 -27.5 -22.5t-7.5 -32.5zM196 493l-23 21l96 161q37 0 76 -18v-12z" />
    <glyph glyph-name="acircumflex" unicode="&#xe2;" horiz-adv-x="455" 
d="M285 257v22q-1 72 -27 98.5t-72 26.5q-30 0 -61 -18q-5 -68 -12 -101l-11 -5q-9 5 -32.5 36t-30.5 50q15 14 52.5 35.5t68.5 33.5q45 17 70 17q70 0 103.5 -47.5t33.5 -105.5q0 -34 -1 -111.5t-1 -111.5q25 -41 78 -58l-7 -16q-21 -13 -50 -13q-79 0 -99 57h-2
q-60 -59 -121 -59q-60 0 -93 37t-33 80q0 61 40 81q64 39 207 72zM125 123v-1q0 -40 25.5 -59t55.5 -19q38 0 68 31q9 10 9 23l2 127q-85 -23 -125 -47q-20 -11 -27.5 -22.5t-7.5 -32.5zM200 671l21 5l100 -161l-24 -20l-86 94l-87 -94l-23 20z" />
    <glyph glyph-name="atilde" unicode="&#xe3;" horiz-adv-x="455" 
d="M285 257v22q-1 72 -27 98.5t-72 26.5q-30 0 -61 -18q-5 -68 -12 -101l-11 -5q-9 5 -32.5 36t-30.5 50q15 14 52.5 35.5t68.5 33.5q45 17 70 17q70 0 103.5 -47.5t33.5 -105.5q0 -34 -1 -111.5t-1 -111.5q25 -41 78 -58l-7 -16q-21 -13 -50 -13q-79 0 -99 57h-2
q-60 -59 -121 -59q-60 0 -93 37t-33 80q0 61 40 81q64 39 207 72zM125 123v-1q0 -40 25.5 -59t55.5 -19q38 0 68 31q9 10 9 23l2 127q-85 -23 -125 -47q-20 -11 -27.5 -22.5t-7.5 -32.5zM333 626l24 -16q-46 -85 -95 -85q-15 0 -61 24q-31 17 -43 17q-24 0 -59 -46l-23 19
q52 86 95 86q15 0 54 -21q33 -21 49 -21q29 0 59 43z" />
    <glyph glyph-name="adieresis" unicode="&#xe4;" horiz-adv-x="455" 
d="M285 257v22q-1 72 -27 98.5t-72 26.5q-30 0 -61 -18q-5 -68 -12 -101l-11 -5q-9 5 -32.5 36t-30.5 50q15 14 52.5 35.5t68.5 33.5q45 17 70 17q70 0 103.5 -47.5t33.5 -105.5q0 -34 -1 -111.5t-1 -111.5q25 -41 78 -58l-7 -16q-21 -13 -50 -13q-79 0 -99 57h-2
q-60 -59 -121 -59q-60 0 -93 37t-33 80q0 61 40 81q64 39 207 72zM125 123v-1q0 -40 25.5 -59t55.5 -19q38 0 68 31q9 10 9 23l2 127q-85 -23 -125 -47q-20 -11 -27.5 -22.5t-7.5 -32.5zM121 641l8 2q9 -5 24 -22.5t22 -30.5l-2 -7q-12 -27 -47 -54l-8 -2q-29 18 -48 53l2 8
q21 35 49 53zM300 641l7 2q8 -5 24 -22.5t23 -30.5l-2 -7q-10 -26 -48 -54l-8 -2q-12 9 -26.5 25t-20.5 28l1 8q23 35 50 53z" />
    <glyph glyph-name="aring" unicode="&#xe5;" horiz-adv-x="455" 
d="M285 257v22q-1 72 -27 98.5t-72 26.5q-30 0 -61 -18q-5 -68 -12 -101l-11 -5q-9 5 -32.5 36t-30.5 50q15 14 52.5 35.5t68.5 33.5q45 17 70 17q70 0 103.5 -47.5t33.5 -105.5q0 -34 -1 -111.5t-1 -111.5q25 -41 78 -58l-7 -16q-21 -13 -50 -13q-79 0 -99 57h-2
q-60 -59 -121 -59q-60 0 -93 37t-33 80q0 61 40 81q64 39 207 72zM125 123v-1q0 -40 25.5 -59t55.5 -19q38 0 68 31q9 10 9 23l2 127q-85 -23 -125 -47q-20 -11 -27.5 -22.5t-7.5 -32.5zM215 641h-1q-20 0 -32.5 -14.5t-12.5 -37.5q0 -24 13 -38t33 -14t33 14t13 38t-13 38
t-33 14zM215 676h1q36 0 62.5 -24.5t26.5 -62.5q0 -39 -27 -62.5t-63 -23.5q-37 0 -63.5 23t-26.5 61q0 40 27 64.5t63 24.5z" />
    <glyph glyph-name="ae" unicode="&#xe6;" horiz-adv-x="707" 
d="M114 286l-10 -6q-11 8 -33.5 38.5t-28.5 48.5q14 13 52.5 34t65.5 32q41 17 72 17q88 0 120 -75q63 75 156 75q70 0 119 -44t49 -126q0 -31 -10 -35q-38 -21 -95 -21h-190v-12q0 -86 44 -132.5t122 -46.5q12 0 32 9q46 35 76 51q5 -3 7 -13q-5 -15 -24.5 -41t-32.5 -34
q-48 -18 -100 -18q-59 0 -107 24t-70 66q-93 -90 -166 -90q-59 0 -92 37t-33 80q0 55 41 80q18 12 87.5 36.5t129.5 34.5v19q0 73 -27 100.5t-74 27.5q-32 0 -70 -22q0 -40 -10 -94zM382 262h196q8 24 8 45q0 42 -21.5 74t-66.5 32q-41 0 -69.5 -28.5t-38 -60.5t-8.5 -62z
M200 44h1q24 0 56 16t56 46q-18 43 -18 116q-105 -22 -137 -43q-20 -12 -27 -25t-7 -36q0 -38 24.5 -56t51.5 -18z" />
    <glyph glyph-name="ccedilla" unicode="&#xe7;" horiz-adv-x="454" 
d="M194 -92l57 79v1q-97 7 -155.5 67.5t-58.5 159.5q0 112 78.5 174.5t176.5 62.5q41 0 79 -12.5t51 -25.5q-17 -70 -36 -105l-16 -7q-16 39 -33 107q-10 7 -38 7q-78 0 -123.5 -55t-45.5 -135q0 -82 48.5 -136t129.5 -54q11 0 29 9q54 43 82 56l8 -13q-6 -20 -28.5 -48
t-36.5 -37q-28 -9 -72 -14l-31 -45q35 -18 47.5 -34t12.5 -39q0 -30 -28 -54.5t-81 -40.5l-14 27q61 27 61 55q0 14 -13.5 24t-49.5 26z" />
    <glyph glyph-name="egrave" unicode="&#xe8;" horiz-adv-x="454" 
d="M319 233h-190q-1 -5 -1 -14q0 -83 45.5 -131.5t114.5 -48.5q20 0 34 6q55 39 84 54l5 -16q-4 -15 -24.5 -39.5t-32.5 -32.5q-51 -24 -105 -24q-94 0 -153 61t-59 163q0 104 64.5 172.5t152.5 68.5q72 0 120.5 -46t48.5 -127q0 -25 -10 -32q-35 -14 -94 -14zM130 271h199
q5 12 5 30q0 48 -23.5 82t-64.5 34q-55 0 -85.5 -51t-30.5 -95zM289 515l-23 -22l-146 152v15q37 18 83 15z" />
    <glyph glyph-name="eacute" unicode="&#xe9;" horiz-adv-x="454" 
d="M319 233h-190q-1 -5 -1 -14q0 -83 45.5 -131.5t114.5 -48.5q20 0 34 6q55 39 84 54l5 -16q-4 -15 -24.5 -39.5t-32.5 -32.5q-51 -24 -105 -24q-94 0 -153 61t-59 163q0 104 64.5 172.5t152.5 68.5q72 0 120.5 -46t48.5 -127q0 -25 -10 -32q-35 -14 -94 -14zM130 271h199
q5 12 5 30q0 48 -23.5 82t-64.5 34q-55 0 -85.5 -51t-30.5 -95zM226 493l-23 21l96 161q37 0 76 -18v-12z" />
    <glyph glyph-name="ecircumflex" unicode="&#xea;" horiz-adv-x="454" 
d="M319 233h-190q-1 -5 -1 -14q0 -83 45.5 -131.5t114.5 -48.5q20 0 34 6q55 39 84 54l5 -16q-4 -15 -24.5 -39.5t-32.5 -32.5q-51 -24 -105 -24q-94 0 -153 61t-59 163q0 104 64.5 172.5t152.5 68.5q72 0 120.5 -46t48.5 -127q0 -25 -10 -32q-35 -14 -94 -14zM130 271h199
q5 12 5 30q0 48 -23.5 82t-64.5 34q-55 0 -85.5 -51t-30.5 -95zM237 671l21 5l100 -161l-24 -20l-86 94l-87 -94l-23 20z" />
    <glyph glyph-name="edieresis" unicode="&#xeb;" horiz-adv-x="454" 
d="M319 233h-190q-1 -5 -1 -14q0 -83 45.5 -131.5t114.5 -48.5q20 0 34 6q55 39 84 54l5 -16q-4 -15 -24.5 -39.5t-32.5 -32.5q-51 -24 -105 -24q-94 0 -153 61t-59 163q0 104 64.5 172.5t152.5 68.5q72 0 120.5 -46t48.5 -127q0 -25 -10 -32q-35 -14 -94 -14zM130 271h199
q5 12 5 30q0 48 -23.5 82t-64.5 34q-55 0 -85.5 -51t-30.5 -95zM154 641l8 2q9 -5 24 -22.5t22 -30.5l-2 -7q-12 -27 -47 -54l-8 -2q-29 18 -48 53l2 8q21 35 49 53zM333 641l7 2q8 -5 24 -22.5t23 -30.5l-2 -7q-10 -26 -48 -54l-8 -2q-12 9 -26.5 25t-20.5 28l1 8
q23 35 50 53z" />
    <glyph glyph-name="igrave" unicode="&#xec;" horiz-adv-x="268" 
d="M41 404l5 19q72 23 133 29v-202q0 -142 2 -198l71 -30l-7 -23q-17 0 -54.5 0.5t-57.5 0.5q-15 0 -49.5 -0.5t-54.5 -0.5l7 23l57 30q2 78 2 200v126zM169 515l-23 -22l-146 152v15q37 18 83 15z" />
    <glyph glyph-name="iacute" unicode="&#xed;" horiz-adv-x="268" 
d="M41 404l5 19q72 23 133 29v-202q0 -142 2 -198l71 -30l-7 -23q-17 0 -54.5 0.5t-57.5 0.5q-15 0 -49.5 -0.5t-54.5 -0.5l7 23l57 30q2 78 2 200v126zM112 493l-23 21l96 161q37 0 76 -18v-12z" />
    <glyph glyph-name="icircumflex" unicode="&#xee;" horiz-adv-x="268" 
d="M41 404l5 19q72 23 133 29v-202q0 -142 2 -198l71 -30l-7 -23q-17 0 -54.5 0.5t-57.5 0.5q-15 0 -49.5 -0.5t-54.5 -0.5l7 23l57 30q2 78 2 200v126zM114 671l21 5l100 -161l-24 -20l-86 94l-87 -94l-23 20z" />
    <glyph glyph-name="idieresis" unicode="&#xef;" horiz-adv-x="268" 
d="M41 404l5 19q72 23 133 29v-202q0 -142 2 -198l71 -30l-7 -23q-17 0 -54.5 0.5t-57.5 0.5q-15 0 -49.5 -0.5t-54.5 -0.5l7 23l57 30q2 78 2 200v126zM33 641l8 2q9 -5 24 -22.5t22 -30.5l-2 -7q-12 -27 -47 -54l-8 -2q-29 18 -48 53l2 8q21 35 49 53zM212 641l7 2
q8 -5 24 -22.5t23 -30.5l-2 -7q-10 -26 -48 -54l-8 -2q-12 9 -26.5 25t-20.5 28l1 8q23 35 50 53z" />
    <glyph glyph-name="eth" unicode="&#xf0;" horiz-adv-x="512" 
d="M96 681l14 29q107 -25 188 -83l122 66l22 -28l-113 -63q65 -57 105 -144.5t40 -189.5q0 -138 -60.5 -209.5t-160.5 -71.5q-87 0 -151 60t-64 166q0 110 68 174.5t154 64.5q65 0 107 -37l2 1q-30 95 -93 157l-145 -78l-25 27l142 78q-55 47 -152 81zM261 416h-1
q-60 0 -93 -59t-33 -132q0 -79 32 -141.5t94 -62.5q35 0 60 20.5t38 55t18.5 71t5.5 76.5q0 94 -37 135q-32 37 -84 37z" />
    <glyph glyph-name="ntilde" unicode="&#xf1;" horiz-adv-x="557" 
d="M96 283v88l-53 23l7 21q14 8 61 22t69 15l-6 -79h2q97 79 158 79q71 0 103 -47t32 -112v-227q0 -13 14 -19l59 -25l-7 -23q-12 0 -51.5 0.5t-60.5 0.5q-14 0 -43.5 -0.5t-45.5 -0.5l7 25l40 29q4 60 4 232q0 54 -26.5 80.5t-67.5 26.5q-29 0 -59.5 -16.5t-51.5 -38.5
q0 -267 2 -288l56 -26l-6 -24q-26 1 -96 1q-18 0 -53.5 -0.5t-51.5 -0.5l7 23l55 28q3 24 3 233zM394 626l24 -16q-46 -85 -95 -85q-15 0 -61 24q-31 17 -43 17q-25 0 -59 -46l-23 19q52 86 95 86q16 0 54 -21q33 -21 49 -21q29 0 59 43z" />
    <glyph glyph-name="ograve" unicode="&#xf2;" horiz-adv-x="525" 
d="M265 452h1q94 0 158 -64.5t64 -163.5q0 -106 -64 -171.5t-161 -65.5q-90 0 -157.5 61.5t-67.5 165.5q0 107 71 172.5t156 65.5zM262 417h-1q-60 0 -93 -58t-33 -137q0 -77 36.5 -138.5t99.5 -61.5q43 0 71.5 31.5t38.5 72.5t10 89q0 78 -34 140t-95 62zM309 515l-23 -22
l-146 152v15q37 18 83 15z" />
    <glyph glyph-name="oacute" unicode="&#xf3;" horiz-adv-x="525" 
d="M265 452h1q94 0 158 -64.5t64 -163.5q0 -106 -64 -171.5t-161 -65.5q-90 0 -157.5 61.5t-67.5 165.5q0 107 71 172.5t156 65.5zM262 417h-1q-60 0 -93 -58t-33 -137q0 -77 36.5 -138.5t99.5 -61.5q43 0 71.5 31.5t38.5 72.5t10 89q0 78 -34 140t-95 62zM248 493l-23 21
l96 161q37 0 76 -18v-12z" />
    <glyph glyph-name="ocircumflex" unicode="&#xf4;" horiz-adv-x="525" 
d="M265 452h1q94 0 158 -64.5t64 -163.5q0 -106 -64 -171.5t-161 -65.5q-90 0 -157.5 61.5t-67.5 165.5q0 107 71 172.5t156 65.5zM262 417h-1q-60 0 -93 -58t-33 -137q0 -77 36.5 -138.5t99.5 -61.5q43 0 71.5 31.5t38.5 72.5t10 89q0 78 -34 140t-95 62zM252 671l21 5
l100 -161l-24 -20l-86 94l-87 -94l-23 20z" />
    <glyph glyph-name="otilde" unicode="&#xf5;" horiz-adv-x="525" 
d="M265 452h1q94 0 158 -64.5t64 -163.5q0 -106 -64 -171.5t-161 -65.5q-90 0 -157.5 61.5t-67.5 165.5q0 107 71 172.5t156 65.5zM262 417h-1q-60 0 -93 -58t-33 -137q0 -77 36.5 -138.5t99.5 -61.5q43 0 71.5 31.5t38.5 72.5t10 89q0 78 -34 140t-95 62zM375 626l24 -16
q-46 -85 -95 -85q-15 0 -61 24q-31 17 -43 17q-24 0 -59 -46l-23 19q52 86 95 86q15 0 54 -21q33 -21 49 -21q29 0 59 43z" />
    <glyph glyph-name="odieresis" unicode="&#xf6;" horiz-adv-x="525" 
d="M265 452h1q94 0 158 -64.5t64 -163.5q0 -106 -64 -171.5t-161 -65.5q-90 0 -157.5 61.5t-67.5 165.5q0 107 71 172.5t156 65.5zM262 417h-1q-60 0 -93 -58t-33 -137q0 -77 36.5 -138.5t99.5 -61.5q43 0 71.5 31.5t38.5 72.5t10 89q0 78 -34 140t-95 62zM172 641l8 2
q9 -5 24 -22.5t22 -30.5l-2 -7q-12 -27 -47 -54l-8 -2q-29 18 -48 53l2 8q21 35 49 53zM351 641l7 2q8 -5 24 -22.5t23 -30.5l-2 -7q-10 -26 -48 -54l-8 -2q-12 9 -26.5 25t-20.5 28l1 8q23 35 50 53z" />
    <glyph glyph-name="divide" unicode="&#xf7;" horiz-adv-x="590" 
d="M77 261h448l-12 -51h-449zM294 142h8q8 -3 23 -20t21 -30l-2 -8q-6 -12 -21.5 -29t-26.5 -23l-7 -2q-30 17 -44 51l1 9q25 35 48 52zM298 439l5 1q9 -4 24 -20.5t21 -30.5l-1 -7q-6 -12 -22 -28.5t-26 -22.5l-7 -3q-13 7 -26.5 22.5t-18.5 28.5l1 8q20 30 50 52z" />
    <glyph glyph-name="oslash" unicode="&#xf8;" horiz-adv-x="526" 
d="M392 414l41 57l26 -22l-40 -56q70 -65 70 -169q0 -106 -64.5 -171.5t-161.5 -65.5q-66 0 -121 34l-48 -64l-25 25l44 59q-34 27 -55 72.5t-21 100.5q0 109 71 173.5t157 64.5q72 0 127 -38zM159 98l195 269q-35 50 -91 50q-64 0 -99.5 -58.5t-35.5 -138.5q0 -74 29 -122
h2zM374 335l-195 -267q35 -46 93 -46q64 0 95 59t31 138q0 68 -23 115z" />
    <glyph glyph-name="ugrave" unicode="&#xf9;" horiz-adv-x="543" 
d="M84 384l-57 25l10 20q50 16 136 16q-7 -79 -7 -293q0 -47 18 -73q27 -29 73 -29q31 0 62.5 16t46.5 42v262q-5 12 -18.5 19.5t-50.5 20.5l10 20q67 17 146 15q-3 -47 -3 -369q25 -43 78 -57l-6 -17q-22 -13 -57 -13q-81 0 -96 75h-2q-71 -77 -146 -77q-63 0 -100 37
q-40 39 -40 124q0 33 1.5 116.5t1.5 119.5zM297 515l-23 -22l-146 152v15q37 18 83 15z" />
    <glyph glyph-name="uacute" unicode="&#xfa;" horiz-adv-x="543" 
d="M84 384l-57 25l10 20q50 16 136 16q-7 -79 -7 -293q0 -47 18 -73q27 -29 73 -29q31 0 62.5 16t46.5 42v262q-5 12 -18.5 19.5t-50.5 20.5l10 20q67 17 146 15q-3 -47 -3 -369q25 -43 78 -57l-6 -17q-22 -13 -57 -13q-81 0 -96 75h-2q-71 -77 -146 -77q-63 0 -100 37
q-40 39 -40 124q0 33 1.5 116.5t1.5 119.5zM244 493l-23 21l96 161q37 0 76 -18v-12z" />
    <glyph glyph-name="ucircumflex" unicode="&#xfb;" horiz-adv-x="543" 
d="M84 384l-57 25l10 20q50 16 136 16q-7 -79 -7 -293q0 -47 18 -73q27 -29 73 -29q31 0 62.5 16t46.5 42v262q-5 12 -18.5 19.5t-50.5 20.5l10 20q67 17 146 15q-3 -47 -3 -369q25 -43 78 -57l-6 -17q-22 -13 -57 -13q-81 0 -96 75h-2q-71 -77 -146 -77q-63 0 -100 37
q-40 39 -40 124q0 33 1.5 116.5t1.5 119.5zM252 671l21 5l100 -161l-24 -20l-86 94l-87 -94l-23 20z" />
    <glyph glyph-name="udieresis" unicode="&#xfc;" horiz-adv-x="543" 
d="M84 384l-57 25l10 20q50 16 136 16q-7 -79 -7 -293q0 -47 18 -73q27 -29 73 -29q31 0 62.5 16t46.5 42v262q-5 12 -18.5 19.5t-50.5 20.5l10 20q67 17 146 15q-3 -47 -3 -369q25 -43 78 -57l-6 -17q-22 -13 -57 -13q-81 0 -96 75h-2q-71 -77 -146 -77q-63 0 -100 37
q-40 39 -40 124q0 33 1.5 116.5t1.5 119.5zM168 641l8 2q9 -5 24 -22.5t22 -30.5l-2 -7q-12 -27 -47 -54l-8 -2q-29 18 -48 53l2 8q21 35 49 53zM347 641l7 2q8 -5 24 -22.5t23 -30.5l-2 -7q-10 -26 -48 -54l-8 -2q-12 9 -26.5 25t-20.5 28l1 8q23 35 50 53z" />
    <glyph glyph-name="yacute" unicode="&#xfd;" horiz-adv-x="458" 
d="M310 416l8 24q10 0 33.5 -0.5t34.5 -0.5q16 0 44.5 0.5t40.5 0.5l-6 -23q-39 -18 -61 -42q-17 -36 -48 -110l-79 -190.5l-84 -202.5q-3 -12 -12 -52.5t-14 -60.5q-7 -4 -23 -4q-21 0 -43 11t-29 21q10 24 87 111q21 42 51 110q-4 8 -31 78.5l-61 158.5t-51 128
q-17 25 -70 44l9 23q31 -1 94 -1t95 1l-7 -24l-32 -25q9 -27 99 -275h2q74 192 99 274zM232 493l-23 21l96 161q37 0 76 -18v-12z" />
    <glyph glyph-name="thorn" unicode="&#xfe;" horiz-adv-x="533" 
d="M77 105v292q0 190 -3 239l-59 24l8 22q64 17 141 28q-3 -140 -3 -316l2 -1q91 59 137 59q31 0 64 -13.5t63 -38.5t49 -68t19 -96q0 -64 -25 -115t-63.5 -78.5t-78 -41.5t-76.5 -14q-17 0 -44 11.5t-45 24.5l-2 -1q0 -53 4 -197l91 -31l-9 -22q-21 0 -63.5 0.5t-65.5 0.5
q-17 0 -54 -0.5t-55 -0.5l9 24l55 26q4 204 4 283zM161 356v-292q38 -29 81 -29q65 0 112 52t47 136q0 72 -38 121t-103 49q-48 0 -99 -37z" />
    <glyph glyph-name="ydieresis" unicode="&#xff;" horiz-adv-x="458" 
d="M310 416l8 24q10 0 33.5 -0.5t34.5 -0.5q16 0 44.5 0.5t40.5 0.5l-6 -23q-39 -18 -61 -42q-17 -36 -48 -110l-79 -190.5l-84 -202.5q-3 -12 -12 -52.5t-14 -60.5q-7 -4 -23 -4q-21 0 -43 11t-29 21q10 24 87 111q21 42 51 110q-4 8 -31 78.5l-61 158.5t-51 128
q-17 25 -70 44l9 23q31 -1 94 -1t95 1l-7 -24l-32 -25q9 -27 99 -275h2q74 192 99 274zM151 641l8 2q9 -5 24 -22.5t22 -30.5l-2 -7q-12 -27 -47 -54l-8 -2q-29 18 -48 53l2 8q21 35 49 53zM330 641l7 2q8 -5 24 -22.5t23 -30.5l-2 -7q-10 -26 -48 -54l-8 -2q-12 9 -26.5 25
t-20.5 28l1 8q23 35 50 53z" />
    <glyph glyph-name="Amacron" unicode="&#x100;" horiz-adv-x="710" 
d="M297 633l75 49l6 -5q-1 -24 14 -69q28 -83 209 -530q14 -19 32.5 -29.5t68.5 -26.5l-7 -23q-18 0 -58 0.5t-60 0.5q-17 0 -52 -0.5t-54 -0.5l6 21l37 29q-8 28 -75 193q-94 -7 -223 -5q-51 -130 -68 -181l88 -34l-6 -23q-17 0 -58 0.5t-60 0.5q-18 0 -52 -0.5t-51 -0.5
l6 24l70 33q25 51 94 213t125 306q7 18 3 31zM331 539h-2l-50.5 -133t-43.5 -118q12 0 89.5 -2t100.5 -2zM454 718h-222l15 56h222z" />
    <glyph glyph-name="amacron" unicode="&#x101;" horiz-adv-x="455" 
d="M285 257v22q-1 72 -27 98.5t-72 26.5q-30 0 -61 -18q-5 -68 -12 -101l-11 -5q-9 5 -32.5 36t-30.5 50q15 14 52.5 35.5t68.5 33.5q45 17 70 17q70 0 103.5 -47.5t33.5 -105.5q0 -34 -1 -111.5t-1 -111.5q25 -41 78 -58l-7 -16q-21 -13 -50 -13q-79 0 -99 57h-2
q-60 -59 -121 -59q-60 0 -93 37t-33 80q0 61 40 81q64 39 207 72zM125 123v-1q0 -40 25.5 -59t55.5 -19q38 0 68 31q9 10 9 23l2 127q-85 -23 -125 -47q-20 -11 -27.5 -22.5t-7.5 -32.5zM310 547h-212l16 56h212z" />
    <glyph glyph-name="Abreve" unicode="&#x102;" horiz-adv-x="710" 
d="M297 633l75 49l6 -5q-1 -24 14 -69q28 -83 209 -530q14 -19 32.5 -29.5t68.5 -26.5l-7 -23q-18 0 -58 0.5t-60 0.5q-17 0 -52 -0.5t-54 -0.5l6 21l37 29q-8 28 -75 193q-94 -7 -223 -5q-51 -130 -68 -181l88 -34l-6 -23q-17 0 -58 0.5t-60 0.5q-18 0 -52 -0.5t-51 -0.5
l6 24l70 33q25 51 94 213t125 306q7 18 3 31zM331 539h-2l-50.5 -133t-43.5 -118q12 0 89.5 -2t100.5 -2zM347 713h-1q-59 0 -88 33.5t-30 87.5l32 8q15 -66 87 -66q30 0 49.5 10t26.5 21t13 28l33 7q-2 -58 -33 -93.5t-89 -35.5z" />
    <glyph glyph-name="abreve" unicode="&#x103;" horiz-adv-x="455" 
d="M285 257v22q-1 72 -27 98.5t-72 26.5q-30 0 -61 -18q-5 -68 -12 -101l-11 -5q-9 5 -32.5 36t-30.5 50q15 14 52.5 35.5t68.5 33.5q45 17 70 17q70 0 103.5 -47.5t33.5 -105.5q0 -34 -1 -111.5t-1 -111.5q25 -41 78 -58l-7 -16q-21 -13 -50 -13q-79 0 -99 57h-2
q-60 -59 -121 -59q-60 0 -93 37t-33 80q0 61 40 81q64 39 207 72zM125 123v-1q0 -40 25.5 -59t55.5 -19q38 0 68 31q9 10 9 23l2 127q-85 -23 -125 -47q-20 -11 -27.5 -22.5t-7.5 -32.5zM108 643l33 9q16 -78 71 -78q21 0 35.5 7t22.5 21t11 21t6 20l35 9q-1 -61 -29 -99
t-84 -38q-55 0 -78.5 36.5t-22.5 91.5z" />
    <glyph glyph-name="Aogonek" unicode="&#x104;" horiz-adv-x="710" 
d="M331 539h-2l-94 -251q13 0 90 -2t100 -2zM537 -129l10 -25q-44 -44 -100 -44q-33 0 -57 19.5t-24 54.5q0 25 11 48t36 46t40.5 34.5l48.5 34.5l10 7q-35 101 -73 196q-92 -7 -222 -5q-50 -124 -69 -181l89 -33l-6 -24q-72 2 -119 2q-33 0 -103 -2l7 24l70 33
q94 198 219 519q6 19 3 31l-11 27l76 49l5 -5q0 -24 14 -69q57 -156 210 -529q13 -19 31 -29t69 -27l-7 -24q-68 2 -117 2q-16 0 -34.5 -0.5t-31.5 -0.5q-78 -54 -78 -103q0 -17 11.5 -27.5t33.5 -10.5q29 0 58 12z" />
    <glyph glyph-name="aogonek" unicode="&#x105;" horiz-adv-x="458" 
d="M125 123v-1q0 -40 26 -59t56 -19q38 0 69 33q9 11 9 23l2 125q-86 -23 -127 -47q-20 -11 -27.5 -22.5t-7.5 -32.5zM372 -126l9 -24q-43 -45 -99 -45q-32 0 -56.5 19t-24.5 53q0 67 107 140q-14 14 -19 31h-2q-64 -61 -123 -61q-60 0 -93 37t-33 79q0 61 40 82
q65 38 209 73v21q-1 72 -27.5 99t-72.5 27q-31 0 -62 -19q-5 -68 -12 -100l-11 -5q-9 4 -32.5 34.5t-30.5 50.5q15 14 52.5 35.5t68.5 33.5q45 17 71 17q71 0 104.5 -47.5t33.5 -105.5q0 -34 -1 -111.5t-1 -111.5q25 -41 80 -58l-7 -16q-21 -13 -49 -13q-31 0 -57 11
q-66 -63 -66 -102q0 -36 45 -36q30 0 59 12z" />
    <glyph glyph-name="Cacute" unicode="&#x106;" horiz-adv-x="687" 
d="M421 677h2q97 0 156 -38q29 18 76 29l6 -4q-3 -30 -17.5 -88t-22.5 -73l-18 -10q-19 38 -34 111q-17 12 -53 21t-73 9q-138 0 -218 -85.5t-80 -219.5q0 -131 83.5 -216t225.5 -85q42 0 66 8q84 88 117 113l23 -5q-6 -23 -32 -73t-36 -58q-28 -13 -80 -22.5t-93 -9.5
q-72 0 -138 20.5t-120 61t-86 108t-32 153.5q0 85 35 154.5t91 111.5t121 64.5t131 22.5zM345 715l-13 26l155 112q16 -4 34 -19.5t28 -31.5l-2 -13z" />
    <glyph glyph-name="cacute" unicode="&#x107;" horiz-adv-x="453" 
d="M37 213v1q0 59 23.5 106t61 75t82 42.5t90.5 14.5q40 0 77 -12t50 -25q-15 -66 -37 -107l-15 -6q-16 37 -32 107q-10 7 -38 7q-79 0 -124 -56t-45 -134q0 -84 49 -137t129 -53q9 0 28 8q50 42 83 57l7 -14q-6 -19 -28 -46.5t-36 -37.5q-40 -16 -94 -16q-38 0 -76 12
t-74 36.5t-58.5 71t-22.5 106.5zM235 493l-23 21l96 161q37 0 76 -18v-12z" />
    <glyph glyph-name="Ccircumflex" unicode="&#x108;" horiz-adv-x="687" 
d="M421 677h2q97 0 156 -38q29 18 76 29l6 -4q-3 -30 -17.5 -88t-22.5 -73l-18 -10q-19 38 -34 111q-17 12 -53 21t-73 9q-138 0 -218 -85.5t-80 -219.5q0 -131 83.5 -216t225.5 -85q42 0 66 8q84 88 117 113l23 -5q-6 -23 -32 -73t-36 -58q-28 -13 -80 -22.5t-93 -9.5
q-72 0 -138 20.5t-120 61t-86 108t-32 153.5q0 85 35 154.5t91 111.5t121 64.5t131 22.5zM401 845h20l131 -107l-17 -26l-124 61l-126 -61l-15 26z" />
    <glyph glyph-name="ccircumflex" unicode="&#x109;" horiz-adv-x="453" 
d="M37 213v1q0 59 23.5 106t61 75t82 42.5t90.5 14.5q40 0 77 -12t50 -25q-15 -66 -37 -107l-15 -6q-16 37 -32 107q-10 7 -38 7q-79 0 -124 -56t-45 -134q0 -84 49 -137t129 -53q9 0 28 8q50 42 83 57l7 -14q-6 -19 -28 -46.5t-36 -37.5q-40 -16 -94 -16q-38 0 -76 12
t-74 36.5t-58.5 71t-22.5 106.5zM249 671l21 5l100 -161l-24 -20l-86 94l-87 -94l-23 20z" />
    <glyph glyph-name="Cdotaccent" unicode="&#x10a;" horiz-adv-x="687" 
d="M421 677h2q97 0 156 -38q29 18 76 29l6 -4q-3 -30 -17.5 -88t-22.5 -73l-18 -10q-19 38 -34 111q-17 12 -53 21t-73 9q-138 0 -218 -85.5t-80 -219.5q0 -131 83.5 -216t225.5 -85q42 0 66 8q84 88 117 113l23 -5q-6 -23 -32 -73t-36 -58q-28 -13 -80 -22.5t-93 -9.5
q-72 0 -138 20.5t-120 61t-86 108t-32 153.5q0 85 35 154.5t91 111.5t121 64.5t131 22.5zM426 834l7 3q10 -4 26 -22t23 -32l-2 -8q-6 -13 -22 -30t-27 -24l-8 -2q-28 16 -50 54l2 8q23 33 51 53z" />
    <glyph glyph-name="cdotaccent" unicode="&#x10b;" horiz-adv-x="453" 
d="M37 213v1q0 59 23.5 106t61 75t82 42.5t90.5 14.5q40 0 77 -12t50 -25q-15 -66 -37 -107l-15 -6q-16 37 -32 107q-10 7 -38 7q-79 0 -124 -56t-45 -134q0 -84 49 -137t129 -53q9 0 28 8q50 42 83 57l7 -14q-6 -19 -28 -46.5t-36 -37.5q-40 -16 -94 -16q-38 0 -76 12
t-74 36.5t-58.5 71t-22.5 106.5zM257 645l7 1q9 -4 24.5 -22t23.5 -33l-3 -8q-13 -28 -51 -55l-7 -3q-28 19 -49 56l3 8q21 33 52 56z" />
    <glyph glyph-name="Ccaron" unicode="&#x10c;" horiz-adv-x="687" 
d="M421 677h2q97 0 156 -38q29 18 76 29l6 -4q-3 -30 -17.5 -88t-22.5 -73l-18 -10q-19 38 -34 111q-17 12 -53 21t-73 9q-138 0 -218 -85.5t-80 -219.5q0 -131 83.5 -216t225.5 -85q42 0 66 8q84 88 117 113l23 -5q-6 -23 -32 -73t-36 -58q-28 -13 -80 -22.5t-93 -9.5
q-72 0 -138 20.5t-120 61t-86 108t-32 153.5q0 85 35 154.5t91 111.5t121 64.5t131 22.5zM424 716h-20l-131 109l17 24q42 -19 124 -61q84 42 125 61l16 -24z" />
    <glyph glyph-name="ccaron" unicode="&#x10d;" horiz-adv-x="453" 
d="M37 213v1q0 59 23.5 106t61 75t82 42.5t90.5 14.5q40 0 77 -12t50 -25q-15 -66 -37 -107l-15 -6q-16 37 -32 107q-10 7 -38 7q-79 0 -124 -56t-45 -134q0 -84 49 -137t129 -53q9 0 28 8q50 42 83 57l7 -14q-6 -19 -28 -46.5t-36 -37.5q-40 -16 -94 -16q-38 0 -76 12
t-74 36.5t-58.5 71t-22.5 106.5zM277 505l-22 -5l-99 163l23 19l87 -94l86 95l23 -20z" />
    <glyph glyph-name="Dcaron" unicode="&#x10e;" horiz-adv-x="735" 
d="M36 630l7 22q143 13 231 13q196 0 306.5 -80t110.5 -241q0 -56 -14.5 -104.5t-36.5 -80.5t-52.5 -58.5t-57 -41t-56.5 -25.5q-97 -37 -270 -37q-48 0 -174 3l8 24l79 26q6 19 6 293v269zM212 627v-284q0 -297 4 -309q192 0 278 77q94 82 94 229q0 140 -92 216
q-88 73 -284 71zM340 707h-20l-131 109l17 24q42 -19 124 -61q84 42 125 61l16 -24z" />
    <glyph glyph-name="dcaron" unicode="&#x10f;" horiz-adv-x="539" 
d="M448 398v-325q31 -42 77 -59l-8 -17q-13 -10 -46 -10q-30 0 -59 14t-41 43h-2q-79 -57 -121 -57q-34 0 -69.5 13t-68 38.5t-53 69.5t-20.5 100q0 76 39.5 133.5t93.5 84t110 26.5q34 0 83 -30h1q0 97 -3 211l-63 26l9 19q50 20 144 32q-3 -156 -3 -312zM364 76v308
q-32 21 -74 21q-70 0 -116 -54t-46 -128q0 -73 44.5 -124.5t110.5 -51.5q41 0 81 29zM512 562l-17 22q43 36 43 67q0 19 -13 31l-24 15v16l55 30h11q14 -6 24 -23t11 -41q0 -33 -24 -66t-66 -51z" />
    <glyph glyph-name="Dcroat" unicode="&#x110;" horiz-adv-x="746" 
d="M45 366h89v246l-88 18l8 22q143 13 231 13q196 0 306.5 -80t110.5 -240q0 -70 -21 -126.5t-56.5 -92t-69 -57t-71.5 -35.5q-96 -37 -266 -37q-51 0 -177 3l8 24l79 26q6 18 6 274h-102zM223 366h188l-18 -42h-170q0 -277 4 -289q192 0 278 77q94 83 94 228q0 143 -92 217
q-48 39 -115 54t-169 14v-259z" />
    <glyph glyph-name="dcroat" unicode="&#x111;" horiz-adv-x="542" 
d="M257 568h107v66l-63 25l7 19q51 19 143 31q-1 -46 -1 -141h88l-17 -36h-71q-1 -45 -1 -133v-326q33 -42 79 -59l-4 -14q-13 -13 -50 -13q-28 0 -59.5 14t-42.5 42l-2 1q-73 -57 -122 -57q-34 0 -69 13t-68 38.5t-53.5 70t-20.5 100.5q0 75 39.5 132.5t93 84t108.5 26.5
q38 0 85 -30l2 1q0 70 -1 109h-124zM365 76v308q-32 22 -77 22q-68 0 -114 -55t-46 -128q0 -79 46 -128t108 -49q39 0 83 30z" />
    <glyph glyph-name="Emacron" unicode="&#x112;" horiz-adv-x="565" 
d="M36 637l7 23q21 0 62 -0.5t61 -0.5h248q8 2 39 6.5t44 4.5l3 -3q-3 -44 -26 -145l-16 -9q-18 39 -43 108l-203 -8v-250q130 0 254 12l4 -9q-4 -8 -28 -33t-32 -25q-6 0 -94 5.5t-104 5.5q0 -189 4 -272l212 -8q1 2 37 52t50 66l20 1q-2 -24 -14.5 -80t-20.5 -81
q-65 3 -181 3h-158q-23 0 -69.5 -0.5t-67.5 -0.5l8 24l85 29q6 24 6 291v266zM400 721h-222l15 56h222z" />
    <glyph glyph-name="emacron" unicode="&#x113;" horiz-adv-x="454" 
d="M319 233h-190q-1 -5 -1 -14q0 -83 45.5 -131.5t114.5 -48.5q20 0 34 6q55 39 84 54l5 -16q-4 -15 -24.5 -39.5t-32.5 -32.5q-51 -24 -105 -24q-94 0 -153 61t-59 163q0 104 64.5 172.5t152.5 68.5q72 0 120.5 -46t48.5 -127q0 -25 -10 -32q-35 -14 -94 -14zM130 271h199
q5 12 5 30q0 48 -23.5 82t-64.5 34q-55 0 -85.5 -51t-30.5 -95zM344 547h-212l16 56h212z" />
    <glyph glyph-name="Ebreve" unicode="&#x114;" horiz-adv-x="565" 
d="M36 637l7 23q21 0 62 -0.5t61 -0.5h248q8 2 39 6.5t44 4.5l3 -3q-3 -44 -26 -145l-16 -9q-18 39 -43 108l-203 -8v-250q130 0 254 12l4 -9q-4 -8 -28 -33t-32 -25q-6 0 -94 5.5t-104 5.5q0 -189 4 -272l212 -8q1 2 37 52t50 66l20 1q-2 -24 -14.5 -80t-20.5 -81
q-65 3 -181 3h-158q-23 0 -69.5 -0.5t-67.5 -0.5l8 24l85 29q6 24 6 291v266zM295 706h-1q-59 0 -88 33.5t-30 87.5l32 8q15 -66 87 -66q30 0 49.5 10t26.5 21t13 28l33 7q-2 -58 -33 -93.5t-89 -35.5z" />
    <glyph glyph-name="ebreve" unicode="&#x115;" horiz-adv-x="454" 
d="M319 233h-190q-1 -5 -1 -14q0 -83 45.5 -131.5t114.5 -48.5q20 0 34 6q55 39 84 54l5 -16q-4 -15 -24.5 -39.5t-32.5 -32.5q-51 -24 -105 -24q-94 0 -153 61t-59 163q0 104 64.5 172.5t152.5 68.5q72 0 120.5 -46t48.5 -127q0 -25 -10 -32q-35 -14 -94 -14zM130 271h199
q5 12 5 30q0 48 -23.5 82t-64.5 34q-55 0 -85.5 -51t-30.5 -95zM141 643l33 9q16 -78 71 -78q21 0 35.5 7t22.5 21t11 21t6 20l35 9q-1 -61 -29 -99t-84 -38q-55 0 -78.5 36.5t-22.5 91.5z" />
    <glyph glyph-name="Edotaccent" unicode="&#x116;" horiz-adv-x="565" 
d="M36 637l7 23q21 0 62 -0.5t61 -0.5h248q8 2 39 6.5t44 4.5l3 -3q-3 -44 -26 -145l-16 -9q-18 39 -43 108l-203 -8v-250q130 0 254 12l4 -9q-4 -8 -28 -33t-32 -25q-6 0 -94 5.5t-104 5.5q0 -189 4 -272l212 -8q1 2 37 52t50 66l20 1q-2 -24 -14.5 -80t-20.5 -81
q-65 3 -181 3h-158q-23 0 -69.5 -0.5t-67.5 -0.5l8 24l85 29q6 24 6 291v266zM297 824l7 3q10 -4 26 -22t23 -32l-2 -8q-6 -13 -22 -30t-27 -24l-8 -2q-28 16 -50 54l2 8q23 33 51 53z" />
    <glyph glyph-name="edotaccent" unicode="&#x117;" horiz-adv-x="454" 
d="M319 233h-190q-1 -5 -1 -14q0 -83 45.5 -131.5t114.5 -48.5q20 0 34 6q55 39 84 54l5 -16q-4 -15 -24.5 -39.5t-32.5 -32.5q-51 -24 -105 -24q-94 0 -153 61t-59 163q0 104 64.5 172.5t152.5 68.5q72 0 120.5 -46t48.5 -127q0 -25 -10 -32q-35 -14 -94 -14zM130 271h199
q5 12 5 30q0 48 -23.5 82t-64.5 34q-55 0 -85.5 -51t-30.5 -95zM247 645l7 1q9 -4 24.5 -22t23.5 -33l-3 -8q-13 -28 -51 -55l-7 -3q-28 19 -49 56l3 8q21 33 52 56z" />
    <glyph glyph-name="Eogonek" unicode="&#x118;" horiz-adv-x="565" 
d="M452 -129l10 -24q-42 -45 -100 -45q-32 0 -56.5 19t-24.5 53q0 59 99 126h-73h-146q-23 0 -69.5 -0.5t-67.5 -0.5l8 24l85 29q6 24 6 291v266l-87 28l7 23q21 0 62 -0.5t61 -0.5h248q8 2 39 6.5t44 4.5l3 -3q-3 -44 -26 -145l-16 -9q-13 29 -43 107l-203 -6v-250
q140 0 254 11l4 -9q-4 -8 -28 -33t-32 -25q-7 0 -95 5t-103 5q0 -188 4 -271l209 -8q89 113 95 120l16 -1q-9 -70 -36 -161q-56 3 -73 3q-79 -69 -79 -106q0 -35 45 -35q30 0 59 12z" />
    <glyph glyph-name="eogonek" unicode="&#x119;" horiz-adv-x="454" 
d="M130 271h199q5 12 5 31q0 48 -23 81.5t-64 33.5q-39 0 -67 -28.5t-38.5 -60t-11.5 -57.5zM340 -127l9 -24q-40 -45 -100 -45q-32 0 -56.5 19t-24.5 53q0 58 69 112q-90 3 -145 63.5t-55 159.5q0 104 64.5 172.5t152.5 68.5q72 0 120.5 -46t48.5 -127q0 -25 -10 -32
q-35 -14 -94 -14h-190q-1 -5 -1 -14q0 -83 45 -131.5t114 -48.5q21 0 35 6q55 39 84 54l5 -16q-4 -15 -24.5 -39.5t-32.5 -32.5q-21 -10 -62 -18q-57 -58 -57 -95t46 -37q30 0 59 12z" />
    <glyph glyph-name="Ecaron" unicode="&#x11a;" horiz-adv-x="565" 
d="M36 637l7 23q21 0 62 -0.5t61 -0.5h248q8 2 39 6.5t44 4.5l3 -3q-3 -44 -26 -145l-16 -9q-18 39 -43 108l-203 -8v-250q130 0 254 12l4 -9q-4 -8 -28 -33t-32 -25q-6 0 -94 5.5t-104 5.5q0 -189 4 -272l212 -8q1 2 37 52t50 66l20 1q-2 -24 -14.5 -80t-20.5 -81
q-65 3 -181 3h-158q-23 0 -69.5 -0.5t-67.5 -0.5l8 24l85 29q6 24 6 291v266zM298 701h-20l-131 109l17 24q42 -19 124 -61q84 42 125 61l16 -24z" />
    <glyph glyph-name="ecaron" unicode="&#x11b;" horiz-adv-x="454" 
d="M319 233h-190q-1 -5 -1 -14q0 -83 45.5 -131.5t114.5 -48.5q20 0 34 6q55 39 84 54l5 -16q-4 -15 -24.5 -39.5t-32.5 -32.5q-51 -24 -105 -24q-94 0 -153 61t-59 163q0 104 64.5 172.5t152.5 68.5q72 0 120.5 -46t48.5 -127q0 -25 -10 -32q-35 -14 -94 -14zM130 271h199
q5 12 5 30q0 48 -23.5 82t-64.5 34q-55 0 -85.5 -51t-30.5 -95zM259 505l-22 -5l-99 163l23 19l87 -94l86 95l23 -20z" />
    <glyph glyph-name="Gcircumflex" unicode="&#x11c;" horiz-adv-x="743" 
d="M368 289l45 30q138 10 274 8q-9 -84 -29.5 -204.5t-29.5 -138.5h-7q-41 8 -50 34q-82 -37 -163 -37q-162 0 -263.5 94t-101.5 251q0 149 109 250t276 101q96 0 161 -43q36 25 77 38l7 -5q-2 -27 -18 -91t-24 -81l-19 -9q-16 37 -33 113q-55 33 -137 33q-131 0 -214 -83
t-83 -220q0 -128 79.5 -213t220.5 -85q70 0 122 20q2 45 16 220l-211 6zM409 845h20l131 -107l-17 -26l-124 61l-126 -61l-15 26z" />
    <glyph glyph-name="gcircumflex" unicode="&#x11d;" horiz-adv-x="480" 
d="M437 396l-71 -4v-2q34 -34 34 -97q0 -69 -50.5 -112.5t-126.5 -43.5q-45 0 -83 18q-28 -28 -28 -45q0 -14 15.5 -29.5t31.5 -16.5q127 12 209 2q38 -5 63 -27q35 -31 35 -80q0 -79 -84 -140q-79 -62 -181 -62q-74 0 -123.5 33t-49.5 83q0 14 15 31l81 88v2q-24 11 -45 32
q-33 33 -33 65q0 20 69 78q-63 39 -63 120q0 65 50.5 114t137.5 49q24 0 76 -8q52 -10 72 -12l86 36l4 -10zM227 418h-1q-42 0 -65.5 -36.5t-23.5 -86.5q0 -48 24 -85.5t68 -37.5q42 0 65.5 35t23.5 90q0 46 -23.5 83.5t-67.5 37.5zM241 -9h-1q-60 0 -84 -11
q-15 -13 -31.5 -38.5t-16.5 -40.5q0 -45 39 -68.5t91 -23.5q67 0 111.5 29t44.5 84q0 50 -51 63q-36 6 -102 6zM219 671l21 5l100 -161l-24 -20l-86 94l-87 -94l-23 20z" />
    <glyph glyph-name="Gbreve" unicode="&#x11e;" horiz-adv-x="743" 
d="M368 289l45 30q138 10 274 8q-9 -84 -29.5 -204.5t-29.5 -138.5h-7q-41 8 -50 34q-82 -37 -163 -37q-162 0 -263.5 94t-101.5 251q0 149 109 250t276 101q96 0 161 -43q36 25 77 38l7 -5q-2 -27 -18 -91t-24 -81l-19 -9q-16 37 -33 113q-55 33 -137 33q-131 0 -214 -83
t-83 -220q0 -128 79.5 -213t220.5 -85q70 0 122 20q2 45 16 220l-211 6zM412 715h-1q-59 0 -88 33.5t-30 87.5l32 8q15 -66 87 -66q30 0 49.5 10t26.5 21t13 28l33 7q-2 -58 -33 -93.5t-89 -35.5z" />
    <glyph glyph-name="gbreve" unicode="&#x11f;" horiz-adv-x="480" 
d="M437 396l-71 -4v-2q34 -34 34 -97q0 -69 -50.5 -112.5t-126.5 -43.5q-45 0 -83 18q-28 -28 -28 -45q0 -14 15.5 -29.5t31.5 -16.5q127 12 209 2q38 -5 63 -27q35 -31 35 -80q0 -79 -84 -140q-79 -62 -181 -62q-74 0 -123.5 33t-49.5 83q0 14 15 31l81 88v2q-24 11 -45 32
q-33 33 -33 65q0 20 69 78q-63 39 -63 120q0 65 50.5 114t137.5 49q24 0 76 -8q52 -10 72 -12l86 36l4 -10zM227 418h-1q-42 0 -65.5 -36.5t-23.5 -86.5q0 -48 24 -85.5t68 -37.5q42 0 65.5 35t23.5 90q0 46 -23.5 83.5t-67.5 37.5zM241 -9h-1q-60 0 -84 -11
q-15 -13 -31.5 -38.5t-16.5 -40.5q0 -45 39 -68.5t91 -23.5q67 0 111.5 29t44.5 84q0 50 -51 63q-36 6 -102 6zM127 640l33 9q16 -78 71 -78q21 0 35.5 7t22.5 21t11 21t6 20l35 9q-1 -61 -29 -99t-84 -38q-55 0 -78.5 36.5t-22.5 91.5z" />
    <glyph glyph-name="Gdotaccent" unicode="&#x120;" horiz-adv-x="743" 
d="M368 289l45 30q138 10 274 8q-9 -84 -29.5 -204.5t-29.5 -138.5h-7q-41 8 -50 34q-82 -37 -163 -37q-162 0 -263.5 94t-101.5 251q0 149 109 250t276 101q96 0 161 -43q36 25 77 38l7 -5q-2 -27 -18 -91t-24 -81l-19 -9q-16 37 -33 113q-55 33 -137 33q-131 0 -214 -83
t-83 -220q0 -128 79.5 -213t220.5 -85q70 0 122 20q2 45 16 220l-211 6zM433 834l7 3q10 -4 26 -22t23 -32l-2 -8q-6 -13 -22 -30t-27 -24l-8 -2q-28 16 -50 54l2 8q23 33 51 53z" />
    <glyph glyph-name="gdotaccent" unicode="&#x121;" horiz-adv-x="480" 
d="M437 396l-71 -4v-2q34 -34 34 -97q0 -69 -50.5 -112.5t-126.5 -43.5q-45 0 -83 18q-28 -28 -28 -45q0 -14 15.5 -29.5t31.5 -16.5q127 12 209 2q38 -5 63 -27q35 -31 35 -80q0 -79 -84 -140q-79 -62 -181 -62q-74 0 -123.5 33t-49.5 83q0 14 15 31l81 88v2q-24 11 -45 32
q-33 33 -33 65q0 20 69 78q-63 39 -63 120q0 65 50.5 114t137.5 49q24 0 76 -8q52 -10 72 -12l86 36l4 -10zM227 418h-1q-42 0 -65.5 -36.5t-23.5 -86.5q0 -48 24 -85.5t68 -37.5q42 0 65.5 35t23.5 90q0 46 -23.5 83.5t-67.5 37.5zM241 -9h-1q-60 0 -84 -11
q-15 -13 -31.5 -38.5t-16.5 -40.5q0 -45 39 -68.5t91 -23.5q67 0 111.5 29t44.5 84q0 50 -51 63q-36 6 -102 6zM230 645l7 1q9 -4 24.5 -22t23.5 -33l-3 -8q-13 -28 -51 -55l-7 -3q-28 19 -49 56l3 8q21 33 52 56z" />
    <glyph glyph-name="Gcommaaccent" unicode="&#x122;" horiz-adv-x="743" 
d="M368 289l45 30q138 10 274 8q-9 -84 -29.5 -204.5t-29.5 -138.5h-7q-41 8 -50 34q-82 -37 -163 -37q-162 0 -263.5 94t-101.5 251q0 149 109 250t276 101q96 0 161 -43q36 25 77 38l7 -5q-2 -27 -18 -91t-24 -81l-19 -9q-16 37 -33 113q-55 33 -137 33q-131 0 -214 -83
t-83 -220q0 -128 79.5 -213t220.5 -85q70 0 122 20q2 45 16 220l-211 6zM377 -233l-17 22q43 36 43 67q0 19 -13 31l-24 15v16l55 30h11q14 -6 24 -23t11 -41q0 -33 -24 -66t-66 -51z" />
    <glyph glyph-name="gcommaaccent" unicode="&#x123;" horiz-adv-x="485" 
d="M272 698l15 -18q-43 -36 -43 -69q0 -22 13 -31l24 -16v-16l-54 -30h-13q-33 18 -34 63q-1 33 24.5 65.5t67.5 51.5zM440 400l-74 -5l-1 -2q13 -11 25.5 -39.5t12.5 -60.5q0 -69 -51 -112.5t-127 -43.5q-50 0 -87 20q-27 -29 -27 -47q0 -14 15.5 -29.5t31.5 -16.5
q129 12 212 2q38 -5 63 -27q35 -31 35 -80q0 -80 -84 -140q-79 -62 -181 -62q-75 0 -124 32.5t-49 83.5q0 16 15 31l82 88v2q-26 12 -46 32q-33 33 -33 65q0 9 21.5 32.5t47.5 45.5q-64 38 -64 120q0 65 51 114t138 49q26 0 76 -8q51 -10 73 -12l86 36l2 -6zM229 423h-1
q-42 0 -66 -39t-24 -89q0 -51 25 -89.5t68 -38.5q45 0 67.5 38t22.5 92q0 47 -23.5 86.5t-68.5 39.5zM243 -9h-1q-62 0 -86 -11q-15 -13 -31.5 -38.5t-16.5 -40.5q0 -47 40.5 -72t91.5 -25q67 0 111.5 31t44.5 87q0 50 -51 63q-36 6 -102 6z" />
    <glyph glyph-name="Hcircumflex" unicode="&#x124;" horiz-adv-x="771" 
d="M43 635l9 24q18 0 57 -0.5t58 -0.5q21 0 52 0.5t43 0.5l-7 -24l-43 -31v-227h348v226l-49 35l8 21q15 0 43 -0.5t43 -0.5q25 0 69.5 0.5t62.5 0.5l-8 -25l-80 -30v-263q0 -264 7 -285l92 -32l-9 -25q-19 0 -64.5 0.5t-69.5 0.5q-18 0 -49 -0.5t-44 -0.5l7 25l40 31
q1 33 1 279q-35 -6 -129 -6h-219q0 -243 1 -269l46 -37l-8 -23q-12 0 -40.5 0.5t-46.5 0.5q-22 0 -66.5 -0.5t-64.5 -0.5l9 24l75 30q6 150 6 294v259zM378 835h20l131 -107l-17 -26l-124 61l-126 -61l-15 26z" />
    <glyph glyph-name="hcircumflex" unicode="&#x125;" horiz-adv-x="551" 
d="M463 301v-228q0 -13 4 -18t16 -10l53 -26l-7 -22q-80 -2 -159 8q9 76 9 255q0 134 -108 134q-53 0 -98 -36q0 -288 3 -306l72 -31l-8 -22q-18 0 -54.5 1t-55.5 1q-18 0 -53 -1t-52 -1l7 23l54 30q3 20 3 232q0 240 -3 349l-58 26l6 19q44 15 142 32q-3 -144 -3 -317l2 -1
q77 60 139 60q71 0 110 -47t39 -104zM117 863h20l131 -107l-17 -26l-124 61l-126 -61l-15 26z" />
    <glyph glyph-name="Hbar" unicode="&#x126;" horiz-adv-x="771" 
d="M212 373h348v126h-348v-126zM212 537h348v67l-51 32l9 24q14 0 44 -0.5t43 -0.5q24 0 68.5 0.5t62.5 0.5l-9 -25l-78 -30v-68h101l-15 -38h-86v-158q0 -266 7 -285l92 -32l-9 -25q-18 0 -64.5 0.5t-69.5 0.5q-17 0 -50 -0.5t-45 -0.5l8 25l41 31q1 33 1 272
q-69 -3 -129 -3h-219q0 -239 1 -265l46 -37l-9 -23q-11 0 -39.5 0.5t-45.5 0.5q-21 0 -67 -0.5t-65 -0.5l9 24l75 30q6 150 6 294v152h-95l13 38h82v70l-80 28l9 25q17 0 57 -0.5t58 -0.5q21 0 53 0.5t43 0.5l-9 -23l-42 -32v-68z" />
    <glyph glyph-name="hbar" unicode="&#x127;" horiz-adv-x="551" 
d="M17 579h71v57l-60 23l6 19q43 15 140 32q-1 -40 -1 -131h139l-12 -38h-127q-1 -47 -1 -151q78 62 142 62q71 0 110 -47t39 -104v-228q0 -13 4 -18.5t16 -9.5l55 -26l-8 -22q-81 -2 -161 8q10 84 10 255q0 134 -109 134q-53 0 -98 -36q0 -290 2 -307l75 -30l-7 -22
q-19 0 -57 0.5t-57 0.5q-17 0 -51.5 -0.5t-52.5 -0.5l7 22l55 30q3 21 3 233q0 172 -1 257h-82z" />
    <glyph glyph-name="Itilde" unicode="&#x128;" horiz-adv-x="336" 
d="M44 636l7 23q19 0 58 -0.5t59 -0.5t62 0.5t62 0.5l-7 -24l-73 -29v-263q0 -247 5 -290l92 -30l-7 -24q-17 0 -61.5 0.5t-72.5 0.5q-26 0 -72.5 -0.5t-64.5 -0.5l7 24l79 30q6 24 6 290v264zM290 806l25 -19q-48 -83 -98 -83q-19 0 -62 24q-34 18 -45 18q-24 0 -59 -46
l-24 19q50 88 96 88q17 0 56 -21q37 -22 52 -22q26 0 59 42z" />
    <glyph glyph-name="itilde" unicode="&#x129;" horiz-adv-x="268" 
d="M41 404l5 19q72 23 133 29v-202q0 -142 2 -198l71 -30l-7 -23q-17 0 -54.5 0.5t-57.5 0.5q-15 0 -49.5 -0.5t-54.5 -0.5l7 23l57 30q2 78 2 200v126zM252 626l24 -16q-46 -85 -95 -85q-15 0 -61 24q-31 17 -43 17q-25 0 -59 -46l-23 19q52 86 95 86q16 0 54 -21
q33 -21 49 -21q29 0 59 43z" />
    <glyph glyph-name="Imacron" unicode="&#x12a;" horiz-adv-x="336" 
d="M44 636l7 23q19 0 58 -0.5t59 -0.5t62 0.5t62 0.5l-7 -24l-73 -29v-263q0 -247 5 -290l92 -30l-7 -24q-17 0 -61.5 0.5t-72.5 0.5q-26 0 -72.5 -0.5t-64.5 -0.5l7 24l79 30q6 24 6 290v264zM273 711h-222l15 56h222z" />
    <glyph glyph-name="imacron" unicode="&#x12b;" horiz-adv-x="268" 
d="M41 404l5 19q72 23 133 29v-202q0 -142 2 -198l71 -30l-7 -23q-17 0 -54.5 0.5t-57.5 0.5q-15 0 -49.5 -0.5t-54.5 -0.5l7 23l57 30q2 78 2 200v126zM228 547h-212l16 56h212z" />
    <glyph glyph-name="Ibreve" unicode="&#x12c;" horiz-adv-x="336" 
d="M44 636l7 23q19 0 58 -0.5t59 -0.5t62 0.5t62 0.5l-7 -24l-73 -29v-263q0 -247 5 -290l92 -30l-7 -24q-17 0 -61.5 0.5t-72.5 0.5q-26 0 -72.5 -0.5t-64.5 -0.5l7 24l79 30q6 24 6 290v264zM164 706h-1q-59 0 -88 33.5t-30 87.5l32 8q15 -66 87 -66q30 0 49.5 10t26.5 21
t13 28l33 7q-2 -58 -33 -93.5t-89 -35.5z" />
    <glyph glyph-name="ibreve" unicode="&#x12d;" horiz-adv-x="268" 
d="M41 404l5 19q72 23 133 29v-202q0 -142 2 -198l71 -30l-7 -23q-17 0 -54.5 0.5t-57.5 0.5q-15 0 -49.5 -0.5t-54.5 -0.5l7 23l57 30q2 78 2 200v126zM23 643l33 9q16 -78 71 -78q21 0 35.5 7t22.5 21t11 21t6 20l35 9q-1 -61 -29 -99t-84 -38q-55 0 -78.5 36.5
t-22.5 91.5z" />
    <glyph glyph-name="Iogonek" unicode="&#x12e;" horiz-adv-x="336" 
d="M247 -125l11 -24q-42 -45 -100 -45q-32 0 -56.5 19t-24.5 53q0 57 67 122q-22 0 -59.5 -0.5t-52.5 -0.5l6 24l79 30q6 24 6 290v264l-79 29l7 23q20 0 59 -0.5t58 -0.5q21 0 62.5 0.5t61.5 0.5l-7 -24l-73 -29v-263q0 -249 5 -291l92 -29l-7 -24q-14 0 -52.5 0.5
t-62.5 0.5q-43 -55 -43 -101q0 -36 47 -36q29 0 56 12z" />
    <glyph glyph-name="iogonek" unicode="&#x12f;" horiz-adv-x="268" 
d="M134 662l6 1q10 -4 26 -22t23 -33l-3 -8q-6 -12 -23 -30t-28 -25l-8 -3q-30 21 -48 56l2 8q24 38 53 56zM219 -126l10 -25q-43 -45 -100 -45q-32 0 -56.5 19t-24.5 55q0 53 67 122q-13 0 -42 -0.5t-44 -0.5l7 23l57 30q2 74 2 200v126l-54 26l5 19q72 23 133 29v-202
q0 -140 2 -198l71 -30l-7 -23q-14 0 -43.5 0.5t-45.5 0.5q-41 -59 -41 -100q0 -39 47 -39q29 0 57 13z" />
    <glyph glyph-name="Idotaccent" unicode="&#x130;" horiz-adv-x="336" 
d="M44 636l7 23q19 0 58 -0.5t59 -0.5t62 0.5t62 0.5l-7 -24l-73 -29v-263q0 -247 5 -290l92 -30l-7 -24q-17 0 -61.5 0.5t-72.5 0.5q-26 0 -72.5 -0.5t-64.5 -0.5l7 24l79 30q6 24 6 290v264zM180 834l7 3q10 -4 26 -22t23 -32l-2 -8q-6 -13 -22 -30t-27 -24l-8 -2
q-28 16 -50 54l2 8q23 33 51 53z" />
    <glyph glyph-name="dotlessi" unicode="&#x131;" horiz-adv-x="268" 
d="M41 404l5 19q72 23 133 29v-202q0 -142 2 -198l71 -30l-7 -23q-17 0 -54.5 0.5t-57.5 0.5q-15 0 -49.5 -0.5t-54.5 -0.5l7 23l57 30q2 78 2 200v126z" />
    <glyph glyph-name="IJ" unicode="&#x132;" horiz-adv-x="653" 
d="M44 636l7 23q19 0 58 -0.5t59 -0.5t62 0.5t62 0.5l-7 -24l-73 -29v-263q0 -247 5 -290l92 -30l-7 -24q-17 0 -61.5 0.5t-72.5 0.5q-26 0 -72.5 -0.5t-64.5 -0.5l7 24l79 30q6 24 6 290v264zM366 635l9 24q21 0 61.5 -0.5t63.5 -0.5q20 0 61.5 0.5t61.5 0.5l-6 -25
l-69 -30v-459q0 -63 -16 -106q-24 -73 -69 -129t-79 -78l-26 16v7q61 51 81.5 114t19.5 158q1 71 0 243q-2 200 -4 236z" />
    <glyph glyph-name="ij" unicode="&#x133;" horiz-adv-x="520" 
d="M134 658l6 1q11 -4 27 -22t23 -34l-2 -8q-6 -14 -24 -32.5t-29 -24.5l-8 -2q-30 18 -49 57l2 8q24 39 54 57zM41 404l5 19q72 23 133 29v-202q0 -142 2 -198l71 -30l-7 -23q-17 0 -54.5 0.5t-57.5 0.5q-15 0 -49.5 -0.5t-54.5 -0.5l7 23l57 30q2 68 2 200v126zM395 658
l7 1q10 -4 26 -22.5t23 -33.5l-2 -8q-6 -13 -23.5 -31t-29.5 -26l-8 -2q-13 8 -28 25.5t-22 31.5l3 8q26 39 54 57zM300 405l6 18q21 8 67 18t70 11v-364q0 -94 -38 -167q-57 -110 -133 -164l-26 14l-1 9q37 28 61 63t35 78t14.5 80t3.5 89q0 232 -3 291q-41 17 -56 24z" />
    <glyph glyph-name="Jcircumflex" unicode="&#x134;" horiz-adv-x="317" 
d="M30 635l9 24q21 0 61.5 -0.5t63.5 -0.5q20 0 61.5 0.5t61.5 0.5l-6 -25l-69 -30v-459q0 -63 -16 -106q-24 -73 -69 -129t-79 -78l-26 16v7q61 51 81.5 114t19.5 158q1 71 0 243q-2 200 -4 236zM160 835h20l131 -107l-17 -26l-124 61l-126 -61l-15 26z" />
    <glyph glyph-name="jcircumflex" unicode="&#x135;" horiz-adv-x="251" 
d="M31 405l6 18q21 8 67 18t70 11v-364q0 -94 -38 -167q-57 -110 -133 -164l-26 14l-1 9q37 28 61 63t35 78t14.5 80t3.5 89q0 223 -4 291zM115 671l21 5l100 -161l-24 -20l-86 94l-87 -94l-23 20z" />
    <glyph glyph-name="Kcommaaccent" unicode="&#x136;" horiz-adv-x="676" 
d="M667 659l-13 -25l-51 -13t-55 -15q-15 -4 -33 -20q-59 -58 -193 -214v-2q89 -106 223 -251l59 -63.5l42 -44t20 -21.5l-12 -5q-66 3 -107 24t-82 63q-108 108 -227 252v8l165.5 191.5t71.5 93.5q-4 24 -2 44q47 2 78 1.5t69 -2t47 -1.5zM44 638l7 22q19 0 57 -0.5
t57 -0.5q21 0 63 0.5t64 0.5l-7 -23l-73 -31v-263q0 -247 5 -290l92 -30l-7 -24q-18 0 -64.5 0.5t-75.5 0.5q-25 0 -69.5 -0.5t-61.5 -0.5l6 24l80 30q6 25 6 290v264zM335 -203l-17 22q43 36 43 67q0 19 -13 31l-24 15v16l55 30h11q14 -6 24 -23t11 -41q0 -33 -24 -66
t-66 -51z" />
    <glyph glyph-name="kcommaaccent" unicode="&#x137;" horiz-adv-x="500" 
d="M498 -11l-6 -5q-89 5 -136 49q-71 66 -165 197l-1 5q85 95 138 165l19 52q85 0 135 -13l-14 -23q-7 -4 -26.5 -11l-44 -16t-33.5 -12q-40 -39 -96 -102v-3q43 -59 230 -283zM175 52l73 -30l-6 -23q-18 0 -56 0.5t-58 0.5q-18 0 -53 -0.5t-52 -0.5l6 22l57 30q3 30 3 229
q0 246 -3 353l-56 26l9 20q72 22 136 31q-3 -159 -3 -346q0 -279 3 -312zM241 -213l-17 22q43 36 43 67q0 19 -13 31l-24 15v16l55 30h11q14 -6 24 -23t11 -41q0 -33 -24 -66t-66 -51z" />
    <glyph glyph-name="kgreenlandic" unicode="&#x138;" horiz-adv-x="508" 
d="M497 -5l-11 -11q-77 2 -126 47t-165 189l-1 5q91 97 139 161q16 21 19 56q23 3 71 2t72 -5l-2 -4q-11 -21 -21 -27q-6 -2 -27.5 -7t-33.5 -9q-18 -5 -43 -30q-20 -19 -93 -100v-2l143 -172q72 -83 79 -93zM179 51l73 -29l-8 -23q-19 0 -55.5 0.5t-56.5 0.5
q-18 0 -54 -0.5t-53 -0.5l6 22l59 30q3 29 3 195v134l-59 25l8 20q78 22 134 27v-209q0 -147 3 -192z" />
    <glyph glyph-name="Lacute" unicode="&#x139;" horiz-adv-x="563" 
d="M40 635l8 24q16 0 55.5 -0.5t63.5 -0.5q23 0 64 0.5t60 0.5l-9 -24l-70 -30v-261q0 -264 4 -296l214 -13q66 100 93 131l19 1q-3 -33 -14.5 -91.5t-19.5 -79.5q-9 0 -49 1t-116 2t-174 1q-25 0 -71.5 -0.5t-68.5 -0.5l7 23l83 30q4 26 4 291v262zM133 699l-13 26l155 112
q16 -4 34 -19.5t28 -31.5l-2 -13z" />
    <glyph glyph-name="lacute" unicode="&#x13a;" horiz-adv-x="261" 
d="M175 50l71 -27l-9 -24q-19 0 -54 0.5t-52 0.5q-19 0 -56 -0.5t-56 -0.5l5 22l63 29q2 82 2 347q0 190 -3 239l-58 24l10 21q60 20 138 29q-3 -154 -3 -309q0 -203 2 -351zM62 741l-13 26l155 112q16 -4 34 -19.5t28 -31.5l-2 -13z" />
    <glyph glyph-name="Lcommaaccent" unicode="&#x13b;" horiz-adv-x="563" 
d="M40 635l8 24q16 0 55.5 -0.5t63.5 -0.5q23 0 64 0.5t60 0.5l-9 -24l-70 -30v-261q0 -264 4 -296l214 -13q66 100 93 131l19 1q-3 -33 -14.5 -91.5t-19.5 -79.5q-9 0 -49 1t-116 2t-174 1q-25 0 -71.5 -0.5t-68.5 -0.5l7 23l83 30q4 26 4 291v262zM290 -213l-17 22
q43 36 43 67q0 19 -13 31l-24 15v16l55 30h11q14 -6 24 -23t11 -41q0 -33 -24 -66t-66 -51z" />
    <glyph glyph-name="lcommaaccent" unicode="&#x13c;" horiz-adv-x="261" 
d="M175 50l71 -27l-9 -24q-19 0 -54 0.5t-52 0.5q-19 0 -56 -0.5t-56 -0.5l5 22l63 29q2 82 2 347q0 190 -3 239l-58 24l10 21q60 20 138 29q-3 -154 -3 -309q0 -203 2 -351zM93 -213l-17 22q43 36 43 67q0 19 -13 31l-24 15v16l55 30h11q14 -6 24 -23t11 -41q0 -33 -24 -66
t-66 -51z" />
    <glyph glyph-name="Lcaron" unicode="&#x13d;" horiz-adv-x="563" 
d="M40 635l8 24q16 0 55.5 -0.5t63.5 -0.5q23 0 64 0.5t60 0.5l-9 -24l-70 -30v-261q0 -264 4 -296l214 -13q66 100 93 131l19 1q-3 -33 -14.5 -91.5t-19.5 -79.5q-9 0 -49 1t-116 2t-174 1q-25 0 -71.5 -0.5t-68.5 -0.5l7 23l83 30q4 26 4 291v262zM351 513l-17 22
q43 36 43 67q0 19 -13 31l-24 15v16l55 30h11q14 -6 24 -23t11 -41q0 -33 -24 -66t-66 -51z" />
    <glyph glyph-name="lcaron" unicode="&#x13e;" horiz-adv-x="261" 
d="M175 50l71 -27l-9 -24q-19 0 -54 0.5t-52 0.5q-19 0 -56 -0.5t-56 -0.5l5 22l63 29q2 82 2 347q0 190 -3 239l-58 24l10 21q60 20 138 29q-3 -154 -3 -309q0 -203 2 -351zM226 563l-17 22q43 36 43 67q0 19 -13 31l-24 15v16l55 30h11q14 -6 24 -23t11 -41q0 -33 -24 -66
t-66 -51z" />
    <glyph glyph-name="Ldot" unicode="&#x13f;" horiz-adv-x="563" 
d="M40 635l8 24q16 0 55.5 -0.5t63.5 -0.5q23 0 64 0.5t60 0.5l-9 -24l-70 -30v-261q0 -264 4 -296l214 -13q66 100 93 131l19 1q-3 -33 -14.5 -91.5t-19.5 -79.5q-9 0 -49 1t-116 2t-174 1q-25 0 -71.5 -0.5t-68.5 -0.5l7 23l83 30q4 26 4 291v262zM396 383l7 1
q9 -4 24.5 -22t23.5 -33l-3 -8q-13 -28 -51 -55l-7 -3q-28 19 -49 56l3 8q21 33 52 56z" />
    <glyph glyph-name="ldot" unicode="&#x140;" horiz-adv-x="285" 
d="M175 50l71 -27l-9 -24q-19 0 -54 0.5t-52 0.5q-19 0 -56 -0.5t-56 -0.5l5 22l63 29q2 70 2 347q0 190 -3 239l-58 24l10 21q60 20 138 29q-3 -154 -3 -309q0 -259 2 -351zM272 428l7 1q9 -4 24.5 -22t23.5 -33l-3 -9q-5 -12 -22 -29.5t-29 -25.5l-8 -2q-29 19 -48 55l2 9
q25 37 53 56z" />
    <glyph glyph-name="Lslash" unicode="&#x141;" horiz-adv-x="574" 
d="M45 270l89 64v272l-84 30l8 24q18 0 58 -0.5t62 -0.5q24 0 65 0.5t59 0.5l-10 -25l-70 -29v-209l129 93l-5 -50l-124 -90q0 -271 4 -301l217 -14q62 94 92 128h16q-11 -92 -30 -167q-10 0 -50.5 1t-117 2t-174.5 1q-25 0 -71.5 -0.5t-68.5 -0.5l5 23l86 30q4 22 4 235
l-94 -67z" />
    <glyph glyph-name="lslash" unicode="&#x142;" horiz-adv-x="287" 
d="M43 336l70 59q0 194 -4 241l-57 24l8 22q54 18 140 28q-3 -136 -3 -249l104 83l-9 -54l-95 -76q0 -256 2 -364l71 -26l-7 -25q-20 0 -58 0.5t-56 0.5t-54.5 -0.5t-53.5 -0.5l5 23l65 28q1 21 2 297l-79 -65z" />
    <glyph glyph-name="Nacute" unicode="&#x143;" horiz-adv-x="766" 
d="M269 23l-7 -24q-19 0 -58 0.5t-61 0.5q-18 0 -57.5 -0.5t-57.5 -0.5l6 24l82 36q13 179 18 500l-15 22t-14 16t-10.5 10.5t-13.5 8.5t-13.5 5.5t-19.5 6l-23 7.5l9 24l137 5q9 -20 38 -57q156 -196 407 -479h3q0 20 -3 229.5t-3 243.5l-85 35l10 23q19 0 52.5 -0.5
t48.5 -0.5q19 0 60.5 0.5t61.5 0.5l-6 -26l-85 -32q-11 -476 -11 -515q0 -62 -5 -102l-11 -5q-60 43 -173 174.5l-297 360.5h-2q-2 -388 7 -455zM332 688l-13 26l155 112q16 -4 34 -19.5t28 -31.5l-2 -13z" />
    <glyph glyph-name="nacute" unicode="&#x144;" horiz-adv-x="557" 
d="M96 283v88l-53 23l7 21q14 8 61 22t69 15l-6 -79h2q97 79 158 79q71 0 103 -47t32 -112v-227q0 -13 14 -19l59 -25l-7 -23q-12 0 -51.5 0.5t-60.5 0.5q-14 0 -43.5 -0.5t-45.5 -0.5l7 25l40 29q4 60 4 232q0 54 -26.5 80.5t-67.5 26.5q-29 0 -59.5 -16.5t-51.5 -38.5
q0 -267 2 -288l56 -26l-6 -24q-26 1 -96 1q-18 0 -53.5 -0.5t-51.5 -0.5l7 23l55 28q3 24 3 233zM263 493l-23 21l96 161q37 0 76 -18v-12z" />
    <glyph glyph-name="Ncommaaccent" unicode="&#x145;" horiz-adv-x="766" 
d="M269 23l-7 -24q-19 0 -58 0.5t-61 0.5q-18 0 -57.5 -0.5t-57.5 -0.5l6 24l82 36q13 179 18 500l-15 22t-14 16t-10.5 10.5t-13.5 8.5t-13.5 5.5t-19.5 6l-23 7.5l9 24l137 5q9 -20 38 -57q156 -196 407 -479h3q0 20 -3 229.5t-3 243.5l-85 35l10 23q19 0 52.5 -0.5
t48.5 -0.5q19 0 60.5 0.5t61.5 0.5l-6 -26l-85 -32q-11 -476 -11 -515q0 -62 -5 -102l-11 -5q-60 43 -173 174.5l-297 360.5h-2q-2 -388 7 -455zM362 -193l-17 22q43 36 43 67q0 19 -13 31l-24 15v16l55 30h11q14 -6 24 -23t11 -41q0 -33 -24 -66t-66 -51z" />
    <glyph glyph-name="ncommaaccent" unicode="&#x146;" horiz-adv-x="557" 
d="M96 283v88l-53 23l7 21q14 8 61 22t69 15l-6 -79h2q97 79 158 79q71 0 103 -47t32 -112v-227q0 -13 14 -19l59 -25l-7 -23q-12 0 -51.5 0.5t-60.5 0.5q-14 0 -43.5 -0.5t-45.5 -0.5l7 25l40 29q4 60 4 232q0 54 -26.5 80.5t-67.5 26.5q-29 0 -59.5 -16.5t-51.5 -38.5
q0 -267 2 -288l56 -26l-6 -24q-26 1 -96 1q-18 0 -53.5 -0.5t-51.5 -0.5l7 23l55 28q3 24 3 233zM254 -240l-17 22q43 36 43 67q0 19 -13 31l-24 15v16l55 30h11q14 -6 24 -23t11 -41q0 -33 -24 -66t-66 -51z" />
    <glyph glyph-name="Ncaron" unicode="&#x147;" horiz-adv-x="766" 
d="M269 23l-7 -24q-19 0 -58 0.5t-61 0.5q-18 0 -57.5 -0.5t-57.5 -0.5l6 24l82 36q13 179 18 500l-15 22t-14 16t-10.5 10.5t-13.5 8.5t-13.5 5.5t-19.5 6l-23 7.5l9 24l137 5q9 -20 38 -57q156 -196 407 -479h3q0 20 -3 229.5t-3 243.5l-85 35l10 23q19 0 52.5 -0.5
t48.5 -0.5q19 0 60.5 0.5t61.5 0.5l-6 -26l-85 -32q-11 -476 -11 -515q0 -62 -5 -102l-11 -5q-60 43 -173 174.5l-297 360.5h-2q-2 -388 7 -455zM400 684h-20l-131 109l17 24q42 -19 124 -61q84 42 125 61l16 -24z" />
    <glyph glyph-name="ncaron" unicode="&#x148;" horiz-adv-x="557" 
d="M96 283v88l-53 23l7 21q14 8 61 22t69 15l-6 -79h2q97 79 158 79q71 0 103 -47t32 -112v-227q0 -13 14 -19l59 -25l-7 -23q-12 0 -51.5 0.5t-60.5 0.5q-14 0 -43.5 -0.5t-45.5 -0.5l7 25l40 29q4 60 4 232q0 54 -26.5 80.5t-67.5 26.5q-29 0 -59.5 -16.5t-51.5 -38.5
q0 -267 2 -288l56 -26l-6 -24q-26 1 -96 1q-18 0 -53.5 -0.5t-51.5 -0.5l7 23l55 28q3 24 3 233zM288 505l-22 -5l-99 163l23 19l87 -94l86 95l23 -20z" />
    <glyph glyph-name="napostrophe" unicode="&#x149;" horiz-adv-x="557" 
d="M96 283v88l-53 23l7 21q14 8 61 22t69 15l-6 -79h2q97 79 158 79q71 0 103 -47t32 -112v-227q0 -13 14 -19l59 -25l-7 -23q-12 0 -51.5 0.5t-60.5 0.5q-14 0 -43.5 -0.5t-45.5 -0.5l7 25l40 29q4 60 4 232q0 54 -26.5 80.5t-67.5 26.5q-29 0 -59.5 -16.5t-51.5 -38.5
q0 -267 2 -288l56 -26l-6 -24q-26 1 -96 1q-18 0 -53.5 -0.5t-51.5 -0.5l7 23l55 28q3 24 3 233zM59 527l-17 22q43 36 43 67q0 19 -13 31l-24 15v16l55 30h11q14 -6 24 -23t11 -41q0 -33 -24 -66t-66 -51z" />
    <glyph glyph-name="Eng" unicode="&#x14a;" horiz-adv-x="759" 
d="M270 23l-7 -24q-18 0 -57.5 1t-61.5 1q-18 0 -59 -1t-61 -1l6 24l86 36q13 185 18 499q-28 40 -44.5 51.5t-64.5 25.5l11 24l136 5q4 -13 37 -57q141 -178 406 -479h3q0 89 -6 473l-84 35l8 23q19 0 54 -0.5t50 -0.5q18 0 60.5 0.5t63.5 0.5l-9 -26l-86 -32
q-9 -417 -10 -515q-1 -93 -7 -144t-22 -81q-14 -27 -33.5 -41t-34.5 -14q-17 0 -37 16.5t-22 30.5l3 11q48 11 72 32q35 32 35 89v18q-56 48 -159 169.5l-279 339.5h-3q-2 -385 7 -453z" />
    <glyph glyph-name="eng" unicode="&#x14b;" horiz-adv-x="546" 
d="M96 283v88l-53 23l5 21q14 8 62 22t70 15l-5 -79h2q98 79 157 79q71 0 103 -46.5t32 -113.5v-200q0 -73 -19.5 -122t-60.5 -89q-21 -21 -43.5 -35t-32.5 -15q-30 11 -44 47l9 19q24 -6 46 -6t33.5 10t19.5 47.5t8 109.5v215q-1 118 -93 118q-59 0 -112 -55q0 -267 2 -286
l56 -27l-6 -24q-26 1 -96 1q-18 0 -53.5 -0.5t-51.5 -0.5l5 23l57 29q3 21 3 232z" />
    <glyph glyph-name="Omacron" unicode="&#x14c;" horiz-adv-x="785" 
d="M390 677h1q49 0 97.5 -12.5t94 -40t80.5 -66t56.5 -95t22.5 -122.5q1 -90 -29.5 -161.5t-82 -113.5t-112 -63.5t-124.5 -21.5t-125 21t-112.5 61.5t-82.5 107.5t-31 151q0 85 32.5 155t84 112t111.5 65t119 23zM386 640h-1q-110 0 -173.5 -85t-63.5 -217
q0 -129 71.5 -225t185.5 -96q61 0 107.5 27t73 73t39 99t12.5 113q0 128 -71.5 219.5t-179.5 91.5zM503 729h-222l15 56h222z" />
    <glyph glyph-name="omacron" unicode="&#x14d;" horiz-adv-x="525" 
d="M265 452h1q94 0 158 -64.5t64 -163.5q0 -106 -64 -171.5t-161 -65.5q-90 0 -157.5 61.5t-67.5 165.5q0 107 71 172.5t156 65.5zM262 417h-1q-60 0 -93 -58t-33 -137q0 -77 36.5 -138.5t99.5 -61.5q43 0 71.5 31.5t38.5 72.5t10 89q0 78 -34 140t-95 62zM362 547h-212
l16 56h212z" />
    <glyph glyph-name="Obreve" unicode="&#x14e;" horiz-adv-x="785" 
d="M390 677h1q49 0 97.5 -12.5t94 -40t80.5 -66t56.5 -95t22.5 -122.5q1 -90 -29.5 -161.5t-82 -113.5t-112 -63.5t-124.5 -21.5t-125 21t-112.5 61.5t-82.5 107.5t-31 151q0 85 32.5 155t84 112t111.5 65t119 23zM386 640h-1q-110 0 -173.5 -85t-63.5 -217
q0 -129 71.5 -225t185.5 -96q61 0 107.5 27t73 73t39 99t12.5 113q0 128 -71.5 219.5t-179.5 91.5zM385 714h-1q-59 0 -88 33.5t-30 87.5l32 8q15 -66 87 -66q30 0 49.5 10t26.5 21t13 28l33 7q-2 -58 -33 -93.5t-89 -35.5z" />
    <glyph glyph-name="obreve" unicode="&#x14f;" horiz-adv-x="525" 
d="M265 452h1q94 0 158 -64.5t64 -163.5q0 -106 -64 -171.5t-161 -65.5q-90 0 -157.5 61.5t-67.5 165.5q0 107 71 172.5t156 65.5zM262 417h-1q-60 0 -93 -58t-33 -137q0 -77 36.5 -138.5t99.5 -61.5q43 0 71.5 31.5t38.5 72.5t10 89q0 78 -34 140t-95 62zM148 643l33 9
q16 -78 71 -78q21 0 35.5 7t22.5 21t11 21t6 20l35 9q-1 -61 -29 -99t-84 -38q-55 0 -78.5 36.5t-22.5 91.5z" />
    <glyph glyph-name="Ohungarumlaut" unicode="&#x150;" horiz-adv-x="785" 
d="M390 677h1q49 0 97.5 -12.5t94 -40t80.5 -66t56.5 -95t22.5 -122.5q1 -90 -29.5 -161.5t-82 -113.5t-112 -63.5t-124.5 -21.5t-125 21t-112.5 61.5t-82.5 107.5t-31 151q0 85 32.5 155t84 112t111.5 65t119 23zM386 640h-1q-110 0 -173.5 -85t-63.5 -217
q0 -129 71.5 -225t185.5 -96q61 0 107.5 27t73 73t39 99t12.5 113q0 128 -71.5 219.5t-179.5 91.5zM445 711l-22 23l91 114q39 -9 68 -31v-14zM282 711l-22 23l90 114q34 -4 69 -31v-14z" />
    <glyph glyph-name="ohungarumlaut" unicode="&#x151;" horiz-adv-x="525" 
d="M265 452h1q94 0 158 -64.5t64 -163.5q0 -106 -64 -171.5t-161 -65.5q-90 0 -157.5 61.5t-67.5 165.5q0 107 71 172.5t156 65.5zM262 417h-1q-60 0 -93 -58t-33 -137q0 -77 36.5 -138.5t99.5 -61.5q43 0 71.5 31.5t38.5 72.5t10 89q0 78 -34 140t-95 62zM187 493l-24 18
l65 164q38 0 71 -14v-12zM328 493l-23 18l64 164q38 0 72 -14v-12z" />
    <glyph glyph-name="OE" unicode="&#x152;" horiz-adv-x="991" 
d="M622 659h216q37 11 84 11l3 -3q-5 -50 -26 -149l-15 -7q-32 72 -44 109l-203 -6v-250q148 0 254 12l4 -10q-4 -8 -28 -33t-32 -25q-7 0 -95 5t-103 5q0 -188 4 -271l212 -8q62 82 93 119l15 -1q-10 -81 -34 -160q-66 3 -183 3h-122q-23 0 -102 -3t-91 -3
q-183 0 -284.5 90t-101.5 237q0 149 109 246t309 97q13 0 80 -3t81 -2zM548 47v565q-34 14 -94 14q-64 0 -116 -16.5t-87 -45t-59 -67.5t-34.5 -81.5t-10.5 -89.5q0 -58 18 -109.5t53 -93.5t94.5 -67t136.5 -25q60 0 99 16z" />
    <glyph glyph-name="oe" unicode="&#x153;" horiz-adv-x="798" 
d="M255 416h-1q-44 0 -73 -32.5t-38.5 -73.5t-9.5 -88q0 -49 12.5 -93t43 -76t73.5 -32q33 0 56.5 19t35.5 50t17 62.5t5 66.5q0 46 -11.5 89t-40 75.5t-69.5 32.5zM660 226h-193v-16q0 -82 44.5 -129.5t122.5 -47.5q10 0 30 9q55 43 82 53l5 -15q-10 -24 -28.5 -47
t-32.5 -29q-44 -17 -98 -17q-57 0 -102.5 22.5t-69.5 64.5q-24 -41 -70.5 -64t-98.5 -23q-89 0 -151.5 60.5t-62.5 167.5q0 108 69 172t154 64q111 0 166 -91q30 44 75 67.5t95 23.5q72 0 120.5 -44t48.5 -129q0 -28 -11 -32q-40 -20 -94 -20zM467 263h200q8 18 8 46
q0 45 -22.5 76.5t-67.5 31.5q-55 0 -85.5 -50t-32.5 -104z" />
    <glyph glyph-name="Racute" unicode="&#x154;" horiz-adv-x="620" 
d="M39 620l9 25q92 20 235 20q245 0 245 -168q0 -124 -157 -176v-2q44 -74 153 -218l43 -56l28 -35t14 -18l-7 -8q-96 6 -161 79q-80 91 -178 246l3 6q80 21 123 59t43 108q0 36 -12 63t-31.5 42.5t-48.5 25t-59 12t-68 1.5v-307q0 -231 2 -264l98 -32l-7 -24q-24 0 -71 0.5
t-71 0.5q-22 0 -65 -0.5t-64 -0.5l7 24l75 31q7 133 7 264v290zM244 711l-13 26l155 112q16 -4 34 -19.5t28 -31.5l-2 -13z" />
    <glyph glyph-name="racute" unicode="&#x155;" horiz-adv-x="383" 
d="M44 398l8 20q14 7 54.5 20t60.5 14q12 -45 10 -98h2q28 49 67 73.5t72 24.5q34 0 49 -17q-2 -21 -12.5 -55.5t-20.5 -53.5l-12 -7q-19 26 -36 67q-6 3 -15 3q-23 0 -50 -25t-41 -61v-253l101 -29l-5 -22q-17 0 -65 0.5t-77 0.5q-16 0 -52.5 -0.5t-51.5 -0.5l5 22l57 30
q4 104 4 318zM194 490l-23 21l96 161q37 0 76 -18v-12z" />
    <glyph glyph-name="Rcommaaccent" unicode="&#x156;" horiz-adv-x="620" 
d="M39 620l9 25q92 20 235 20q245 0 245 -168q0 -124 -157 -176v-2q44 -74 153 -218l43 -56l28 -35t14 -18l-7 -8q-96 6 -161 79q-80 91 -178 246l3 6q80 21 123 59t43 108q0 36 -12 63t-31.5 42.5t-48.5 25t-59 12t-68 1.5v-307q0 -231 2 -264l98 -32l-7 -24q-24 0 -71 0.5
t-71 0.5q-22 0 -65 -0.5t-64 -0.5l7 24l75 31q7 133 7 264v290zM325 -205l-17 22q43 36 43 67q0 19 -13 31l-24 15v16l55 30h11q14 -6 24 -23t11 -41q0 -33 -24 -66t-66 -51z" />
    <glyph glyph-name="rcommaaccent" unicode="&#x157;" horiz-adv-x="383" 
d="M44 398l8 20q14 7 54.5 20t60.5 14q12 -45 10 -98h2q28 49 67 73.5t72 24.5q34 0 49 -17q-2 -21 -12.5 -55.5t-20.5 -53.5l-12 -7q-19 26 -36 67q-6 3 -15 3q-23 0 -50 -25t-41 -61v-253l101 -29l-5 -22q-17 0 -65 0.5t-77 0.5q-16 0 -52.5 -0.5t-51.5 -0.5l5 22l57 30
q4 104 4 318zM112 -213l-17 22q43 36 43 67q0 19 -13 31l-24 15v16l55 30h11q14 -6 24 -23t11 -41q0 -33 -24 -66t-66 -51z" />
    <glyph glyph-name="Rcaron" unicode="&#x158;" horiz-adv-x="620" 
d="M39 620l9 25q92 20 235 20q245 0 245 -168q0 -124 -157 -176v-2q44 -74 153 -218l43 -56l28 -35t14 -18l-7 -8q-96 6 -161 79q-80 91 -178 246l3 6q80 21 123 59t43 108q0 36 -12 63t-31.5 42.5t-48.5 25t-59 12t-68 1.5v-307q0 -231 2 -264l98 -32l-7 -24q-24 0 -71 0.5
t-71 0.5q-22 0 -65 -0.5t-64 -0.5l7 24l75 31q7 133 7 264v290zM297 709h-20l-131 109l17 24q42 -19 124 -61q84 42 125 61l16 -24z" />
    <glyph glyph-name="rcaron" unicode="&#x159;" horiz-adv-x="383" 
d="M44 398l8 20q14 7 54.5 20t60.5 14q12 -45 10 -98h2q28 49 67 73.5t72 24.5q34 0 49 -17q-2 -21 -12.5 -55.5t-20.5 -53.5l-12 -7q-19 26 -36 67q-6 3 -15 3q-23 0 -50 -25t-41 -61v-253l101 -29l-5 -22q-17 0 -65 0.5t-77 0.5q-16 0 -52.5 -0.5t-51.5 -0.5l5 22l57 30
q4 104 4 318zM221 505l-22 -5l-99 163l23 19l87 -94l86 95l23 -20z" />
    <glyph glyph-name="Sacute" unicode="&#x15a;" horiz-adv-x="512" 
d="M263 677h1q62 0 105 -32q20 16 67 32l9 -5q-14 -100 -36 -152l-15 -8q-11 22 -35 98q-33 25 -88 25q-57 0 -91 -33.5t-34 -81.5q0 -63 58 -98q18 -11 42 -23.5l56 -29l52 -27.5q68 -36 93 -75.5t25 -87.5q0 -56 -24 -97t-62 -61.5t-75 -30t-73 -9.5q-56 0 -114 21.5
t-82 45.5q4 19 21 66t24 59l16 7q5 -13 31 -140q36 -19 98 -18q68 1 108.5 35t40.5 95q0 64 -72 106q-11 6 -66.5 34.5t-83.5 46.5q-95 58 -95 156q0 72 54 127t145 55zM210 712l-13 26l155 112q16 -4 34 -19.5t28 -31.5l-2 -13z" />
    <glyph glyph-name="sacute" unicode="&#x15b;" horiz-adv-x="388" 
d="M198 452h1q38 0 74 -24q23 16 52 26l8 -7q0 -15 -8.5 -60t-15.5 -61l-14 -6q-15 28 -35 77q-20 17 -59 17q-36 0 -56 -20t-20 -49q0 -34 36 -55q17 -10 62 -30t58 -27q76 -37 76 -106q0 -38 -18.5 -67t-47 -44t-56.5 -22t-54 -7q-82 0 -145 43q0 14 9 56t14 53l14 8
q2 -4 47 -114q25 -10 61 -10q40 0 66.5 21t26.5 52q0 41 -40 60q-12 7 -97 48q-88 40 -88 118q0 52 39.5 91t109.5 39zM179 493l-23 21l96 161q37 0 76 -18v-12z" />
    <glyph glyph-name="Scircumflex" unicode="&#x15c;" horiz-adv-x="512" 
d="M263 677h1q62 0 105 -32q20 16 67 32l9 -5q-14 -100 -36 -152l-15 -8q-11 22 -35 98q-33 25 -88 25q-57 0 -91 -33.5t-34 -81.5q0 -63 58 -98q18 -11 42 -23.5l56 -29l52 -27.5q68 -36 93 -75.5t25 -87.5q0 -56 -24 -97t-62 -61.5t-75 -30t-73 -9.5q-56 0 -114 21.5
t-82 45.5q4 19 21 66t24 59l16 7q5 -13 31 -140q36 -19 98 -18q68 1 108.5 35t40.5 95q0 64 -72 106q-11 6 -66.5 34.5t-83.5 46.5q-95 58 -95 156q0 72 54 127t145 55zM257 844h20l131 -107l-17 -26l-124 61l-126 -61l-15 26z" />
    <glyph glyph-name="scircumflex" unicode="&#x15d;" horiz-adv-x="388" 
d="M198 452h1q38 0 74 -24q23 16 52 26l8 -7q0 -15 -8.5 -60t-15.5 -61l-14 -6q-15 28 -35 77q-20 17 -59 17q-36 0 -56 -20t-20 -49q0 -34 36 -55q17 -10 62 -30t58 -27q76 -37 76 -106q0 -38 -18.5 -67t-47 -44t-56.5 -22t-54 -7q-82 0 -145 43q0 14 9 56t14 53l14 8
q2 -4 47 -114q25 -10 61 -10q40 0 66.5 21t26.5 52q0 41 -40 60q-12 7 -97 48q-88 40 -88 118q0 52 39.5 91t109.5 39zM188 671l21 5l100 -161l-24 -20l-86 94l-87 -94l-23 20z" />
    <glyph glyph-name="Scedilla" unicode="&#x15e;" horiz-adv-x="512" 
d="M286 -15l-28 -41q34 -18 47 -34.5t13 -39.5q0 -30 -29 -55.5t-81 -41.5l-14 28q61 27 61 56q0 14 -13.5 24t-49.5 26l54 75q-54 -1 -114 18t-91 46q5 20 21.5 67t23.5 58l17 7q6 -19 31 -138q38 -19 97 -18q69 1 110.5 35t41.5 94q0 66 -74 107q-21 12 -73.5 39t-80.5 44
q-92 57 -92 156q0 71 55 125.5t145 54.5h2q65 0 105 -32q21 17 66 32l10 -5q-15 -101 -35 -151l-16 -8q-13 23 -35 98q-27 25 -88 25q-59 0 -93.5 -33t-34.5 -80q0 -65 57 -100q23 -15 82 -44t72 -36q68 -36 93 -76.5t25 -87.5q0 -90 -55.5 -136.5t-131.5 -57.5z" />
    <glyph glyph-name="Scedilla" unicode="&#xf6c1;" horiz-adv-x="512" 
d="M286 -15l-28 -41q34 -18 47 -34.5t13 -39.5q0 -30 -29 -55.5t-81 -41.5l-14 28q61 27 61 56q0 14 -13.5 24t-49.5 26l54 75q-54 -1 -114 18t-91 46q5 20 21.5 67t23.5 58l17 7q6 -19 31 -138q38 -19 97 -18q69 1 110.5 35t41.5 94q0 66 -74 107q-21 12 -73.5 39t-80.5 44
q-92 57 -92 156q0 71 55 125.5t145 54.5h2q65 0 105 -32q21 17 66 32l10 -5q-15 -101 -35 -151l-16 -8q-13 23 -35 98q-27 25 -88 25q-59 0 -93.5 -33t-34.5 -80q0 -65 57 -100q23 -15 82 -44t72 -36q68 -36 93 -76.5t25 -87.5q0 -90 -55.5 -136.5t-131.5 -57.5z" />
    <glyph glyph-name="scedilla" unicode="&#x15f;" horiz-adv-x="388" 
d="M224 -9l-33 -47q33 -17 45.5 -33t12.5 -38q0 -30 -28.5 -55t-79.5 -39l-13 26q59 27 59 54q0 13 -13.5 24t-48.5 25l58 79q-79 -2 -148 41q1 16 10 58.5t14 52.5l13 8q7 -11 16.5 -32.5l20 -47.5l13.5 -33q29 -11 58 -11q40 0 67 21t27 53q0 38 -37 58q-35 19 -102 49
q-87 39 -87 118q0 52 39 91t108 39h1q43 0 77 -24q29 18 51 26l8 -9q-1 -16 -9 -60t-15 -59l-14 -7q-8 14 -35 78q-19 16 -60 16q-35 0 -55 -20t-20 -49q0 -34 37 -55q18 -10 66.5 -32.5t52.5 -24.5q76 -37 76 -106q0 -59 -39 -92t-93 -43z" />
    <glyph glyph-name="scedilla" unicode="&#xf6c2;" horiz-adv-x="388" 
d="M224 -9l-33 -47q33 -17 45.5 -33t12.5 -38q0 -30 -28.5 -55t-79.5 -39l-13 26q59 27 59 54q0 13 -13.5 24t-48.5 25l58 79q-79 -2 -148 41q1 16 10 58.5t14 52.5l13 8q7 -11 16.5 -32.5l20 -47.5l13.5 -33q29 -11 58 -11q40 0 67 21t27 53q0 38 -37 58q-35 19 -102 49
q-87 39 -87 118q0 52 39 91t108 39h1q43 0 77 -24q29 18 51 26l8 -9q-1 -16 -9 -60t-15 -59l-14 -7q-8 14 -35 78q-19 16 -60 16q-35 0 -55 -20t-20 -49q0 -34 37 -55q18 -10 66.5 -32.5t52.5 -24.5q76 -37 76 -106q0 -59 -39 -92t-93 -43z" />
    <glyph glyph-name="Scaron" unicode="&#x160;" horiz-adv-x="512" 
d="M263 677h1q62 0 105 -32q20 16 67 32l9 -5q-14 -100 -36 -152l-15 -8q-11 22 -35 98q-33 25 -88 25q-57 0 -91 -33.5t-34 -81.5q0 -63 58 -98q18 -11 42 -23.5l56 -29l52 -27.5q68 -36 93 -75.5t25 -87.5q0 -56 -24 -97t-62 -61.5t-75 -30t-73 -9.5q-56 0 -114 21.5
t-82 45.5q4 19 21 66t24 59l16 7q5 -13 31 -140q36 -19 98 -18q68 1 108.5 35t40.5 95q0 64 -72 106q-11 6 -66.5 34.5t-83.5 46.5q-95 58 -95 156q0 72 54 127t145 55zM275 718h-20l-131 109l17 24q42 -19 124 -61q84 42 125 61l16 -24z" />
    <glyph glyph-name="scaron" unicode="&#x161;" horiz-adv-x="388" 
d="M198 452h1q38 0 74 -24q23 16 52 26l8 -7q0 -15 -8.5 -60t-15.5 -61l-14 -6q-15 28 -35 77q-20 17 -59 17q-36 0 -56 -20t-20 -49q0 -34 36 -55q17 -10 62 -30t58 -27q76 -37 76 -106q0 -38 -18.5 -67t-47 -44t-56.5 -22t-54 -7q-82 0 -145 43q0 14 9 56t14 53l14 8
q2 -4 47 -114q25 -10 61 -10q40 0 66.5 21t26.5 52q0 41 -40 60q-12 7 -97 48q-88 40 -88 118q0 52 39.5 91t109.5 39zM204 505l-22 -5l-99 163l23 19l87 -94l86 95l23 -20z" />
    <glyph glyph-name="Tcommaaccent" unicode="&#x162;" horiz-adv-x="670" 
d="M125 659h428q43 10 82 14l2 -4q-4 -60 -29 -159l-16 -8q-30 82 -41 121l-175 -8v-248q0 -139 6 -313l117 -31l-9 -24q-26 0 -78.5 0.5t-78.5 0.5q-27 0 -80.5 -0.5t-81.5 -0.5l7 24l106 31q3 51 3 280v281l-164 8q-48 -96 -61 -116l-16 -5q-2 28 -2 86t2 81l3 4
q26 -3 76 -14zM295 -223l-17 22q43 36 43 67q0 19 -13 31l-24 15v16l55 30h11q14 -6 24 -23t11 -41q0 -33 -24 -66t-66 -51z" />
    <glyph glyph-name="tcommaaccent" unicode="&#x163;" horiz-adv-x="332" 
d="M170 439h153l-19 -36l-134 -12q0 -14 -0.5 -113t-0.5 -168q0 -28 16 -47q21 -15 50 -15q49 0 81 24l4 -2l-1 -31q-43 -52 -116 -52q-59 0 -96 42q-23 32 -23 108v254l-67 13l17 35h52q9 65 27 115q9 11 29 20.5t31 9.5zM155 -228l-17 22q43 36 43 67q0 19 -13 31l-24 15
v16l55 30h11q14 -6 24 -23t11 -41q0 -33 -24 -66t-66 -51z" />
    <glyph glyph-name="Tcaron" unicode="&#x164;" horiz-adv-x="670" 
d="M125 659h428q43 10 82 14l2 -4q-4 -60 -29 -159l-16 -8q-30 82 -41 121l-175 -8v-248q0 -139 6 -313l117 -31l-9 -24q-26 0 -78.5 0.5t-78.5 0.5q-27 0 -80.5 -0.5t-81.5 -0.5l7 24l106 31q3 51 3 280v281l-164 8q-48 -96 -61 -116l-16 -5q-2 28 -2 86t2 81l3 4
q26 -3 76 -14zM345 701h-20l-131 109l17 24q42 -19 124 -61q84 42 125 61l16 -24z" />
    <glyph glyph-name="tcaron" unicode="&#x165;" horiz-adv-x="332" 
d="M170 439h153l-19 -36l-134 -12q0 -14 -0.5 -113t-0.5 -168q0 -28 16 -47q21 -15 50 -15q49 0 81 24l4 -2l-1 -31q-43 -52 -116 -52q-59 0 -96 42q-23 32 -23 108v254l-67 13l17 35h52q9 65 27 115q9 11 29 20.5t31 9.5zM250 536l-17 22q43 36 43 67q0 19 -13 31l-24 15
v16l55 30h11q14 -6 24 -23t11 -41q0 -33 -24 -66t-66 -51z" />
    <glyph glyph-name="Tbar" unicode="&#x166;" horiz-adv-x="670" 
d="M151 375h136v240l-164 8q-53 -106 -61 -119l-15 -5q-6 120 -1 170l3 3q12 -1 73 -13h431q54 12 82 13l1 -3q-1 -20 -10.5 -74.5t-17.5 -85.5l-13 -9q-27 65 -44 123l-175 -8v-240h152l-12 -39h-140q0 -97 1 -161t2.5 -89.5t1.5 -31.5l117 -31l-8 -24q-26 0 -78.5 0.5
t-78.5 0.5q-27 0 -80.5 -0.5t-81.5 -0.5l7 24l106 31q3 48 3 282h-148z" />
    <glyph glyph-name="tbar" unicode="&#x167;" horiz-adv-x="335" 
d="M36 439h51q13 70 27 115q10 11 30 20.5t31 9.5l-4 -145h154l-18 -35l-136 -11v-122h110l-14 -37h-96q-1 -22 -1 -126q0 -27 17 -47q19 -15 46 -15q45 0 85 30l4 -1l-1 -35q-41 -53 -116 -53q-61 0 -95 42q-14 17 -19 38.5t-5 68.5v98h-68l13 37h55v122l-65 12z" />
    <glyph glyph-name="Utilde" unicode="&#x168;" horiz-adv-x="735" 
d="M26 635l8 24q20 0 60 -1t59 -1t56.5 1t52.5 1l-6 -24l-54 -31q-1 -124 -1 -384q0 -64 29 -107q54 -75 164 -75q104 0 158 70q33 45 36 128q3 121 -1 368l-73 31l7 24q17 0 49 -1t47 -1q20 0 60 1t57 1l-6 -24l-81 -31q-3 -24 -12 -356q-2 -97 -41 -156
q-70 -109 -222 -109q-165 0 -230 112q-29 47 -31 143q-1 79 -0.5 146t0 130t-1.5 91zM515 809l25 -19q-48 -83 -98 -83q-18 0 -62 24q-34 18 -45 18q-25 0 -59 -46l-24 19q50 88 96 88q18 0 56 -21q37 -22 52 -22q26 0 59 42z" />
    <glyph glyph-name="utilde" unicode="&#x169;" horiz-adv-x="543" 
d="M84 384l-57 25l10 20q50 16 136 16q-7 -79 -7 -293q0 -47 18 -73q27 -29 73 -29q31 0 62.5 16t46.5 42v262q-5 12 -18.5 19.5t-50.5 20.5l10 20q67 17 146 15q-3 -47 -3 -369q25 -43 78 -57l-6 -17q-22 -13 -57 -13q-81 0 -96 75h-2q-71 -77 -146 -77q-63 0 -100 37
q-40 39 -40 124q0 33 1.5 116.5t1.5 119.5zM388 626l24 -16q-46 -85 -95 -85q-15 0 -61 24q-31 17 -43 17q-25 0 -59 -46l-23 19q52 86 95 86q16 0 54 -21q33 -21 49 -21q29 0 59 43z" />
    <glyph glyph-name="Umacron" unicode="&#x16a;" horiz-adv-x="735" 
d="M26 635l8 24q20 0 60 -1t59 -1t56.5 1t52.5 1l-6 -24l-54 -31q-1 -124 -1 -384q0 -64 29 -107q54 -75 164 -75q104 0 158 70q33 45 36 128q3 121 -1 368l-73 31l7 24q17 0 49 -1t47 -1q20 0 60 1t57 1l-6 -24l-81 -31q-3 -24 -12 -356q-2 -97 -41 -156
q-70 -109 -222 -109q-165 0 -230 112q-29 47 -31 143q-1 79 -0.5 146t0 130t-1.5 91zM491 711h-222l15 56h222z" />
    <glyph glyph-name="umacron" unicode="&#x16b;" horiz-adv-x="543" 
d="M84 384l-57 25l10 20q50 16 136 16q-7 -79 -7 -293q0 -47 18 -73q27 -29 73 -29q31 0 62.5 16t46.5 42v262q-5 12 -18.5 19.5t-50.5 20.5l10 20q67 17 146 15q-3 -47 -3 -369q25 -43 78 -57l-6 -17q-22 -13 -57 -13q-81 0 -96 75h-2q-71 -77 -146 -77q-63 0 -100 37
q-40 39 -40 124q0 33 1.5 116.5t1.5 119.5zM369 547h-212l16 56h212z" />
    <glyph glyph-name="Ubreve" unicode="&#x16c;" horiz-adv-x="735" 
d="M26 635l8 24q20 0 60 -1t59 -1t56.5 1t52.5 1l-6 -24l-54 -31q-1 -124 -1 -384q0 -64 29 -107q54 -75 164 -75q104 0 158 70q33 45 36 128q3 121 -1 368l-73 31l7 24q17 0 49 -1t47 -1q20 0 60 1t57 1l-6 -24l-81 -31q-3 -24 -12 -356q-2 -97 -41 -156
q-70 -109 -222 -109q-165 0 -230 112q-29 47 -31 143q-1 79 -0.5 146t0 130t-1.5 91zM387 696h-1q-59 0 -88 33.5t-30 87.5l32 8q15 -66 87 -66q30 0 49.5 10t26.5 21t13 28l33 7q-2 -58 -33 -93.5t-89 -35.5z" />
    <glyph glyph-name="ubreve" unicode="&#x16d;" horiz-adv-x="543" 
d="M84 384l-57 25l10 20q50 16 136 16q-7 -79 -7 -293q0 -47 18 -73q27 -29 73 -29q31 0 62.5 16t46.5 42v262q-5 12 -18.5 19.5t-50.5 20.5l10 20q67 17 146 15q-3 -47 -3 -369q25 -43 78 -57l-6 -17q-22 -13 -57 -13q-81 0 -96 75h-2q-71 -77 -146 -77q-63 0 -100 37
q-40 39 -40 124q0 33 1.5 116.5t1.5 119.5zM159 643l33 9q16 -78 71 -78q21 0 35.5 7t22.5 21t11 21t6 20l35 9q-1 -61 -29 -99t-84 -38q-55 0 -78.5 36.5t-22.5 91.5z" />
    <glyph glyph-name="Uring" unicode="&#x16e;" horiz-adv-x="735" 
d="M26 635l8 24q20 0 60 -1t59 -1t56.5 1t52.5 1l-6 -24l-54 -31q-1 -124 -1 -384q0 -64 29 -107q54 -75 164 -75q104 0 158 70q33 45 36 128q3 121 -1 368l-73 31l7 24q17 0 49 -1t47 -1q20 0 60 1t57 1l-6 -24l-81 -31q-3 -24 -12 -356q-2 -97 -41 -156
q-70 -109 -222 -109q-165 0 -230 112q-29 47 -31 143q-1 79 -0.5 146t0 130t-1.5 91zM392 855h1q35 0 62 -23t27 -63q0 -39 -27.5 -62.5t-62.5 -23.5t-62.5 23.5t-27.5 62.5q0 40 27 63t63 23zM392 821h-1q-19 0 -32 -13.5t-13 -38.5q0 -26 13 -39t33 -13q46 0 46 52
q0 26 -12.5 39t-33.5 13z" />
    <glyph glyph-name="uring" unicode="&#x16f;" horiz-adv-x="543" 
d="M84 384l-57 25l10 20q50 16 136 16q-7 -79 -7 -293q0 -47 18 -73q27 -29 73 -29q31 0 62.5 16t46.5 42v262q-5 12 -18.5 19.5t-50.5 20.5l10 20q67 17 146 15q-3 -47 -3 -369q25 -43 78 -57l-6 -17q-22 -13 -57 -13q-81 0 -96 75h-2q-71 -77 -146 -77q-63 0 -100 37
q-40 39 -40 124q0 33 1.5 116.5t1.5 119.5zM268 641h-1q-20 0 -32.5 -14.5t-12.5 -37.5q0 -24 13 -38t33 -14t33 14t13 38t-13 38t-33 14zM268 676h1q36 0 62.5 -24.5t26.5 -62.5q0 -39 -27 -62.5t-63 -23.5q-37 0 -63.5 23t-26.5 61q0 40 27 64.5t63 24.5z" />
    <glyph glyph-name="Uhungarumlaut" unicode="&#x170;" horiz-adv-x="735" 
d="M26 635l8 24q20 0 60 -1t59 -1t56.5 1t52.5 1l-6 -24l-54 -31q-1 -124 -1 -384q0 -64 29 -107q54 -75 164 -75q104 0 158 70q33 45 36 128q3 121 -1 368l-73 31l7 24q17 0 49 -1t47 -1q20 0 60 1t57 1l-6 -24l-81 -31q-3 -24 -12 -356q-2 -97 -41 -156
q-70 -109 -222 -109q-165 0 -230 112q-29 47 -31 143q-1 79 -0.5 146t0 130t-1.5 91zM449 701l-22 23l91 114q39 -9 68 -31v-14zM286 701l-22 23l90 114q34 -4 69 -31v-14z" />
    <glyph glyph-name="uhungarumlaut" unicode="&#x171;" horiz-adv-x="543" 
d="M84 384l-57 25l10 20q50 16 136 16q-7 -79 -7 -293q0 -47 18 -73q27 -29 73 -29q31 0 62.5 16t46.5 42v262q-5 12 -18.5 19.5t-50.5 20.5l10 20q67 17 146 15q-3 -47 -3 -369q25 -43 78 -57l-6 -17q-22 -13 -57 -13q-81 0 -96 75h-2q-71 -77 -146 -77q-63 0 -100 37
q-40 39 -40 124q0 33 1.5 116.5t1.5 119.5zM186 493l-24 18l65 164q38 0 71 -14v-12zM327 493l-23 18l64 164q38 0 72 -14v-12z" />
    <glyph glyph-name="Uogonek" unicode="&#x172;" horiz-adv-x="735" 
d="M474 -125l10 -24q-42 -45 -100 -45q-33 0 -57 18.5t-24 53.5q0 52 63 105q-161 3 -224 112q-29 47 -31 143q-1 79 -0.5 146t0 130t-1.5 91l-83 30l8 24q20 0 60 -1t59 -1t56.5 1t52.5 1l-6 -24l-54 -31q-1 -122 -1 -384q0 -65 29 -107q53 -75 164 -75q104 0 158 70
q33 45 36 128q3 121 -1 368l-73 31l7 24q17 0 49 -1t47 -1q20 0 60 1t57 1l-6 -24l-81 -31q-3 -24 -12 -356q-2 -97 -41 -156q-59 -91 -177 -106q-47 -51 -47 -86q0 -37 46 -37q29 0 58 12z" />
    <glyph glyph-name="uogonek" unicode="&#x173;" horiz-adv-x="543" 
d="M436 -132l9 -24q-40 -45 -99 -45q-32 0 -56.5 19t-24.5 53q0 68 122 152q-13 15 -18 41h-2q-71 -77 -145 -77q-64 0 -101 37q-39 39 -39 124q0 33 1 116.5t1 119.5l-56 25l9 20q52 16 138 16q-9 -81 -9 -293q0 -48 19 -73q27 -29 72 -29q31 0 62.5 16t46.5 42v262
q-5 12 -18.5 19.5t-49.5 20.5l9 20q67 17 147 15q-3 -47 -3 -369q22 -40 81 -57l-7 -17q-22 -13 -59 -13q-34 0 -54 13q-44 -40 -62 -64t-18 -46q0 -36 46 -36q29 0 58 12z" />
    <glyph glyph-name="Wcircumflex" unicode="&#x174;" horiz-adv-x="1020" 
d="M9 635l10 24q15 0 51.5 -1t57.5 -1q32 0 90 2l-6 -24l-29 -24q15 -41 205 -505h3q38 75 113 240q-52 127 -110 251q-23 23 -78 38l9 24q14 0 49.5 -1t52.5 -1q21 0 55 2l1 -4l5 -46q14 -43 70 -169h2q60 131 74 169l2 46l2 4q28 -2 45 -2q18 0 50 1t46 1l-7 -24
q-66 -21 -92 -47q-53 -93 -102 -195l122 -282h1q101 264 180 496l-33 28l9 24q36 -2 59 -2q20 0 57 1t53 1l-6 -24q-59 -18 -86 -43q-22 -39 -221 -548q-14 -31 -44 -63h-8q-8 17 -28.5 65l-51.5 122l-55 128h-2l-124 -256q-20 -35 -46 -59h-7l-118 283.5t-140 330.5
q-23 23 -80 40zM529 843h20l131 -107l-17 -26l-124 61l-126 -61l-15 26z" />
    <glyph glyph-name="wcircumflex" unicode="&#x175;" horiz-adv-x="708" 
d="M200 440l-6 -25l-38 -26q10 -35 90 -276h2l91 232l-9 60q7 6 32.5 18.5t40.5 16.5l7 -5l5 -74q18 -49 98 -254h2q56 174 85 281l-52 28l9 24q12 0 38 -0.5t40 -0.5q13 0 39.5 0.5t39.5 0.5l-5 -24q-38 -15 -61 -38q-26 -64 -125 -350q-12 -18 -40 -46h-8l-117 297h-2
l-103 -250q-18 -27 -40 -47h-8q-84 250 -140 396q-17 22 -63 37l8 25q18 0 50.5 -0.5t48.5 -0.5q15 0 45.5 0.5t45.5 0.5zM365 671l21 5l100 -161l-24 -20l-86 94l-87 -94l-23 20z" />
    <glyph glyph-name="Ycircumflex" unicode="&#x176;" horiz-adv-x="631" 
d="M6 636l10 23q20 0 59 -0.5t58 -0.5q58 0 84 1l-6 -25l-23 -21q10 -21 153 -276h3l142 271l-35 26l9 25q20 -1 62 -1q20 0 56 0.5t55 0.5l-9 -25l-46 -17q-33 -9 -51 -36q-75 -114 -157 -267q-9 -18 -9 -37q0 -202 3 -223l118 -31l-8 -24q-21 0 -73.5 1t-84.5 1
q-31 0 -84 -1t-74 -1l7 22l101 33q7 63 7 213q0 18 -10 37l-167 287q-27 29 -90 45zM320 835h20l131 -107l-17 -26l-124 61l-126 -61l-15 26z" />
    <glyph glyph-name="ycircumflex" unicode="&#x177;" horiz-adv-x="458" 
d="M310 416l8 24q10 0 33.5 -0.5t34.5 -0.5q16 0 44.5 0.5t40.5 0.5l-6 -23q-39 -18 -61 -42q-17 -36 -48 -110l-79 -190.5l-84 -202.5q-3 -12 -12 -52.5t-14 -60.5q-7 -4 -23 -4q-21 0 -43 11t-29 21q10 24 87 111q21 42 51 110q-4 8 -31 78.5l-61 158.5t-51 128
q-17 25 -70 44l9 23q31 -1 94 -1t95 1l-7 -24l-32 -25q9 -27 99 -275h2q74 192 99 274zM228 671l21 5l100 -161l-24 -20l-86 94l-87 -94l-23 20z" />
    <glyph glyph-name="Ydieresis" unicode="&#x178;" horiz-adv-x="631" 
d="M6 636l10 23q20 0 59 -0.5t58 -0.5q58 0 84 1l-6 -25l-23 -21q10 -21 153 -276h3l142 271l-35 26l9 25q20 -1 62 -1q20 0 56 0.5t55 0.5l-9 -25l-46 -17q-33 -9 -51 -36q-75 -114 -157 -267q-9 -18 -9 -37q0 -202 3 -223l118 -31l-8 -24q-21 0 -73.5 1t-84.5 1
q-31 0 -84 -1t-74 -1l7 22l101 33q7 63 7 213q0 18 -10 37l-167 287q-27 29 -90 45zM234 823l7 3q10 -5 25.5 -22.5t21.5 -31.5l-1 -7q-6 -13 -22 -30t-27 -24l-8 -2q-29 15 -49 53l2 8q23 34 51 53zM431 823l7 3q9 -5 25 -22.5t23 -31.5l-2 -7q-6 -12 -22 -29.5t-26 -24.5
l-9 -2q-29 17 -48 53l1 8q21 32 51 53z" />
    <glyph glyph-name="Zacute" unicode="&#x179;" horiz-adv-x="635" 
d="M599 659l1 -11l-422 -602v-3q328 -4 332 -4l28.5 42l38 55.5t27.5 37.5l15 2q-2 -26 -12.5 -92.5t-16.5 -87.5q-7 0 -88.5 1t-209 2t-245.5 1l-6 9l434 605l-5 2q-41 0 -152 3t-157 3q-6 -11 -26 -57t-27 -61l-19 -8q-5 42 -9 169l4 4q23 -3 47 -6.5t28 -3.5h440z
M284 701l-13 26l155 112q16 -4 34 -19.5t28 -31.5l-2 -13z" />
    <glyph glyph-name="zacute" unicode="&#x17a;" horiz-adv-x="447" 
d="M397 439l6 -10q-29 -50 -133 -210.5l-117 -180.5v-2q153 0 182 8q48 67 69 92l16 4q-8 -94 -23 -145q-4 0 -79 2.5t-128 2.5h-159l-1 8l262 393l-1 2q-58 0 -169 -5q-39 -69 -50 -82l-15 -4q-3 14 -5.5 66t-0.5 66l3 3l71 -8h272zM212 492l-23 21l96 161q37 0 76 -18v-12
z" />
    <glyph glyph-name="Zdotaccent" unicode="&#x17b;" horiz-adv-x="635" 
d="M599 659l1 -11l-422 -602v-3q328 -4 332 -4l28.5 42l38 55.5t27.5 37.5l15 2q-2 -26 -12.5 -92.5t-16.5 -87.5q-7 0 -88.5 1t-209 2t-245.5 1l-6 9l434 605l-5 2q-41 0 -152 3t-157 3q-6 -11 -26 -57t-27 -61l-19 -8q-5 42 -9 169l4 4q23 -3 47 -6.5t28 -3.5h440z
M339 827l7 3q10 -4 26 -22t23 -32l-2 -8q-6 -13 -22 -30t-27 -24l-8 -2q-28 16 -50 54l2 8q23 33 51 53z" />
    <glyph glyph-name="zdotaccent" unicode="&#x17c;" horiz-adv-x="447" 
d="M397 439l6 -10q-29 -50 -133 -210.5l-117 -180.5v-2q153 0 182 8q48 67 69 92l16 4q-8 -94 -23 -145q-4 0 -79 2.5t-128 2.5h-159l-1 8l262 393l-1 2q-58 0 -169 -5q-39 -69 -50 -82l-15 -4q-3 14 -5.5 66t-0.5 66l3 3l71 -8h272zM225 645l7 1q9 -4 24.5 -22t23.5 -33
l-3 -8q-13 -28 -51 -55l-7 -3q-28 19 -49 56l3 8q21 33 52 56z" />
    <glyph glyph-name="Zcaron" unicode="&#x17d;" horiz-adv-x="635" 
d="M599 659l1 -11l-422 -602v-3q328 -4 332 -4l28.5 42l38 55.5t27.5 37.5l15 2q-2 -26 -12.5 -92.5t-16.5 -87.5q-7 0 -88.5 1t-209 2t-245.5 1l-6 9l434 605l-5 2q-41 0 -152 3t-157 3q-6 -11 -26 -57t-27 -61l-19 -8q-5 42 -9 169l4 4q23 -3 47 -6.5t28 -3.5h440z
M346 701h-20l-131 109l17 24q42 -19 124 -61q84 42 125 61l16 -24z" />
    <glyph glyph-name="zcaron" unicode="&#x17e;" horiz-adv-x="447" 
d="M397 439l6 -10q-29 -50 -133 -210.5l-117 -180.5v-2q153 0 182 8q48 67 69 92l16 4q-8 -94 -23 -145q-4 0 -79 2.5t-128 2.5h-159l-1 8l262 393l-1 2q-58 0 -169 -5q-39 -69 -50 -82l-15 -4q-3 14 -5.5 66t-0.5 66l3 3l71 -8h272zM239 505l-22 -5l-99 163l23 19l87 -94
l86 95l23 -20z" />
    <glyph glyph-name="longs" unicode="&#x17f;" horiz-adv-x="269" 
d="M24 -1l5 20l63 31q4 56 4 201v140l-68 14l16 34h52q0 137 74 211q57 60 137 60q47 0 72 -21q-16 -62 -34 -93l-15 -6q-12 17 -36 82q-5 1 -12 1q-52 0 -77 -63.5t-25 -168.5v-181q0 -195 2 -208l75 -31l-7 -22q-20 0 -58 0.5t-60 0.5q-18 0 -54 -0.5t-54 -0.5z" />
    <glyph glyph-name="florin" unicode="&#x192;" horiz-adv-x="502" 
d="M89 373h87q29 163 96 235q58 60 130 60q44 0 68 -20q-14 -56 -39 -91l-16 -5q-15 42 -24 78q-4 1 -9 1q-71 0 -104 -162q-12 -60 -16 -96h139l-14 -29l-132 -14q-36 -234 -64 -316.5t-88 -132.5q-49 -42 -99 -42q-20 0 -43 10.5t-34 26.5l37 55q4 2 7 2q31 -39 74 -39
q23 0 40 22.5t29 81.5q26 128 55 332l-96 14z" />
    <glyph glyph-name="AEacute" unicode="&#x1fc;" horiz-adv-x="932" 
d="M484 299h-218q-7 -16 -43 -90l-72 -153l90 -33l-10 -24q-15 0 -56 0.5t-62 0.5q-17 0 -51.5 -0.5t-52.5 -0.5l9 24l68 33l288 553l-115 25l8 25q33 0 89 -0.5t81 -0.5h351q45 12 81 12l3 -3q-6 -56 -27 -154l-14 -6q-29 66 -44 113l-225 -7l10 -269q149 0 263 11l6 -9
q-3 -8 -26.5 -32.5t-31.5 -24.5q-5 0 -102 5t-108 5q2 -93 12 -252l208 -8l92 121l16 -1q-3 -27 -15.5 -83t-20.5 -79q-61 3 -186 3h-140q-24 0 -72.5 -0.5t-73.5 -0.5l7 24l86 30q2 5 -2 246zM290 344h192l-2 270h-55zM518 701l-13 26l155 112q16 -4 34 -19.5t28 -31.5
l-2 -13z" />
    <glyph glyph-name="aeacute" unicode="&#x1fd;" horiz-adv-x="707" 
d="M114 286l-10 -6q-11 8 -33.5 38.5t-28.5 48.5q14 13 52.5 34t65.5 32q41 17 72 17q88 0 120 -75q63 75 156 75q70 0 119 -44t49 -126q0 -31 -10 -35q-38 -21 -95 -21h-190v-12q0 -86 44 -132.5t122 -46.5q12 0 32 9q46 35 76 51q5 -3 7 -13q-5 -15 -24.5 -41t-32.5 -34
q-48 -18 -100 -18q-59 0 -107 24t-70 66q-93 -90 -166 -90q-59 0 -92 37t-33 80q0 55 41 80q18 12 87.5 36.5t129.5 34.5v19q0 73 -27 100.5t-74 27.5q-32 0 -70 -22q0 -40 -10 -94zM382 262h196q8 24 8 45q0 42 -21.5 74t-66.5 32q-41 0 -69.5 -28.5t-38 -60.5t-8.5 -62z
M200 44h1q24 0 56 16t56 46q-18 43 -18 116q-105 -22 -137 -43q-20 -12 -27 -25t-7 -36q0 -38 24.5 -56t51.5 -18zM339 493l-23 21l96 161q37 0 76 -18v-12z" />
    <glyph glyph-name="Oslashacute" unicode="&#x1fe;" horiz-adv-x="785" 
d="M591 618l59 77l28 -26l-56 -73q118 -98 119 -253q1 -91 -30 -163t-82.5 -114t-111 -63.5t-121.5 -21.5q-117 0 -208 58l-68 -90l-27 28l66 86q-116 100 -116 260q0 86 33 156t85 111.5t111.5 64t117.5 22.5q114 0 201 -59zM214 126l336 444q-63 70 -165 70
q-109 0 -173.5 -87t-64.5 -222q0 -118 65 -205h2zM574 537l-338 -444q27 -33 72.5 -54.5t93.5 -21.5q50 0 90 18t67 48.5t45 71.5t26 85t8 91q0 117 -62 206h-2zM335 707l-13 26l155 112q16 -4 34 -19.5t28 -31.5l-2 -13z" />
    <glyph glyph-name="oslashacute" unicode="&#x1ff;" horiz-adv-x="526" 
d="M392 414l41 57l26 -22l-40 -56q70 -65 70 -169q0 -106 -64.5 -171.5t-161.5 -65.5q-66 0 -121 34l-48 -64l-25 25l44 59q-34 27 -55 72.5t-21 100.5q0 109 71 173.5t157 64.5q72 0 127 -38zM159 98l195 269q-35 50 -91 50q-64 0 -99.5 -58.5t-35.5 -138.5q0 -74 29 -122
h2zM374 335l-195 -267q35 -46 93 -46q64 0 95 59t31 138q0 68 -23 115zM234 493l-23 21l96 161q37 0 76 -18v-12z" />
    <glyph glyph-name="Scommaaccent" unicode="&#x218;" horiz-adv-x="512" 
d="M263 677h1q62 0 105 -32q20 16 67 32l9 -5q-14 -100 -36 -152l-15 -8q-11 22 -35 98q-33 25 -88 25q-57 0 -91 -33.5t-34 -81.5q0 -63 58 -98q18 -11 42 -23.5l56 -29l52 -27.5q68 -36 93 -75.5t25 -87.5q0 -56 -24 -97t-62 -61.5t-75 -30t-73 -9.5q-56 0 -114 21.5
t-82 45.5q4 19 21 66t24 59l16 7q5 -13 31 -140q36 -19 98 -18q68 1 108.5 35t40.5 95q0 64 -72 106q-11 6 -66.5 34.5t-83.5 46.5q-95 58 -95 156q0 72 54 127t145 55zM221 -233l-17 22q43 36 43 67q0 19 -13 31l-24 15v16l55 30h11q14 -6 24 -23t11 -41q0 -33 -24 -66
t-66 -51z" />
    <glyph glyph-name="scommaaccent" unicode="&#x219;" horiz-adv-x="388" 
d="M198 452h1q38 0 74 -24q23 16 52 26l8 -7q0 -15 -8.5 -60t-15.5 -61l-14 -6q-15 28 -35 77q-20 17 -59 17q-36 0 -56 -20t-20 -49q0 -34 36 -55q17 -10 62 -30t58 -27q76 -37 76 -106q0 -38 -18.5 -67t-47 -44t-56.5 -22t-54 -7q-82 0 -145 43q0 14 9 56t14 53l14 8
q2 -4 47 -114q25 -10 61 -10q40 0 66.5 21t26.5 52q0 41 -40 60q-12 7 -97 48q-88 40 -88 118q0 52 39.5 91t109.5 39zM149 -224l-17 22q43 36 43 67q0 19 -13 31l-24 15v16l55 30h11q14 -6 24 -23t11 -41q0 -33 -24 -66t-66 -51z" />
    <glyph glyph-name="uni021A" unicode="&#x21a;" horiz-adv-x="670" 
d="M125 659h428q43 10 82 14l2 -4q-4 -60 -29 -159l-16 -8q-30 82 -41 121l-175 -8v-248q0 -139 6 -313l117 -31l-9 -24q-26 0 -78.5 0.5t-78.5 0.5q-27 0 -80.5 -0.5t-81.5 -0.5l7 24l106 31q3 51 3 280v281l-164 8q-48 -96 -61 -116l-16 -5q-2 28 -2 86t2 81l3 4
q26 -3 76 -14zM295 -223l-17 22q43 36 43 67q0 19 -13 31l-24 15v16l55 30h11q14 -6 24 -23t11 -41q0 -33 -24 -66t-66 -51z" />
    <glyph glyph-name="uni021B" unicode="&#x21b;" horiz-adv-x="332" 
d="M170 439h153l-19 -36l-134 -12q0 -14 -0.5 -113t-0.5 -168q0 -28 16 -47q21 -15 50 -15q49 0 81 24l4 -2l-1 -31q-43 -52 -116 -52q-59 0 -96 42q-23 32 -23 108v254l-67 13l17 35h52q9 65 27 115q9 11 29 20.5t31 9.5zM155 -228l-17 22q43 36 43 67q0 19 -13 31l-24 15
v16l55 30h11q14 -6 24 -23t11 -41q0 -33 -24 -66t-66 -51z" />
    <glyph glyph-name="circumflex" unicode="&#x2c6;" horiz-adv-x="386" 
d="M182 671l21 5l100 -161l-24 -20l-86 94l-87 -94l-23 20z" />
    <glyph glyph-name="caron" unicode="&#x2c7;" horiz-adv-x="386" 
d="M205 505l-22 -5l-99 163l23 19l87 -94l86 95l23 -20z" />
    <glyph glyph-name="uni02C9" unicode="&#x2c9;" horiz-adv-x="386" 
d="M292 547h-212l16 56h212z" />
    <glyph glyph-name="breve" unicode="&#x2d8;" horiz-adv-x="386" 
d="M87 643l33 9q16 -78 71 -78q21 0 35.5 7t22.5 21t11 21t6 20l35 9q-1 -61 -29 -99t-84 -38q-55 0 -78.5 36.5t-22.5 91.5z" />
    <glyph glyph-name="dotaccent" unicode="&#x2d9;" horiz-adv-x="386" 
d="M193 645l7 1q9 -4 24.5 -22t23.5 -33l-3 -8q-13 -28 -51 -55l-7 -3q-28 19 -49 56l3 8q21 33 52 56z" />
    <glyph glyph-name="ring" unicode="&#x2da;" horiz-adv-x="386" 
d="M193 641h-1q-20 0 -32.5 -14.5t-12.5 -37.5q0 -24 13 -38t33 -14t33 14t13 38t-13 38t-33 14zM193 676h1q36 0 62.5 -24.5t26.5 -62.5q0 -39 -27 -62.5t-63 -23.5q-37 0 -63.5 23t-26.5 61q0 40 27 64.5t63 24.5z" />
    <glyph glyph-name="ogonek" unicode="&#x2db;" horiz-adv-x="392" 
d="M288 -125l10 -24q-42 -45 -100 -45q-32 0 -56.5 19t-24.5 53q0 33 26 69t63 60h42q-64 -65 -64 -106q0 -38 47 -38q28 0 57 12z" />
    <glyph glyph-name="tilde" unicode="&#x2dc;" horiz-adv-x="386" 
d="M311 626l24 -16q-46 -85 -95 -85q-15 0 -61 24q-31 17 -43 17q-24 0 -59 -46l-23 19q52 86 95 86q16 0 54 -21q33 -21 49 -21q29 0 59 43z" />
    <glyph glyph-name="hungarumlaut" unicode="&#x2dd;" horiz-adv-x="386" 
d="M117 493l-24 18l65 164q38 0 71 -14v-12zM258 493l-23 18l64 164q38 0 72 -14v-12z" />
    <glyph glyph-name="uni037E" unicode="&#x37e;" horiz-adv-x="227" 
d="M112 428l8 2q11 -5 30 -25.5t28 -37.5l-3 -10q-6 -15 -25.5 -35t-32.5 -28l-9 -2q-15 9 -32 28t-26 35l3 9q25 41 59 64zM48 -124l-19 25q68 61 68 123q0 21 -10 36l-41 22v15l78 47h14q12 -5 24 -27.5t13 -57.5q1 -51 -32 -99t-95 -84z" />
    <glyph glyph-name="tonos" unicode="&#x384;" horiz-adv-x="386" 
d="M190 493l-25 8l40 169q15 3 40.5 -1t37.5 -11v-12z" />
    <glyph glyph-name="dieresistonos" unicode="&#x385;" horiz-adv-x="386" 
d="M68 636l8 2q8 -5 24 -22t22 -30l-2 -8q-12 -26 -48 -51l-7 -2q-29 18 -48 51l2 9q21 33 49 51zM172 504l-27 10l38 168q42 3 78 -15v-12zM314 636l7 2q9 -5 24.5 -22t22.5 -30l-2 -8q-11 -24 -47 -51l-8 -2q-27 18 -48 51l2 9q27 37 49 51z" />
    <glyph glyph-name="Alphatonos" unicode="&#x386;" horiz-adv-x="710" 
d="M297 633l75 49l6 -5q-1 -24 14 -69q28 -83 209 -530q14 -19 32.5 -29.5t68.5 -26.5l-7 -23q-18 0 -58 0.5t-60 0.5q-17 0 -52 -0.5t-54 -0.5l6 21l37 29q-8 28 -75 193q-94 -7 -223 -5q-51 -130 -68 -181l88 -34l-6 -23q-17 0 -58 0.5t-60 0.5q-18 0 -52 -0.5t-51 -0.5
l6 24l70 33q25 51 94 213t125 306q7 18 3 31zM331 539h-2l-50.5 -133t-43.5 -118q12 0 89.5 -2t100.5 -2zM120 508l-25 8l40 169q15 3 40.5 -1t37.5 -11v-12z" />
    <glyph glyph-name="anoteleia" unicode="&#x387;" horiz-adv-x="386" 
d="M102 641l8 2q9 -5 24 -22.5t22 -30.5l-2 -7q-12 -27 -47 -54l-8 -2q-29 18 -48 53l2 8q21 35 49 53zM281 641l7 2q8 -5 24 -22.5t23 -30.5l-2 -7q-10 -26 -48 -54l-8 -2q-12 9 -26.5 25t-20.5 28l1 8q23 35 50 53z" />
    <glyph glyph-name="Epsilontonos" unicode="&#x388;" horiz-adv-x="565" 
d="M36 637l7 23q21 0 62 -0.5t61 -0.5h248q8 2 39 6.5t44 4.5l3 -3q-3 -44 -26 -145l-16 -9q-18 39 -43 108l-203 -8v-250q130 0 254 12l4 -9q-4 -8 -28 -33t-32 -25q-6 0 -94 5.5t-104 5.5q0 -189 4 -272l212 -8q1 2 37 52t50 66l20 1q-2 -24 -14.5 -80t-20.5 -81
q-65 3 -181 3h-158q-23 0 -69.5 -0.5t-67.5 -0.5l8 24l85 29q6 24 6 291v266zM-95 508l-25 8l40 169q15 3 40.5 -1t37.5 -11v-12z" />
    <glyph glyph-name="Etatonos" unicode="&#x389;" horiz-adv-x="771" 
d="M43 635l9 24q18 0 57 -0.5t58 -0.5q21 0 52 0.5t43 0.5l-7 -24l-43 -31v-227h348v226l-49 35l8 21q15 0 43 -0.5t43 -0.5q25 0 69.5 0.5t62.5 0.5l-8 -25l-80 -30v-263q0 -264 7 -285l92 -32l-9 -25q-19 0 -64.5 0.5t-69.5 0.5q-18 0 -49 -0.5t-44 -0.5l7 25l40 31
q1 33 1 279q-35 -6 -129 -6h-219q0 -243 1 -269l46 -37l-8 -23q-12 0 -40.5 0.5t-46.5 0.5q-22 0 -66.5 -0.5t-64.5 -0.5l9 24l75 30q6 150 6 294v259zM-92 508l-25 8l40 169q15 3 40.5 -1t37.5 -11v-12z" />
    <glyph glyph-name="Iotatonos" unicode="&#x38a;" horiz-adv-x="336" 
d="M44 636l7 23q19 0 58 -0.5t59 -0.5t62 0.5t62 0.5l-7 -24l-73 -29v-263q0 -247 5 -290l92 -30l-7 -24q-17 0 -61.5 0.5t-72.5 0.5q-26 0 -72.5 -0.5t-64.5 -0.5l7 24l79 30q6 24 6 290v264zM-84 508l-25 8l40 169q15 3 40.5 -1t37.5 -11v-12z" />
    <glyph glyph-name="Omicrontonos" unicode="&#x38c;" horiz-adv-x="785" 
d="M390 677h1q49 0 97.5 -12.5t94 -40t80.5 -66t56.5 -95t22.5 -122.5q1 -90 -29.5 -161.5t-82 -113.5t-112 -63.5t-124.5 -21.5t-125 21t-112.5 61.5t-82.5 107.5t-31 151q0 85 32.5 155t84 112t111.5 65t119 23zM386 640h-1q-110 0 -173.5 -85t-63.5 -217
q0 -129 71.5 -225t185.5 -96q61 0 107.5 27t73 73t39 99t12.5 113q0 128 -71.5 219.5t-179.5 91.5zM-22 512l-25 8l40 169q15 3 40.5 -1t37.5 -11v-12z" />
    <glyph glyph-name="Upsilontonos" unicode="&#x38e;" horiz-adv-x="693" 
d="M195 23l97 31q6 73 6 176q0 75 -10 137t-32.5 119t-67 89.5t-107.5 32.5q-39 0 -72 -11l1 24q66 47 144 47q42 0 74 -14t52 -41t33.5 -57.5t20.5 -72.5t9.5 -76t3.5 -78h13q4 65 20.5 123t46 107.5t78.5 79t112 29.5q15 0 36 -14.5t32 -34.5l-5 -17q-15 4 -39 4
q-119 0 -187 -106t-68 -269q0 -115 3 -177l106 -31l-7 -24q-21 0 -71 0.5t-75 0.5q-26 0 -76 -0.5t-76 -0.5zM-111 512l-25 8l40 169q15 3 40.5 -1t37.5 -11v-12z" />
    <glyph glyph-name="Omegatonos" unicode="&#x38f;" horiz-adv-x="823" 
d="M339 0h-281q-15 70 -27 158l17 2l64 -91h163l1 7q-191 105 -191 287q0 139 96.5 226.5t237.5 87.5q140 0 230.5 -84.5t90.5 -221.5q0 -71 -29 -130t-69 -95t-97 -70v-7h164q6 8 27 39t37 51l18 2q-13 -93 -29 -161h-285l-5 6q2 11 7 33t7 33q153 102 153 299
q-1 119 -59.5 194t-163.5 75q-110 0 -170 -79.5t-60 -197.5q0 -183 146 -291q5 -27 11 -66zM2 507l-25 8l40 169q15 3 40.5 -1t37.5 -11v-12z" />
    <glyph glyph-name="iotadieresistonos" unicode="&#x390;" horiz-adv-x="255" 
d="M77 48v386q36 14 84 18v-390q10 -18 84 -25l-5 -21q-34 -29 -88 -29q-34 0 -54.5 16.5t-20.5 44.5zM3 636l8 2q8 -5 24 -22t22 -30l-2 -8q-12 -26 -48 -51l-7 -2q-29 18 -48 51l2 9q21 33 49 51zM107 504l-27 10l38 168q42 3 78 -15v-12zM249 636l7 2q9 -5 24.5 -22
t22.5 -30l-2 -8q-11 -24 -47 -51l-8 -2q-27 18 -48 51l2 9q27 37 49 51z" />
    <glyph glyph-name="Alpha" unicode="&#x391;" horiz-adv-x="710" 
d="M297 633l75 49l6 -5q-1 -24 14 -69q28 -83 209 -530q14 -19 32.5 -29.5t68.5 -26.5l-7 -23q-18 0 -58 0.5t-60 0.5q-17 0 -52 -0.5t-54 -0.5l6 21l37 29q-8 28 -75 193q-94 -7 -223 -5q-51 -130 -68 -181l88 -34l-6 -23q-17 0 -58 0.5t-60 0.5q-18 0 -52 -0.5t-51 -0.5
l6 24l70 33q25 51 94 213t125 306q7 18 3 31zM331 539h-2l-50.5 -133t-43.5 -118q12 0 89.5 -2t100.5 -2z" />
    <glyph glyph-name="Beta" unicode="&#x392;" horiz-adv-x="603" 
d="M39 629l8 23q150 13 229 13q246 0 246 -151q0 -67 -49 -105t-116 -49v-7q208 -21 208 -161q0 -195 -334 -195q-97 0 -193 3l7 24l72 29q6 45 6 234v322zM212 627v-260q98 2 156 32.5t58 107.5q0 67 -53 97q-43 23 -131 23h-30zM461 192v1q0 24 -5 43t-21 38t-42.5 31.5
t-72.5 20t-108 6.5v-28q0 -232 3 -270q92 1 139.5 15t72.5 42q34 38 34 101z" />
    <glyph glyph-name="Gamma" unicode="&#x393;" horiz-adv-x="521" 
d="M40 638l9 22q18 0 55.5 -0.5t56.5 -0.5h245q4 1 22 4l34 5.5t22 2.5l3 -3q-1 -17 -8.5 -70t-12.5 -68l-15 -7q-22 36 -49 97l-190 -8v-283q0 -225 4 -275l111 -32l-9 -23q-18 0 -68 0.5t-81 0.5q-20 0 -62 -0.5t-64 -0.5l6 23l70 32q4 19 4 288v267z" />
    <glyph glyph-name="uni0394" unicode="&#x394;" horiz-adv-x="677" 
d="M298 637l68 45l5 -2q-2 -25 9 -59q20 -54 117.5 -279l134.5 -307l5 -38q-19 0 -53 1.5t-51 1.5h-391q-25 0 -61 -1.5t-42 -1.5l8 43l246 553q7 15 7 31zM320 48h1q143 0 203 10q-168 396 -204 492h-3l-202 -492q61 -10 205 -10z" />
    <glyph glyph-name="Epsilon" unicode="&#x395;" horiz-adv-x="565" 
d="M36 637l7 23q21 0 62 -0.5t61 -0.5h248q8 2 39 6.5t44 4.5l3 -3q-3 -44 -26 -145l-16 -9q-18 39 -43 108l-203 -8v-250q130 0 254 12l4 -9q-4 -8 -28 -33t-32 -25q-6 0 -94 5.5t-104 5.5q0 -189 4 -272l212 -8q1 2 37 52t50 66l20 1q-2 -24 -14.5 -80t-20.5 -81
q-65 3 -181 3h-158q-23 0 -69.5 -0.5t-67.5 -0.5l8 24l85 29q6 24 6 291v266z" />
    <glyph glyph-name="Zeta" unicode="&#x396;" horiz-adv-x="635" 
d="M599 659l1 -11l-422 -602v-3q328 -4 332 -4l28.5 42l38 55.5t27.5 37.5l15 2q-2 -26 -12.5 -92.5t-16.5 -87.5q-7 0 -88.5 1t-209 2t-245.5 1l-6 9l434 605l-5 2q-41 0 -152 3t-157 3q-6 -11 -26 -57t-27 -61l-19 -8q-5 42 -9 169l4 4q23 -3 47 -6.5t28 -3.5h440z" />
    <glyph glyph-name="Eta" unicode="&#x397;" horiz-adv-x="771" 
d="M43 635l9 24q18 0 57 -0.5t58 -0.5q21 0 52 0.5t43 0.5l-7 -24l-43 -31v-227h348v226l-49 35l8 21q15 0 43 -0.5t43 -0.5q25 0 69.5 0.5t62.5 0.5l-8 -25l-80 -30v-263q0 -264 7 -285l92 -32l-9 -25q-19 0 -64.5 0.5t-69.5 0.5q-18 0 -49 -0.5t-44 -0.5l7 25l40 31
q1 33 1 279q-35 -6 -129 -6h-219q0 -243 1 -269l46 -37l-8 -23q-12 0 -40.5 0.5t-46.5 0.5q-22 0 -66.5 -0.5t-64.5 -0.5l9 24l75 30q6 150 6 294v259z" />
    <glyph glyph-name="Theta" unicode="&#x398;" horiz-adv-x="781" 
d="M307 376h169l41 72l20 4l-21 -217l-19 -4l-30 72h-168l-39 -68l-20 -4l21 217l19 4zM388 677h1q61 0 121.5 -21t112 -60.5t83.5 -106t33 -148.5q1 -90 -30 -161.5t-82 -113.5t-111 -63.5t-123 -21.5q-64 0 -124.5 21t-112 61.5t-82.5 108t-31 151.5q0 85 32 154.5
t83.5 111.5t111 65t118.5 23zM384 640h-1q-109 0 -172.5 -85t-63.5 -217q0 -129 71 -225t186 -96q80 0 134 47.5t75.5 115.5t21.5 149q0 128 -72 219.5t-179 91.5z" />
    <glyph glyph-name="Iota" unicode="&#x399;" horiz-adv-x="336" 
d="M44 636l7 23q19 0 58 -0.5t59 -0.5t62 0.5t62 0.5l-7 -24l-73 -29v-263q0 -247 5 -290l92 -30l-7 -24q-17 0 -61.5 0.5t-72.5 0.5q-26 0 -72.5 -0.5t-64.5 -0.5l7 24l79 30q6 24 6 290v264z" />
    <glyph glyph-name="Kappa" unicode="&#x39a;" horiz-adv-x="676" 
d="M667 659l-13 -25l-51 -13t-55 -15q-15 -4 -33 -20q-59 -58 -193 -214v-2q89 -106 223 -251l59 -63.5l42 -44t20 -21.5l-12 -5q-66 3 -107 24t-82 63q-108 108 -227 252v8l165.5 191.5t71.5 93.5q-4 24 -2 44q47 2 78 1.5t69 -2t47 -1.5zM44 638l7 22q19 0 57 -0.5
t57 -0.5q21 0 63 0.5t64 0.5l-7 -23l-73 -31v-263q0 -247 5 -290l92 -30l-7 -24q-18 0 -64.5 0.5t-75.5 0.5q-25 0 -69.5 -0.5t-61.5 -0.5l6 24l80 30q6 25 6 290v264z" />
    <glyph glyph-name="Lambda" unicode="&#x39b;" horiz-adv-x="710" 
d="M297 633l75 49l6 -4q-1 -25 14 -70q26 -78 211 -534q14 -18 32 -27.5t67 -24.5l-7 -23q-18 0 -58 0.5t-60 0.5q-16 0 -51.5 -0.5t-55.5 -0.5l6 21l37 29q-7 22 -183 486h-2q-162 -421 -181 -479l89 -34l-6 -23q-16 0 -57 0.5t-60 0.5q-17 0 -51.5 -0.5t-52.5 -0.5l6 23
l70 34q82 170 219 519q7 17 3 30z" />
    <glyph glyph-name="Mu" unicode="&#x39c;" horiz-adv-x="933" 
d="M61 633l10 25l162 1q2 -22 12 -46q8 -19 36 -76l82 -168.5l106 -219.5h2l229 470q3 7 3 40l185 -1l-8 -25l-85 -29q2 -92 11.5 -311t12.5 -240l91 -30l-5 -24q-18 0 -63 0.5t-67 0.5q-21 0 -61.5 -0.5t-59.5 -0.5l8 24l62 30q-2 66 -4.5 253t-3.5 255h-3l-259 -570
l-19 -2l-242 547h-2q-24 -285 -30 -480l90 -34l-6 -23q-18 0 -57.5 0.5t-61.5 0.5q-17 0 -52 -0.5t-51 -0.5l5 23l71 33q22 124 60 526q-7 21 -21 28t-77 24z" />
    <glyph glyph-name="Nu" unicode="&#x39d;" horiz-adv-x="766" 
d="M269 23l-7 -24q-19 0 -58 0.5t-61 0.5q-18 0 -57.5 -0.5t-57.5 -0.5l6 24l82 36q13 179 18 500l-15 22t-14 16t-10.5 10.5t-13.5 8.5t-13.5 5.5t-19.5 6l-23 7.5l9 24l137 5q9 -20 38 -57q156 -196 407 -479h3q0 20 -3 229.5t-3 243.5l-85 35l10 23q19 0 52.5 -0.5
t48.5 -0.5q19 0 60.5 0.5t61.5 0.5l-6 -26l-85 -32q-11 -476 -11 -515q0 -62 -5 -102l-11 -5q-60 43 -173 174.5l-297 360.5h-2q-2 -388 7 -455z" />
    <glyph glyph-name="Xi" unicode="&#x39e;" horiz-adv-x="613" 
d="M100 72h393q23 32 70 90l15 2q-13 -81 -33 -164h-503q-3 33 -5 161l17 3q6 -13 21.5 -43t24.5 -49zM180 379h238l20.5 27l26.5 35l16 3q-9 -117 -18 -198l-16 -2q-22 44 -33 68h-238q-26 -40 -47 -67l-14 -2q8 103 19 198l16 3q16 -30 30 -65zM478 594h-353
q-32 -62 -46 -82l-15 -4q0 135 6 162q27 -2 61 -11h350q45 8 71 11q-9 -77 -22 -151l-17 -8q-9 18 -35 83z" />
    <glyph glyph-name="Omicron" unicode="&#x39f;" horiz-adv-x="785" 
d="M390 677h1q49 0 97.5 -12.5t94 -40t80.5 -66t56.5 -95t22.5 -122.5q1 -90 -29.5 -161.5t-82 -113.5t-112 -63.5t-124.5 -21.5t-125 21t-112.5 61.5t-82.5 107.5t-31 151q0 85 32.5 155t84 112t111.5 65t119 23zM386 640h-1q-110 0 -173.5 -85t-63.5 -217
q0 -129 71.5 -225t185.5 -96q61 0 107.5 27t73 73t39 99t12.5 113q0 128 -71.5 219.5t-179.5 91.5z" />
    <glyph glyph-name="Pi" unicode="&#x3a0;" horiz-adv-x="756" 
d="M123 347v259l-81 29l9 24q18 0 57.5 -0.5t58.5 -0.5h421q25 0 69 0.5t62 0.5l-7 -25l-80 -30v-259q0 -267 7 -288l91 -34l-8 -24q-19 0 -65 0.5t-69 0.5q-18 0 -50 -0.5t-45 -0.5l9 25l40 31q1 33 1 287v267q-38 7 -164 7q-125 0 -167 -7v-265q0 -262 1 -285l46 -37
l-9 -23q-11 0 -39.5 0.5t-46.5 0.5q-22 0 -66 -0.5t-64 -0.5l10 24l73 30q6 144 6 294z" />
    <glyph glyph-name="Rho" unicode="&#x3a1;" horiz-adv-x="568" 
d="M42 627l8 23q139 15 209 15q123 0 189 -42q82 -50 82 -154q0 -56 -22.5 -98.5t-57.5 -64.5t-70 -32.5t-68 -10.5q-26 0 -40 5l-10 25q84 7 126.5 52t42.5 119q0 170 -219 163v-271q0 -105 1.5 -175.5t3 -97.5t1.5 -28l110 -32l-9 -24q-25 0 -77 0.5t-78 0.5
q-20 0 -60.5 -0.5t-60.5 -0.5l6 23l70 32q4 20 4 299v254z" />
    <glyph glyph-name="Sigma" unicode="&#x3a3;" horiz-adv-x="630" 
d="M59 659h417q61 11 81 12l3 -3q-7 -99 -19 -153l-14 -6q-9 17 -25.5 56t-24.5 55l-303 -6v-2l200 -255l-3 -9l-232 -275v-2h362q16 19 44.5 56l36.5 47l17 -2q-21 -120 -40 -172h-527q6 27 18 47l241 273v2l-244 319z" />
    <glyph glyph-name="Tau" unicode="&#x3a4;" horiz-adv-x="670" 
d="M125 659h428q43 10 82 14l2 -4q-4 -60 -29 -159l-16 -8q-30 82 -41 121l-175 -8v-248q0 -139 6 -313l117 -31l-9 -24q-26 0 -78.5 0.5t-78.5 0.5q-27 0 -80.5 -0.5t-81.5 -0.5l7 24l106 31q3 51 3 280v281l-164 8q-48 -96 -61 -116l-16 -5q-2 28 -2 86t2 81l3 4
q26 -3 76 -14z" />
    <glyph glyph-name="Upsilon" unicode="&#x3a5;" horiz-adv-x="693" 
d="M195 23l97 31q6 73 6 176q0 75 -10 137t-32.5 119t-67 89.5t-107.5 32.5q-39 0 -72 -11l1 24q66 47 144 47q42 0 74 -14t52 -41t33.5 -57.5t20.5 -72.5t9.5 -76t3.5 -78h13q4 65 20.5 123t46 107.5t78.5 79t112 29.5q15 0 36 -14.5t32 -34.5l-5 -17q-15 4 -39 4
q-119 0 -187 -106t-68 -269q0 -115 3 -177l106 -31l-7 -24q-21 0 -71 0.5t-75 0.5q-26 0 -76 -0.5t-76 -0.5z" />
    <glyph glyph-name="Phi" unicode="&#x3a6;" horiz-adv-x="800" 
d="M359 623l-72 26l7 21q15 0 51.5 -1t56.5 -1q21 0 59 1t55 1l-6 -22l-67 -26v-26q45 -3 85 -11.5t83.5 -27t74.5 -46t51.5 -73t20.5 -102.5q0 -67 -29 -117.5t-77.5 -79t-100 -43t-108.5 -17.5v-30l87 -28l-7 -22q-12 0 -52.5 1t-68.5 1q-25 0 -67 -1t-60 -1l7 22l77 28
v30q-57 3 -107.5 16t-100 39.5t-79 77t-29.5 119.5q0 68 29 119.5t77.5 81t100.5 44.5t109 20v27zM358 113v448q-100 -11 -159.5 -65.5t-59.5 -153.5q0 -101 58.5 -158t160.5 -71zM443 561v-448q219 27 219 225q0 103 -59.5 158t-159.5 65z" />
    <glyph glyph-name="Chi" unicode="&#x3a7;" horiz-adv-x="697" 
d="M42 636l11 23q21 0 65 -0.5t66 -0.5q18 0 48 0.5t43 0.5l-6 -25l-26 -27q44 -80 119 -201h2q65 102 119 199l-30 31l10 23q10 0 33.5 -0.5t33.5 -0.5q20 0 59 0.5t58 0.5l-7 -25q-70 -17 -109 -51q-65 -88 -148 -213q150 -254 171 -287q14 -23 39 -31l91 -30l-9 -23
q-25 0 -73.5 1t-72.5 1q-17 0 -50 -1t-50 -1l6 24l31 26q-25 49 -137 239h-2l-45.5 -73l-54 -87.5t-39.5 -69.5l46 -35l-7 -24q-12 0 -42.5 1t-46.5 1q-19 0 -57.5 -1t-58.5 -1l7 24l66 24q22 8 43 33q57 72 170 246q-118 204 -150 254q-15 26 -40 33z" />
    <glyph glyph-name="Psi" unicode="&#x3a8;" horiz-adv-x="775" 
d="M343 303v305l-78 29l6 22q18 0 58 -0.5t59 -0.5q22 0 62.5 0.5t60.5 0.5l-8 -23l-70 -28v-305q82 13 117.5 51.5t47.5 132.5q13 93 20 121q20 23 61.5 38.5t87.5 17.5l1 -20q-48 -34 -63 -49q-13 -33 -23 -108q-17 -113 -73.5 -161t-175.5 -58q0 -148 3 -215l95 -30
l-7 -24q-22 0 -67 0.5t-67 0.5q-27 0 -74 -0.5t-67 -0.5l5 24l85 30q4 67 4 215q-124 10 -179.5 52t-72.5 155q-14 100 -22 122q-17 15 -62 45l2 22q50 -1 93 -17t58 -37q6 -17 19 -125q10 -91 45.5 -130t118.5 -52z" />
    <glyph glyph-name="uni03A9" unicode="&#x3a9;" horiz-adv-x="823" 
d="M339 0h-281q-15 70 -27 158l17 2l64 -91h163l1 7q-191 105 -191 287q0 139 96.5 226.5t237.5 87.5q140 0 230.5 -84.5t90.5 -221.5q0 -71 -29 -130t-69 -95t-97 -70v-7h164q6 8 27 39t37 51l18 2q-13 -93 -29 -161h-285l-5 6q2 11 7 33t7 33q153 102 153 299
q-1 119 -59.5 194t-163.5 75q-110 0 -170 -79.5t-60 -197.5q0 -183 146 -291q5 -27 11 -66z" />
    <glyph glyph-name="Iotadieresis" unicode="&#x3aa;" horiz-adv-x="336" 
d="M44 636l7 23q19 0 58 -0.5t59 -0.5t62 0.5t62 0.5l-7 -24l-73 -29v-263q0 -247 5 -290l92 -30l-7 -24q-17 0 -61.5 0.5t-72.5 0.5q-26 0 -72.5 -0.5t-64.5 -0.5l7 24l79 30q6 24 6 290v264zM69 823l7 3q10 -5 25.5 -22.5t21.5 -31.5l-1 -7q-6 -13 -22 -30t-27 -24l-8 -2
q-29 15 -49 53l2 8q23 34 51 53zM266 823l7 3q9 -5 25 -22.5t23 -31.5l-2 -7q-6 -12 -22 -29.5t-26 -24.5l-9 -2q-29 17 -48 53l1 8q21 32 51 53z" />
    <glyph glyph-name="Upsilondieresis" unicode="&#x3ab;" horiz-adv-x="693" 
d="M195 23l97 31q6 73 6 176q0 75 -10 137t-32.5 119t-67 89.5t-107.5 32.5q-39 0 -72 -11l1 24q66 47 144 47q42 0 74 -14t52 -41t33.5 -57.5t20.5 -72.5t9.5 -76t3.5 -78h13q4 65 20.5 123t46 107.5t78.5 79t112 29.5q15 0 36 -14.5t32 -34.5l-5 -17q-15 4 -39 4
q-119 0 -187 -106t-68 -269q0 -115 3 -177l106 -31l-7 -24q-21 0 -71 0.5t-75 0.5q-26 0 -76 -0.5t-76 -0.5zM256 823l7 3q10 -5 25.5 -22.5t21.5 -31.5l-1 -7q-6 -13 -22 -30t-27 -24l-8 -2q-29 15 -49 53l2 8q23 34 51 53zM453 823l7 3q9 -5 25 -22.5t23 -31.5l-2 -7
q-6 -12 -22 -29.5t-26 -24.5l-9 -2q-29 17 -48 53l1 8q21 32 51 53z" />
    <glyph glyph-name="alphatonos" unicode="&#x3ac;" horiz-adv-x="556" 
d="M440 442l73 11l6 -10l-49 -72q-16 -25 -54 -110q29 -172 44 -204q23 -15 78 -17l-3 -17q-13 -14 -41 -25t-62 -11q-30 0 -45 9q-7 22 -27 144h-3q-43 -80 -86.5 -116.5t-94.5 -36.5q-62 0 -99 58t-38 150q-1 111 52.5 183t152.5 72q69 0 102.5 -31t53.5 -103h2
q25 67 38 126zM208 50h3q28 0 64 33.5t75 108.5q-13 121 -39 171t-77 50q-105 0 -105 -191q0 -81 23.5 -126.5t55.5 -45.5zM259 493l-25 8l40 169q15 3 40.5 -1t37.5 -11v-12z" />
    <glyph glyph-name="epsilontonos" unicode="&#x3ad;" horiz-adv-x="418" 
d="M351 326l-18 -9q-15 32 -27 88q-25 9 -53 9q-48 0 -77.5 -22t-29.5 -62q0 -31 19.5 -51t55.5 -23q61 15 96 15l4 -6q-10 -41 -37 -59q-30 2 -67 10q-84 -13 -84 -77q0 -44 31 -72.5t87 -30.5q35 -1 51 6q60 53 92 70l4 -19q-4 -21 -26 -47.5t-38 -34.5q-48 -24 -114 -24
q-81 0 -131 37t-50 96q0 80 111 108v2q-89 19 -89 96q0 58 48.5 92t127.5 34q94 0 143 -44q-11 -43 -29 -82zM218 493l-25 8l40 169q15 3 40.5 -1t37.5 -11v-12z" />
    <glyph glyph-name="etatonos" unicode="&#x3ae;" horiz-adv-x="534" 
d="M89 281v91l-53 23l5 20q12 7 60.5 21.5t69.5 15.5l2 -2l-2 -74l2 -1q53 43 86 60t64 17q134 0 134 -176q0 -71 -11 -416l11 -76q-28 -32 -97 -36l-5 5q21 303 19 512q0 126 -93 126q-55 0 -108 -55v-336l-89 -13q5 91 5 294zM266 493l-25 8l40 169q15 3 40.5 -1t37.5 -11
v-12z" />
    <glyph glyph-name="iotatonos" unicode="&#x3af;" horiz-adv-x="255" 
d="M77 48v386q36 14 84 18v-390q10 -18 84 -25l-5 -21q-34 -29 -88 -29q-34 0 -54.5 16.5t-20.5 44.5zM116 493l-25 8l40 169q15 3 40.5 -1t37.5 -11v-12z" />
    <glyph glyph-name="upsilondieresistonos" unicode="&#x3b0;" horiz-adv-x="497" 
d="M91 385l-57 24l8 19q21 8 66 16t71 8l2 -3q-9 -223 -8 -318q2 -42 31 -64t68 -22q128 0 128 199q0 38 -11 78q-46 70 -65 101l2 9q8 6 36 13.5t46 6.5q47 -58 47 -170q0 -137 -59 -216t-152 -79q-66 0 -109 36q-46 38 -46 104q0 30 1 125.5t1 132.5zM124 636l8 2
q8 -5 24 -22t22 -30l-2 -8q-12 -26 -48 -51l-7 -2q-29 18 -48 51l2 9q21 33 49 51zM228 504l-27 10l38 168q42 3 78 -15v-12zM370 636l7 2q9 -5 24.5 -22t22.5 -30l-2 -8q-11 -24 -47 -51l-8 -2q-27 18 -48 51l2 9q27 37 49 51z" />
    <glyph glyph-name="alpha" unicode="&#x3b1;" horiz-adv-x="556" 
d="M440 442l73 11l6 -10l-49 -72q-16 -25 -54 -110q29 -172 44 -204q23 -15 78 -17l-3 -17q-13 -14 -41 -25t-62 -11q-30 0 -45 9q-7 22 -27 144h-3q-43 -80 -86.5 -116.5t-94.5 -36.5q-62 0 -99 58t-38 150q-1 111 52.5 183t152.5 72q69 0 102.5 -31t53.5 -103h2
q25 67 38 126zM208 50h3q28 0 64 33.5t75 108.5q-13 121 -39 171t-77 50q-105 0 -105 -191q0 -81 23.5 -126.5t55.5 -45.5z" />
    <glyph glyph-name="beta" unicode="&#x3b2;" horiz-adv-x="529" 
d="M77 -247v719q0 120 55.5 179t139.5 59q75 0 123 -43t48 -121q0 -63 -39.5 -104.5t-90.5 -57.5v-5q46 -5 87 -25q92 -48 92 -154q0 -47 -16 -85.5t-40 -61.5t-55 -38.5t-58 -21.5t-52 -6q-42 0 -91 34l8 25q25 -9 54 -9q64 0 112 40t48 124q0 69 -45 109.5t-118 40.5
q-27 0 -45 -3l22 51q11 -1 28 -1q65 3 91.5 45t26.5 98q0 59 -26 96.5t-73 37.5q-53 0 -81 -47t-27 -129q2 -474 13 -639l10 -77q-31 -31 -96 -35z" />
    <glyph glyph-name="gamma" unicode="&#x3b3;" horiz-adv-x="494" 
d="M-5 384l2 20q24 17 61 32t61 16q33 -13 70 -83q25 -47 44.5 -122t26.5 -147h4q24 101 104 300v49l2 3q74 0 127 -29l-4 -14q-12 -7 -69 -27q-46 -64 -108 -234q-31 -81 -43 -158q0 -178 -1 -188q-13 -18 -43 -31.5t-54 -14.5l-8 8q2 23 10.5 64.5t20.5 90t14 58.5
q6 99 -40.5 232.5t-108.5 170.5q-12 0 -34.5 2t-33.5 2z" />
    <glyph glyph-name="delta" unicode="&#x3b4;" horiz-adv-x="518" 
d="M271 22h1q63 0 93.5 51.5t30.5 125.5q0 69 -33.5 119t-93.5 100h-2q-134 -46 -134 -204q0 -74 36 -133t102 -59zM282 710h1q61 0 111.5 -28t75.5 -62l-1 -5q-9 -12 -29 -22.5t-35 -8.5q-26 27 -44.5 42t-49.5 29t-65 14q-32 1 -49.5 -11t-18.5 -25q2 -31 92 -104
q121 -97 166 -163t45 -146q0 -109 -64.5 -171t-156.5 -62q-99 0 -161 62.5t-62 161.5q0 170 202 232l3 2q-69 57 -98.5 92t-29.5 62q0 42 48.5 76.5t119.5 34.5z" />
    <glyph glyph-name="epsilon" unicode="&#x3b5;" horiz-adv-x="418" 
d="M351 326l-18 -9q-15 32 -27 88q-25 9 -53 9q-48 0 -77.5 -22t-29.5 -62q0 -31 19.5 -51t55.5 -23q61 15 96 15l4 -6q-10 -41 -37 -59q-30 2 -67 10q-84 -13 -84 -77q0 -44 31 -72.5t87 -30.5q35 -1 51 6q60 53 92 70l4 -19q-4 -21 -26 -47.5t-38 -34.5q-48 -24 -114 -24
q-81 0 -131 37t-50 96q0 80 111 108v2q-89 19 -89 96q0 58 48.5 92t127.5 34q94 0 143 -44q-11 -43 -29 -82z" />
    <glyph glyph-name="zeta" unicode="&#x3b6;" horiz-adv-x="394" 
d="M276 -171l-26 12q40 65 40 119q-19 16 -112 38q-68 16 -102 66t-34 160q0 107 44.5 199t113.5 157v2q-83 10 -124 47v9q34 53 84 76h14q3 -28 -6 -70q23 -23 61 -28q27 29 70.5 51.5t75.5 23.5l5 -5q-1 -31 -20.5 -56.5t-34.5 -34.5q-41 -15 -78 -15
q-42 -37 -82.5 -125.5t-40.5 -210.5q0 -87 26.5 -126t84.5 -55l47 -12q81 -23 88 -42q0 -58 -33.5 -109t-60.5 -71z" />
    <glyph glyph-name="eta" unicode="&#x3b7;" horiz-adv-x="534" 
d="M89 281v91l-53 23l5 20q12 7 60.5 21.5t69.5 15.5l2 -2l-2 -74l2 -1q53 43 86 60t64 17q134 0 134 -176q0 -71 -11 -416l11 -76q-28 -32 -97 -36l-5 5q21 303 19 512q0 126 -93 126q-55 0 -108 -55v-336l-89 -13q5 91 5 294z" />
    <glyph glyph-name="theta" unicode="&#x3b8;" horiz-adv-x="516" 
d="M135 391h246q-8 284 -120 284q-62 0 -93 -81.5t-33 -202.5zM260 337h-126q2 -139 35 -227t95 -88q116 0 118 333q-36 -18 -122 -18zM260 710h1q104 0 157 -95t53 -264q0 -173 -54.5 -268.5t-163.5 -95.5q-101 0 -154.5 95.5t-53.5 264.5q0 168 57.5 265.5t157.5 97.5z
" />
    <glyph glyph-name="iota" unicode="&#x3b9;" horiz-adv-x="255" 
d="M77 48v386q36 14 84 18v-390q10 -18 84 -25l-5 -21q-34 -29 -88 -29q-34 0 -54.5 16.5t-20.5 44.5z" />
    <glyph glyph-name="kappa" unicode="&#x3ba;" horiz-adv-x="508" 
d="M187 216l3 11q126 137 158 183q6 35 8 42q17 3 65.5 -4t66.5 -17l-8 -18q-26 -10 -63 -19q-21 -6 -32 -15q-21 -17 -119 -121q65 -85 146 -172q83 -92 84 -93l-11 -9q-52 0 -77.5 10t-58.5 39q-50 44 -162 183zM89 284v92l-54 23l6 19q15 7 59 19.5t72 14.5v-452l-88 -13
q5 94 5 297z" />
    <glyph glyph-name="lambda" unicode="&#x3bb;" horiz-adv-x="507" 
d="M500 36l-8 -21q-48 -23 -138 -25q-15 43 -55.5 174.5t-63.5 197.5l-122 -354q-26 -12 -93 -19l-10 16l58 58q84 177 148 352q-7 27 -24 70q-38 101 -67.5 135.5t-70.5 34.5q-17 0 -39 -6l2 26q35 29 83 29q59 0 103 -61t98 -225q109 -325 128 -362q40 -8 71 -20z" />
    <glyph glyph-name="uni03BC" unicode="&#x3bc;" horiz-adv-x="542" 
d="M445 389v-327q10 -18 84 -25l-5 -21q-36 -29 -83 -29q-28 0 -51.5 18t-26.5 60h-2q-67 -78 -135 -78q-45 0 -72 30l-2 -1q-12 -183 8 -255l-9 -4q-39 4 -56.5 33.5t-17.5 91.5v286q0 155 2 263q10 6 38 13t52 8l2 -3q-12 -150 -15 -304q-1 -40 18 -63q25 -33 74 -33
q32 0 64 18.5t49 45.5v318q9 6 42.5 13.5t57.5 7.5l4 -7q-3 -8 -9.5 -27t-10.5 -29z" />
    <glyph glyph-name="nu" unicode="&#x3bd;" horiz-adv-x="472" 
d="M1 392l7 23q31 13 76.5 25.5t62.5 11.5l5 -41q31 -94 115 -320h2q96 162 100 244l-7 29.5l-9 36t-7 29.5l3 6q9 8 31 13t38 3q22 -17 22 -66q0 -39 -30.5 -106.5t-80 -153.5t-59.5 -106q-18 -26 -39 -37h-10q-16 47 -78 212t-75 189z" />
    <glyph glyph-name="xi" unicode="&#x3be;" horiz-adv-x="447" 
d="M375 405l-53 -55q-30 5 -50 5q-64 0 -105.5 -39t-41.5 -101q0 -59 31.5 -92.5t103.5 -48.5q7 -2 30.5 -7.5t44.5 -9.5q71 -17 89 -37q-1 -56 -35.5 -110.5t-58.5 -70.5l-24 12q36 70 33 118q-15 10 -143 37q-156 35 -156 174q0 130 149 192v4q-50 13 -80.5 52t-30.5 96
q0 80 61 132.5t152 52.5q79 0 117 -34q0 -10 -11.5 -43.5t-23.5 -52.5l-17 -6q-19 47 -33 95q-9 4 -31 4q-55 0 -94.5 -34.5t-39.5 -96.5q0 -59 40 -93t108 -34q38 0 67 3z" />
    <glyph glyph-name="omicron" unicode="&#x3bf;" horiz-adv-x="525" 
d="M265 452h1q94 0 158 -64.5t64 -163.5q0 -106 -64 -171.5t-161 -65.5q-90 0 -157.5 61.5t-67.5 165.5q0 107 71 172.5t156 65.5zM262 417h-1q-60 0 -93 -58t-33 -137q0 -77 36.5 -138.5t99.5 -61.5q43 0 71.5 31.5t38.5 72.5t10 89q0 78 -34 140t-95 62z" />
    <glyph glyph-name="pi" unicode="&#x3c0;" horiz-adv-x="581" 
d="M144 439h342q55 11 68 12l3 -1q-1 -22 -10.5 -47t-19.5 -33l-6 -5q-4 2 -19.5 11t-24.5 13h-27v-326q10 -20 84 -25l-5 -22q-35 -28 -88 -28q-35 0 -55 17t-20 44v340h-160v-227q0 -117 -15 -143q-13 -14 -47 -22.5t-69 -9.5l-10 16q3 4 61 57q8 24 8 96v233h-28
q-23 0 -88 -19l-4 17q12 17 46.5 34.5t83.5 17.5z" />
    <glyph glyph-name="rho" unicode="&#x3c1;" horiz-adv-x="522" 
d="M166 -140l11 -77q-31 -31 -97 -35l-4 4q1 136 1 392v85q0 86 45 143q65 80 166 80q84 0 140.5 -58t56.5 -159q0 -64 -24 -114t-61 -78t-75.5 -42t-73.5 -14q-36 0 -89 33l-2 -1q0 -123 6 -159zM160 254v-195q36 -23 80 -23q63 0 109.5 53t46.5 142q0 83 -38 132.5
t-93 49.5q-105 0 -105 -159z" />
    <glyph glyph-name="uni03C2" unicode="&#x3c2;" horiz-adv-x="426" 
d="M296 -158l-24 13q37 61 37 117q-20 16 -116 38q-156 34 -156 190q0 124 111 202q70 50 147 50q69 0 105 -29q1 -9 -10.5 -44t-20.5 -51l-17 -6q-12 25 -25 66q-25 18 -68 18q-71 0 -105.5 -45t-34.5 -120q0 -72 29.5 -107t89.5 -51q3 -1 27.5 -7.5l42.5 -11.5
q70 -18 84 -37q0 -63 -34 -114.5t-62 -70.5z" />
    <glyph glyph-name="sigma" unicode="&#x3c3;" horiz-adv-x="533" 
d="M268 392h-1q-65 0 -102 -50t-37 -131q0 -85 38 -137.5t95 -52.5q54 0 87.5 44.5t33.5 147.5q0 50 -15.5 91.5t-36.5 60.5q-28 27 -62 27zM542 468l6 -4q-3 -19 -18 -45.5t-30 -37.5q-21 0 -145 11l-2 -2q60 -33 86.5 -76.5t26.5 -105.5q0 -100 -60 -160.5t-153 -60.5
q-103 0 -159.5 65t-56.5 158q0 114 79.5 177.5t183.5 59.5q26 -1 55.5 -1t67 0.5t58.5 0.5q2 1 13 5l24 8.5t24 7.5z" />
    <glyph glyph-name="tau" unicode="&#x3c4;" horiz-adv-x="442" 
d="M149 439h198q55 11 68 12l3 -1q-1 -20 -11 -46t-19 -35l-6 -4q-4 2 -19.5 11t-24.5 13h-80v-328q10 -18 84 -25l-5 -20q-32 -29 -88 -29q-34 0 -54.5 16.5t-20.5 44.5v341h-54q-44 0 -101 -19l-4 16q11 18 46.5 35.5t87.5 17.5z" />
    <glyph glyph-name="upsilon" unicode="&#x3c5;" horiz-adv-x="497" 
d="M91 385l-57 24l8 19q21 8 66 16t71 8l2 -3q-9 -223 -8 -318q2 -42 31 -64t68 -22q128 0 128 199q0 38 -11 78q-46 70 -65 101l2 9q8 6 36 13.5t46 6.5q47 -58 47 -170q0 -137 -59 -216t-152 -79q-66 0 -109 36q-46 38 -46 104q0 30 1 125.5t1 132.5z" />
    <glyph glyph-name="phi" unicode="&#x3c6;" horiz-adv-x="610" 
d="M350 563v-113q100 -10 161 -69.5t61 -156.5q0 -103 -65.5 -162t-157.5 -71q-2 -33 -2.5 -98t-1.5 -80q-9 -15 -24.5 -29.5t-28.5 -18.5l-10 5q-4 28 -6 218q-108 7 -173.5 67t-65.5 162q0 157 177 229l17 -29q-102 -62 -102 -186q0 -85 40.5 -137.5t106.5 -66.5l-3 499
q10 10 32 22.5t36 17.5zM350 412l-2 -384q61 10 101 57.5t40 135.5q0 86 -44 134.5t-95 56.5z" />
    <glyph glyph-name="chi" unicode="&#x3c7;" horiz-adv-x="470" 
d="M8 392l6 23q62 26 134 37l29 -65l50 -113l31 -70h2q68 147 86 199l4 46l2 3q28 2 67 -4t58 -16l-6 -17l-75 -30q-38 -58 -117 -227q75 -176 146 -324q6 -9 25 -30t26 -31l-9 -16q-26 -3 -64.5 7t-53.5 28q-18 37 -120 279h-2q-86 -188 -109 -247l-5 -48q-41 -14 -117 -19
l4 20l60 58q52 89 148 283q-74 177 -124 263q-63 8 -76 11z" />
    <glyph glyph-name="psi" unicode="&#x3c8;" horiz-adv-x="622" 
d="M353 564l11 -4l-4 -526q51 5 78.5 37t36.5 105q5 35 9.5 88l7.5 89.5t6 46.5q8 16 35 32t64 20l7 -20q-32 -32 -40 -83q-3 -20 -11 -66.5l-13.5 -78t-11.5 -52.5q-18 -69 -62.5 -111.5t-106.5 -50.5q-1 -16 -1 -94t-3 -95q-20 -35 -54 -45l-8 4q-6 36 -6 227
q-94 9 -144 57.5t-61 161.5q-15 146 -19 166q-49 23 -53 24l8 22q68 27 120 34l2 -1q3 -5 5.5 -20.5t4.5 -42t4 -49.5t4.5 -61t3.5 -59q7 -89 35.5 -130.5t90.5 -54.5l-10 473q9 12 32 31t43 26z" />
    <glyph glyph-name="omega" unicode="&#x3c9;" horiz-adv-x="653" 
d="M227 452l14 -28q-112 -66 -112 -205q0 -82 28.5 -127.5t72.5 -45.5q57 0 77 68q-21 90 -25 148q13 11 54 11.5t49 -11.5q-10 -73 -31 -148q14 -68 74 -68q39 0 70 43t31 132q0 135 -100 203l18 28q56 -19 101 -66q66 -69 66 -174t-49 -165t-123 -60q-42 0 -70.5 23
t-39.5 62h-5q-33 -85 -119 -85q-77 0 -123 58.5t-46 148.5q0 102 58 170q50 60 130 88z" />
    <glyph glyph-name="iotadieresis" unicode="&#x3ca;" horiz-adv-x="255" 
d="M77 48v386q36 14 84 18v-390q10 -18 84 -25l-5 -21q-34 -29 -88 -29q-34 0 -54.5 16.5t-20.5 44.5zM37 641l8 2q9 -5 24 -22.5t22 -30.5l-2 -7q-12 -27 -47 -54l-8 -2q-29 18 -48 53l2 8q21 35 49 53zM216 641l7 2q8 -5 24 -22.5t23 -30.5l-2 -7q-10 -26 -48 -54l-8 -2
q-12 9 -26.5 25t-20.5 28l1 8q23 35 50 53z" />
    <glyph glyph-name="upsilondieresis" unicode="&#x3cb;" horiz-adv-x="497" 
d="M91 385l-57 24l8 19q21 8 66 16t71 8l2 -3q-9 -223 -8 -318q2 -42 31 -64t68 -22q128 0 128 199q0 38 -11 78q-46 70 -65 101l2 9q8 6 36 13.5t46 6.5q47 -58 47 -170q0 -137 -59 -216t-152 -79q-66 0 -109 36q-46 38 -46 104q0 30 1 125.5t1 132.5zM159 641l8 2
q9 -5 24 -22.5t22 -30.5l-2 -7q-12 -27 -47 -54l-8 -2q-29 18 -48 53l2 8q21 35 49 53zM338 641l7 2q8 -5 24 -22.5t23 -30.5l-2 -7q-10 -26 -48 -54l-8 -2q-12 9 -26.5 25t-20.5 28l1 8q23 35 50 53z" />
    <glyph glyph-name="omicrontonos" unicode="&#x3cc;" horiz-adv-x="525" 
d="M265 452h1q94 0 158 -64.5t64 -163.5q0 -106 -64 -171.5t-161 -65.5q-90 0 -157.5 61.5t-67.5 165.5q0 107 71 172.5t156 65.5zM262 417h-1q-60 0 -93 -58t-33 -137q0 -77 36.5 -138.5t99.5 -61.5q43 0 71.5 31.5t38.5 72.5t10 89q0 78 -34 140t-95 62zM260 493l-25 8
l40 169q15 3 40.5 -1t37.5 -11v-12z" />
    <glyph glyph-name="upsilontonos" unicode="&#x3cd;" horiz-adv-x="497" 
d="M91 385l-57 24l8 19q21 8 66 16t71 8l2 -3q-9 -223 -8 -318q2 -42 31 -64t68 -22q128 0 128 199q0 38 -11 78q-46 70 -65 101l2 9q8 6 36 13.5t46 6.5q47 -58 47 -170q0 -137 -59 -216t-152 -79q-66 0 -109 36q-46 38 -46 104q0 30 1 125.5t1 132.5zM250 493l-25 8
l40 169q15 3 40.5 -1t37.5 -11v-12z" />
    <glyph glyph-name="omegatonos" unicode="&#x3ce;" horiz-adv-x="653" 
d="M227 452l14 -28q-112 -66 -112 -205q0 -82 28.5 -127.5t72.5 -45.5q57 0 77 68q-21 90 -25 148q13 11 54 11.5t49 -11.5q-10 -73 -31 -148q14 -68 74 -68q39 0 70 43t31 132q0 135 -100 203l18 28q56 -19 101 -66q66 -69 66 -174t-49 -165t-123 -60q-42 0 -70.5 23
t-39.5 62h-5q-33 -85 -119 -85q-77 0 -123 58.5t-46 148.5q0 102 58 170q50 60 130 88zM326 493l-25 8l40 169q15 3 40.5 -1t37.5 -11v-12z" />
    <glyph glyph-name="uni03D0" unicode="&#x3d0;" horiz-adv-x="522" 
d="M76 163v250q0 147 56.5 222t153.5 75q72 0 113.5 -40t41.5 -108q0 -58 -34.5 -96t-97.5 -72v-3q60 -10 97 -32q79 -47 79 -154q0 -101 -68 -159t-156 -59q-67 0 -105 19q-43 20 -61.5 57t-18.5 100zM160 443v-72q64 17 102 36q105 54 104 154q-1 52 -24.5 82.5
t-66.5 30.5q-56 0 -85.5 -59.5t-29.5 -171.5zM160 336v-163q0 -79 35 -116q31 -33 82 -33q47 0 82.5 41t35.5 134q0 74 -35.5 117t-104.5 43q-48 0 -95 -23z" />
    <glyph glyph-name="uni03D1" unicode="&#x3d1;" horiz-adv-x="519" 
d="M76 253l-56 16l5 18q32 19 133 37l2 -2q9 -20 9 -71v-106q0 -121 92 -121q126 0 128 333q0 10 -0.5 25t-0.5 20l-2 1q-75 -52 -135 -52q-88 0 -134.5 48.5t-46.5 117.5q0 86 57.5 139t137.5 53q103 0 156 -83.5t53 -247.5q0 -190 -60.5 -290.5t-171.5 -100.5
q-72 0 -114.5 37t-42.5 115v59q0 42 -9 55zM283 405h1q45 0 101 32q-1 29 -7 63.5t-20 76.5t-42.5 69.5t-67.5 27.5q-43 0 -69 -35t-26 -93q0 -62 35.5 -101.5t94.5 -39.5z" />
    <glyph glyph-name="uni03F0" unicode="&#x3f0;" horiz-adv-x="598" 
d="M38 31l86 26q40 57 40 177q0 62 -15 98.5t-33 50.5l-83 6l4 18q23 14 65.5 29.5t59.5 15.5q20 -1 40 -40t20 -94q0 -108 -35 -191l6 -1q200 278 243 329q70 1 135 -27l-8 -21l-84 -17q-48 -82 -48 -203q0 -97 46 -131l88 -10l-6 -19q-13 -12 -50 -26t-65 -14
q-25 3 -47.5 39t-22.5 93q0 96 44 213h-4l-102 -141l-98 -141.5t-48 -67.5q-72 -1 -136 31z" />
    <glyph glyph-name="afii10023" unicode="&#x401;" horiz-adv-x="565" 
d="M36 637l7 23q21 0 62 -0.5t61 -0.5h248q8 2 39 6.5t44 4.5l3 -3q-3 -44 -26 -145l-16 -9q-18 39 -43 108l-203 -8v-250q130 0 254 12l4 -9q-4 -8 -28 -33t-32 -25q-6 0 -94 5.5t-104 5.5q0 -189 4 -272l212 -8q1 2 37 52t50 66l20 1q-2 -24 -14.5 -80t-20.5 -81
q-65 3 -181 3h-158q-23 0 -69.5 -0.5t-67.5 -0.5l8 24l85 29q6 24 6 291v266zM195 823l7 3q10 -5 25.5 -22.5t21.5 -31.5l-1 -7q-6 -13 -22 -30t-27 -24l-8 -2q-29 15 -49 53l2 8q23 34 51 53zM392 823l7 3q9 -5 25 -22.5t23 -31.5l-2 -7q-6 -12 -22 -29.5t-26 -24.5l-9 -2
q-29 17 -48 53l1 8q21 32 51 53z" />
    <glyph glyph-name="afii10051" unicode="&#x402;" horiz-adv-x="770" 
d="M119 659h447q37 10 81 14l2 -4q-2 -44 -29 -160l-16 -9q-35 96 -41 123l-189 -8v-247q85 36 136 36q91 0 152.5 -65t61.5 -176q0 -66 -20.5 -121.5t-57 -94.5t-77 -66t-88.5 -46l-15 29q23 13 45 31t50.5 52t46 88.5t17.5 119.5q0 93 -45.5 145.5t-116.5 52.5
q-51 0 -89 -18q0 -113 6 -281l103 -31l-8 -24q-22 0 -70.5 0.5t-73.5 0.5q-27 0 -77 -0.5t-73 -0.5l8 24l93 31q3 51 3 280v281l-161 8q-49 -98 -62 -117l-15 -5q-2 28 -3 86.5t1 81.5l4 4q16 -1 70 -14z" />
    <glyph glyph-name="afii10052" unicode="&#x403;" horiz-adv-x="515" 
d="M40 638l10 22q19 0 56 -0.5t55 -0.5h236l25 4l36 5.5t22 2.5l3 -3q-1 -16 -10 -77.5t-14 -80.5l-14 -7q-9 20 -50 117l-183 -8v-285q0 -224 4 -272l104 -32l-9 -24q-17 0 -65 1t-77 1q-21 0 -65.5 -1t-68.5 -1l7 24l77 32q4 21 4 288v266zM223 701l-13 26l155 112
q16 -4 34 -19.5t28 -31.5l-2 -13z" />
    <glyph glyph-name="afii10053" unicode="&#x404;" horiz-adv-x="680" 
d="M592 373l5 -10q-4 -9 -29 -33t-36 -24q-42 0 -183.5 4.5t-203.5 5.5q7 -132 87.5 -210t217.5 -78q33 0 61 8q95 89 121 105l19 -4q-6 -21 -32.5 -69.5t-36.5 -55.5q-27 -12 -78 -21.5t-90 -9.5q-72 0 -136.5 20.5t-118 60.5t-85 107.5t-31.5 154.5q0 84 33.5 153
t88.5 111.5t120.5 65.5t133.5 23q96 0 149 -33q34 19 77 24l7 -4q-4 -30 -19 -89t-23 -76l-14 -6q-14 33 -37 115q-40 27 -123 27q-130 0 -208.5 -79t-81.5 -195q341 0 446 12z" />
    <glyph glyph-name="afii10054" unicode="&#x405;" horiz-adv-x="512" 
d="M263 677h1q62 0 105 -32q20 16 67 32l9 -5q-14 -100 -36 -152l-15 -8q-11 22 -35 98q-33 25 -88 25q-57 0 -91 -33.5t-34 -81.5q0 -63 58 -98q18 -11 42 -23.5l56 -29l52 -27.5q68 -36 93 -75.5t25 -87.5q0 -56 -24 -97t-62 -61.5t-75 -30t-73 -9.5q-56 0 -114 21.5
t-82 45.5q4 19 21 66t24 59l16 7q5 -13 31 -140q36 -19 98 -18q68 1 108.5 35t40.5 95q0 64 -72 106q-11 6 -66.5 34.5t-83.5 46.5q-95 58 -95 156q0 72 54 127t145 55z" />
    <glyph glyph-name="afii10055" unicode="&#x406;" horiz-adv-x="336" 
d="M44 636l7 23q19 0 58 -0.5t59 -0.5t62 0.5t62 0.5l-7 -24l-73 -29v-263q0 -247 5 -290l92 -30l-7 -24q-17 0 -61.5 0.5t-72.5 0.5q-26 0 -72.5 -0.5t-64.5 -0.5l7 24l79 30q6 24 6 290v264z" />
    <glyph glyph-name="afii10056" unicode="&#x407;" horiz-adv-x="336" 
d="M44 636l7 23q19 0 58 -0.5t59 -0.5t62 0.5t62 0.5l-7 -24l-73 -29v-263q0 -247 5 -290l92 -30l-7 -24q-17 0 -61.5 0.5t-72.5 0.5q-26 0 -72.5 -0.5t-64.5 -0.5l7 24l79 30q6 24 6 290v264zM69 823l7 3q10 -5 25.5 -22.5t21.5 -31.5l-1 -7q-6 -13 -22 -30t-27 -24l-8 -2
q-29 15 -49 53l2 8q23 34 51 53zM266 823l7 3q9 -5 25 -22.5t23 -31.5l-2 -7q-6 -12 -22 -29.5t-26 -24.5l-9 -2q-29 17 -48 53l1 8q21 32 51 53z" />
    <glyph glyph-name="afii10057" unicode="&#x408;" horiz-adv-x="317" 
d="M30 635l9 24q21 0 61.5 -0.5t63.5 -0.5q20 0 61.5 0.5t61.5 0.5l-6 -25l-69 -30v-459q0 -63 -16 -106q-24 -73 -69 -129t-79 -78l-26 16v7q61 51 81.5 114t19.5 158q1 71 0 243q-2 200 -4 236z" />
    <glyph glyph-name="afii10058" unicode="&#x409;" horiz-adv-x="889" 
d="M280 633l72 49l5 -4q-1 -24 13 -70q25 -77 89 -243q84 32 170 32q109 0 165.5 -49.5t56.5 -133.5q0 -65 -28.5 -110.5t-77 -67t-97 -30.5t-105.5 -9q-67 0 -113 2l7 23l46 27l-171 487h-2q-161 -461 -167 -480l83 -33l-7 -24q-17 0 -56 1t-57 1q-16 0 -48.5 -1t-48.5 -1
l7 24l65 33q78 171 205 519q6 15 2 30zM472 333l108 -296q170 12 170 167q0 73 -45 110.5t-119 37.5q-65 0 -114 -19z" />
    <glyph glyph-name="afii10059" unicode="&#x40a;" horiz-adv-x="976" 
d="M124 347v259l-78 29l10 24q17 0 55 -0.5t57 -0.5q20 0 52 0.5t44 0.5l-8 -24l-44 -31v-223h289v222l-50 35l8 21q15 0 43.5 -0.5t42.5 -0.5q25 0 69 0.5t62 0.5l-7 -25l-80 -30v-220q51 12 114 12q114 0 174.5 -49.5t60.5 -135.5q0 -214 -333 -214q-99 0 -189 3l6 24
l73 28q6 42 6 287q-32 -6 -130 -6h-159q0 -248 1 -274l48 -36l-8 -24q-12 0 -41.5 0.5t-47.5 0.5q-21 0 -64.5 -0.5t-63.5 -0.5l8 24l74 30q6 144 6 294zM835 206v1q0 78 -45.5 113t-121.5 35q-42 0 -79 -7q0 -235 3 -315q115 0 179 38.5t64 134.5z" />
    <glyph glyph-name="afii10060" unicode="&#x40b;" horiz-adv-x="809" 
d="M117 659h453q37 9 82 14l2 -4q-2 -44 -30 -155l-15 -10q-23 62 -40 119l-197 -8v-249q90 40 165 40q86 0 129 -52q34 -39 34 -123v-165q0 -13 20 -22l62 -30l-11 -20q-110 -2 -173 8q13 82 13 225q0 128 -126 128q-67 0 -113 -22q0 -75 6 -279l107 -32l-8 -23
q-22 0 -72 1t-76 1q-27 0 -79 -1t-76 -1l8 23l98 32q3 50 3 280v281l-162 8q-54 -103 -60 -112l-14 -6q-2 27 -3 84t1 80l4 4q29 -5 68 -14z" />
    <glyph glyph-name="afii10061" unicode="&#x40c;" horiz-adv-x="654" 
d="M123 343v264l-79 29l9 23q19 0 57 -1t58 -1t61.5 1t62.5 1l-8 -24l-72 -29v-261q57 18 79 42q118 128 187 223l1 49q9 0 33 -1t37 -1q16 0 48.5 1t47.5 1l-7 -24l-110 -39l-111.5 -122t-85.5 -99l-1 -2q13 -20 32 -43l154.5 -188.5t126.5 -145.5l-10 -11q-90 0 -154 68
q-34 34 -211 246q-22 28 -56 14q0 -230 5 -260l92 -30l-10 -24q-16 0 -60 0.5t-71 0.5q-26 0 -72.5 -0.5t-64.5 -0.5l7 24l79 30q6 24 6 290zM300 704l-13 26l155 112q16 -4 34 -19.5t28 -31.5l-2 -13z" />
    <glyph glyph-name="afii10062" unicode="&#x40e;" horiz-adv-x="651" 
d="M6 635l9 24q17 0 53 -1t55 -1q20 0 58.5 1t56.5 1l-8 -25l-46 -25l185 -367h2q107 260 144 363l-53 30l7 24q14 0 39 -1t38 -1q20 0 55.5 1t53.5 1l-7 -26l-44 -18q-20 -7 -28.5 -16.5t-19.5 -33.5l-190 -431q-75 -169 -165 -169q-39 0 -62 35q-16 28 -18 45l7 15
q39 -18 86 -18t74.5 33.5t27.5 63.5q-1 26 -25 70l-192 367q-10 19 -20 27t-29 15zM432 812l35 16l8 -3q-26 -119 -138 -119q-50 0 -80 26t-30 61q0 6 2 9q6 7 24.5 16.5t30.5 9.5l4 -4q2 -28 20.5 -46t51.5 -18q50 0 72 52z" />
    <glyph glyph-name="afii10145" unicode="&#x40f;" horiz-adv-x="764" 
d="M123 347v259l-79 29l9 24q18 0 56.5 -0.5t57.5 -0.5q22 0 53.5 0.5t43.5 0.5l-9 -24l-43 -31v-263q0 -219 5 -290q52 -9 168 -9q119 0 161 9q5 74 5 297v255l-50 35l8 21q15 0 44 -0.5t43 -0.5q25 0 69 0.5t62 0.5l-7 -25l-80 -29v-262q0 -246 7 -288l87 -31l-6 -25
q-18 0 -61.5 0.5t-65.5 0.5h-168q-31 -157 -36 -177l-28 -13q-4 20 -16.5 87.5t-20.5 102.5h-168q-22 0 -66 -0.5t-63 -0.5l7 24l75 30q6 150 6 294z" />
    <glyph glyph-name="afii10017" unicode="&#x410;" horiz-adv-x="710" 
d="M297 633l75 49l6 -5q-1 -24 14 -69q28 -83 209 -530q14 -19 32.5 -29.5t68.5 -26.5l-7 -23q-18 0 -58 0.5t-60 0.5q-17 0 -52 -0.5t-54 -0.5l6 21l37 29q-8 28 -75 193q-94 -7 -223 -5q-51 -130 -68 -181l88 -34l-6 -23q-17 0 -58 0.5t-60 0.5q-18 0 -52 -0.5t-51 -0.5
l6 24l70 33q25 51 94 213t125 306q7 18 3 31zM331 539h-2l-50.5 -133t-43.5 -118q12 0 89.5 -2t100.5 -2z" />
    <glyph glyph-name="afii10018" unicode="&#x411;" horiz-adv-x="603" 
d="M123 343v266l-83 29l9 22q19 0 56.5 -0.5t55.5 -0.5h258q52 13 89 11l2 -3q-2 -20 -10.5 -76.5t-13.5 -75.5l-17 -9q-6 12 -15 34.5l-19 47t-13 32.5l-210 -8v-235q52 12 112 12q117 0 179 -49t62 -133q0 -52 -20.5 -91t-52.5 -61.5t-78.5 -35.5t-89.5 -17.5t-96 -4.5
q-100 0 -191 3l7 24l73 28q6 25 6 291zM462 203v1q0 144 -173 144q-29 0 -77 -6q0 -227 3 -307q122 1 184.5 36.5t62.5 131.5z" />
    <glyph glyph-name="afii10019" unicode="&#x412;" horiz-adv-x="603" 
d="M39 629l8 23q150 13 229 13q246 0 246 -151q0 -67 -49 -105t-116 -49v-7q208 -21 208 -161q0 -195 -334 -195q-97 0 -193 3l7 24l72 29q6 45 6 234v322zM212 627v-260q98 2 156 32.5t58 107.5q0 67 -53 97q-43 23 -131 23h-30zM461 192v1q0 24 -5 43t-21 38t-42.5 31.5
t-72.5 20t-108 6.5v-28q0 -232 3 -270q92 1 139.5 15t72.5 42q34 38 34 101z" />
    <glyph glyph-name="afii10020" unicode="&#x413;" horiz-adv-x="515" 
d="M40 638l10 22q19 0 56 -0.5t55 -0.5h236l25 4l36 5.5t22 2.5l3 -3q-1 -16 -10 -77.5t-14 -80.5l-14 -7q-9 20 -50 117l-183 -8v-285q0 -224 4 -272l104 -32l-9 -24q-17 0 -65 1t-77 1q-21 0 -65.5 -1t-68.5 -1l7 24l77 32q4 21 4 288v266z" />
    <glyph glyph-name="afii10021" unicode="&#x414;" horiz-adv-x="720" 
d="M311 633l73 49l5 -5q-1 -24 14 -67q41 -119 210 -564l74 -6q-24 -149 -40 -219l-27 -10q-6 31 -15 97.5t-13 91.5h-467q-11 -26 -33.5 -92.5t-30.5 -87.5l-29 -9q1 55 1.5 129.5t0.5 100.5l70 6q80 183 213 529q7 19 3 29zM344 43h1q105 0 167 8l-169 483h-2
q-150 -418 -171 -482q70 -9 174 -9z" />
    <glyph glyph-name="afii10022" unicode="&#x415;" horiz-adv-x="565" 
d="M36 637l7 23q21 0 62 -0.5t61 -0.5h248q8 2 39 6.5t44 4.5l3 -3q-3 -44 -26 -145l-16 -9q-18 39 -43 108l-203 -8v-250q130 0 254 12l4 -9q-4 -8 -28 -33t-32 -25q-6 0 -94 5.5t-104 5.5q0 -189 4 -272l212 -8q1 2 37 52t50 66l20 1q-2 -24 -14.5 -80t-20.5 -81
q-65 3 -181 3h-158q-23 0 -69.5 -0.5t-67.5 -0.5l8 24l85 29q6 24 6 291v266z" />
    <glyph glyph-name="afii10024" unicode="&#x416;" horiz-adv-x="926" 
d="M420 348v260l-77 28l8 23q19 0 56.5 -0.5t56.5 -0.5q20 0 59.5 0.5t59.5 0.5l-7 -24l-70 -28v-259q51 17 70 37q102 115 182 230l1 44q9 0 31 -0.5t34 -0.5q16 0 46.5 0.5t44.5 0.5l-9 -24l-102 -38q-101 -110 -194 -228v-3q27 -19 39 -34q145 -192 267 -336l-12 -10
q-47 1 -79.5 17t-64.5 51q-19 21 -46 54.5l-71.5 90.5l-81.5 102q-12 17 -24 19.5t-31 -6.5q0 -230 5 -262l88 -29l-7 -24q-17 0 -59.5 0.5t-68.5 0.5q-25 0 -70 -0.5t-62 -0.5l6 24l76 29q6 24 6 263q-38 16 -62 -14l-81.5 -102.5l-71 -89.5t-45.5 -54q-31 -36 -62 -52
t-77 -17l-11 10q99 115 269 335q11 15 38 34l-1 2q-71 92 -194 229l-110 39l9 24q13 0 40.5 -0.5t42.5 -0.5q13 0 34 0.5t30 0.5v-44q87 -122 182 -229q21 -22 70 -38z" />
    <glyph glyph-name="afii10025" unicode="&#x417;" horiz-adv-x="542" 
d="M120 485l-18 -6q-31 71 -41 110q107 88 213 88q88 0 140.5 -44t52.5 -118q0 -62 -51 -104q-37 -28 -86 -48v-6q57 -11 88 -29q85 -38 85 -135q0 -101 -77 -156.5t-181 -55.5q-69 0 -126.5 25t-77.5 49q25 72 48 116l17 8q18 -68 29 -138q33 -17 91 -16q78 2 126 44
t48 120q0 138 -167 138q-42 0 -84 -8l-5 13l45 44q22 -2 47 -2q64 0 101.5 34t37.5 92t-36.5 95t-101.5 37q-48 0 -86 -23q-13 -67 -31 -124z" />
    <glyph glyph-name="afii10026" unicode="&#x418;" horiz-adv-x="777" 
d="M123 346v261l-79 29l9 23q20 0 58.5 -0.5t57.5 -0.5t56 0.5t56 0.5l-9 -25l-64 -28v-282q0 -141 -8 -239h5l344 536l-3 37h64q22 0 64 0.5t63 0.5l-8 -24l-75 -29v-263q0 -250 5 -290l92 -29l-7 -25q-17 0 -61 1t-71 1q-24 0 -66 -1t-58 -1l7 25l69 29q5 67 5 289
q0 132 7 235h-6l-343 -538l4 -38h-62q-20 0 -64 -1t-69 -1l8 24l73 30q6 78 6 293z" />
    <glyph glyph-name="afii10027" unicode="&#x419;" horiz-adv-x="777" 
d="M123 346v261l-79 29l9 23q20 0 58.5 -0.5t57.5 -0.5t56 0.5t56 0.5l-9 -25l-64 -28v-282q0 -141 -8 -239h5l344 536l-3 37h64q22 0 64 0.5t63 0.5l-8 -24l-75 -29v-263q0 -250 5 -290l92 -29l-7 -25q-17 0 -61 1t-71 1q-24 0 -66 -1t-58 -1l7 25l69 29q5 67 5 289
q0 132 7 235h-6l-343 -538l4 -38h-62q-20 0 -64 -1t-69 -1l8 24l73 30q6 78 6 293zM486 815l35 16l8 -3q-26 -119 -138 -119q-50 0 -80 26t-30 61q0 6 2 9q6 7 24.5 16.5t30.5 9.5l4 -4q2 -28 20.5 -46t51.5 -18q50 0 72 52z" />
    <glyph glyph-name="afii10028" unicode="&#x41a;" horiz-adv-x="654" 
d="M123 343v264l-79 29l9 23q19 0 57 -1t58 -1t61.5 1t62.5 1l-8 -24l-72 -29v-261q57 18 79 42q118 128 187 223l1 49q9 0 33 -1t37 -1q16 0 48.5 1t47.5 1l-7 -24l-110 -39l-111.5 -122t-85.5 -99l-1 -2q13 -20 32 -43l154.5 -188.5t126.5 -145.5l-10 -11q-90 0 -154 68
q-34 34 -211 246q-22 28 -56 14q0 -230 5 -260l92 -30l-10 -24q-16 0 -60 0.5t-71 0.5q-26 0 -72.5 -0.5t-64.5 -0.5l7 24l79 30q6 24 6 290z" />
    <glyph glyph-name="afii10029" unicode="&#x41b;" horiz-adv-x="710" 
d="M296 633l76 49l6 -4q-1 -25 14 -70q25 -74 209 -530q14 -19 32.5 -29.5t68.5 -26.5l-7 -23q-18 0 -58 0.5t-60 0.5q-16 0 -51.5 -0.5t-55.5 -0.5l5 21l37 29l-181 487h-2l-181 -480l89 -34l-6 -23q-17 0 -58.5 0.5t-60.5 0.5q-18 0 -52 -0.5t-51 -0.5l6 23l70 34
q25 50 94 212t125 307q8 18 3 30z" />
    <glyph glyph-name="afii10030" unicode="&#x41c;" horiz-adv-x="933" 
d="M61 633l10 25l162 1q2 -22 12 -46q8 -19 36 -76l82 -168.5l106 -219.5h2l229 470q3 7 3 40l185 -1l-8 -25l-85 -29q2 -92 11.5 -311t12.5 -240l91 -30l-5 -24q-18 0 -63 0.5t-67 0.5q-21 0 -61.5 -0.5t-59.5 -0.5l8 24l62 30q-2 66 -4.5 253t-3.5 255h-3l-259 -570
l-19 -2l-242 547h-2q-24 -285 -30 -480l90 -34l-6 -23q-18 0 -57.5 0.5t-61.5 0.5q-17 0 -52 -0.5t-51 -0.5l5 23l71 33q22 124 60 526q-7 21 -21 28t-77 24z" />
    <glyph glyph-name="afii10031" unicode="&#x41d;" horiz-adv-x="771" 
d="M43 635l9 24q18 0 57 -0.5t58 -0.5q21 0 52 0.5t43 0.5l-7 -24l-43 -31v-227h348v226l-49 35l8 21q15 0 43 -0.5t43 -0.5q25 0 69.5 0.5t62.5 0.5l-8 -25l-80 -30v-263q0 -264 7 -285l92 -32l-9 -25q-19 0 -64.5 0.5t-69.5 0.5q-18 0 -49 -0.5t-44 -0.5l7 25l40 31
q1 33 1 279q-35 -6 -129 -6h-219q0 -243 1 -269l46 -37l-8 -23q-12 0 -40.5 0.5t-46.5 0.5q-22 0 -66.5 -0.5t-64.5 -0.5l9 24l75 30q6 150 6 294v259z" />
    <glyph glyph-name="afii10032" unicode="&#x41e;" horiz-adv-x="785" 
d="M390 677h1q49 0 97.5 -12.5t94 -40t80.5 -66t56.5 -95t22.5 -122.5q1 -90 -29.5 -161.5t-82 -113.5t-112 -63.5t-124.5 -21.5t-125 21t-112.5 61.5t-82.5 107.5t-31 151q0 85 32.5 155t84 112t111.5 65t119 23zM386 640h-1q-110 0 -173.5 -85t-63.5 -217
q0 -129 71.5 -225t185.5 -96q61 0 107.5 27t73 73t39 99t12.5 113q0 128 -71.5 219.5t-179.5 91.5z" />
    <glyph glyph-name="afii10033" unicode="&#x41f;" horiz-adv-x="756" 
d="M43 635l9 24q18 0 57 -0.5t58 -0.5h422q25 0 69 0.5t62 0.5l-7 -25l-80 -30v-259q0 -267 7 -288l91 -34l-8 -24q-19 0 -65 0.5t-69 0.5q-18 0 -50 -0.5t-45 -0.5l9 25l40 31q1 32 1 278v278q-58 6 -169 6q-105 0 -163 -6v-276q0 -243 1 -276l46 -37l-9 -23
q-11 0 -39.5 0.5t-46.5 0.5q-22 0 -66 -0.5t-64 -0.5l10 24l73 30q6 144 6 295v258z" />
    <glyph glyph-name="afii10034" unicode="&#x420;" horiz-adv-x="568" 
d="M42 627l8 23q139 15 209 15q123 0 189 -42q82 -50 82 -154q0 -56 -22.5 -98.5t-57.5 -64.5t-70 -32.5t-68 -10.5q-26 0 -40 5l-10 25q84 7 126.5 52t42.5 119q0 170 -219 163v-271q0 -105 1.5 -175.5t3 -97.5t1.5 -28l110 -32l-9 -24q-25 0 -77 0.5t-78 0.5
q-20 0 -60.5 -0.5t-60.5 -0.5l6 23l70 32q4 20 4 299v254z" />
    <glyph glyph-name="afii10035" unicode="&#x421;" horiz-adv-x="687" 
d="M421 677h2q97 0 156 -38q29 18 76 29l6 -4q-3 -30 -17.5 -88t-22.5 -73l-18 -10q-19 38 -34 111q-17 12 -53 21t-73 9q-138 0 -218 -85.5t-80 -219.5q0 -131 83.5 -216t225.5 -85q42 0 66 8q84 88 117 113l23 -5q-6 -23 -32 -73t-36 -58q-28 -13 -80 -22.5t-93 -9.5
q-72 0 -138 20.5t-120 61t-86 108t-32 153.5q0 85 35 154.5t91 111.5t121 64.5t131 22.5z" />
    <glyph glyph-name="afii10036" unicode="&#x422;" horiz-adv-x="670" 
d="M125 659h428q43 10 82 14l2 -4q-4 -60 -29 -159l-16 -8q-30 82 -41 121l-175 -8v-248q0 -139 6 -313l117 -31l-9 -24q-26 0 -78.5 0.5t-78.5 0.5q-27 0 -80.5 -0.5t-81.5 -0.5l7 24l106 31q3 51 3 280v281l-164 8q-48 -96 -61 -116l-16 -5q-2 28 -2 86t2 81l3 4
q26 -3 76 -14z" />
    <glyph glyph-name="afii10037" unicode="&#x423;" horiz-adv-x="651" 
d="M6 635l9 24q17 0 53 -1t55 -1q20 0 58.5 1t56.5 1l-8 -25l-46 -25l185 -367h2q107 260 144 363l-53 30l7 24q14 0 39 -1t38 -1q20 0 55.5 1t53.5 1l-7 -26l-44 -18q-20 -7 -28.5 -16.5t-19.5 -33.5l-190 -431q-75 -169 -165 -169q-39 0 -62 35q-16 28 -18 45l7 15
q39 -18 86 -18t74.5 33.5t27.5 63.5q-1 26 -25 70l-192 367q-10 19 -20 27t-29 15z" />
    <glyph glyph-name="afii10038" unicode="&#x424;" horiz-adv-x="800" 
d="M359 622l-72 26l7 22q17 0 53 -0.5t55 -0.5q20 0 57.5 0.5t56.5 0.5l-6 -23l-67 -26v-28q315 -18 315 -257q0 -56 -19.5 -100.5t-50.5 -72t-73.5 -45.5t-84 -25.5t-87.5 -8.5v-34l87 -28l-7 -23q-15 0 -55 0.5t-66 0.5q-25 0 -67.5 -0.5t-58.5 -0.5l6 23l77 28v34
q-316 9 -316 248q0 71 28.5 122.5t77.5 79.5t100 42t110 17v29zM358 118v440q-219 -20 -219 -217q0 -202 219 -223zM443 558v-440q106 9 162.5 59.5t56.5 158.5q0 204 -219 222z" />
    <glyph glyph-name="afii10039" unicode="&#x425;" horiz-adv-x="697" 
d="M42 636l11 23q21 0 65 -0.5t66 -0.5q18 0 48 0.5t43 0.5l-6 -25l-26 -27q44 -80 119 -201h2q65 102 119 199l-30 31l10 23q10 0 33.5 -0.5t33.5 -0.5q20 0 59 0.5t58 0.5l-7 -25q-70 -17 -109 -51q-65 -88 -148 -213q150 -254 171 -287q14 -23 39 -31l91 -30l-9 -23
q-25 0 -73.5 1t-72.5 1q-17 0 -50 -1t-50 -1l6 24l31 26q-25 49 -137 239h-2l-45.5 -73l-54 -87.5t-39.5 -69.5l46 -35l-7 -24q-12 0 -42.5 1t-46.5 1q-19 0 -57.5 -1t-58.5 -1l7 24l66 24q22 8 43 33q57 72 170 246q-118 204 -150 254q-15 26 -40 33z" />
    <glyph glyph-name="afii10040" unicode="&#x426;" horiz-adv-x="765" 
d="M123 347v259l-79 29l10 24q17 0 55.5 -0.5t57.5 -0.5q21 0 52 0.5t43 0.5l-7 -24l-43 -31v-260q0 -216 4 -293q54 -9 169 -9q121 0 164 9q4 76 4 291v261l-49 35l8 21q14 0 43 -0.5t43 -0.5q25 0 69 0.5t62 0.5l-7 -25l-80 -30v-263q0 -251 7 -295l73 -7
q-31 -177 -41 -217l-27 -11q-6 31 -15 97.5t-13 91.5h-462q-22 0 -66 -0.5t-64 -0.5l8 24l75 30q6 150 6 294z" />
    <glyph glyph-name="afii10041" unicode="&#x427;" horiz-adv-x="688" 
d="M101 454v152l-78 30l9 23q20 0 56.5 -0.5t55.5 -0.5q16 0 49 0.5t51 0.5l-8 -24l-46 -29v-140q0 -73 38.5 -107t120.5 -34q74 0 126 24v258l-80 29l8 23q20 0 59 -0.5t58 -0.5q21 0 62.5 0.5t61.5 0.5l-8 -24l-72 -29v-263q0 -247 5 -290l92 -30l-7 -24q-17 0 -61.5 0.5
t-72.5 0.5q-26 0 -72.5 -0.5t-64.5 -0.5l6 24l80 30q6 18 6 261q-97 -44 -176 -44q-119 0 -169 65q-29 38 -29 119z" />
    <glyph glyph-name="afii10042" unicode="&#x428;" horiz-adv-x="972" 
d="M123 347v259l-78 29l9 24q18 0 57 -0.5t58 -0.5q22 0 52 0.5t42 0.5l-11 -24l-42 -31v-260q0 -217 4 -294q43 -8 106 -8q72 0 117 8q5 125 5 296v261l-77 29l9 23q19 0 56.5 -0.5t56.5 -0.5q20 0 59 0.5t60 0.5l-9 -25l-68 -28v-264q0 -199 5 -292q37 -8 107 -8
q76 0 116 8q4 77 4 294v259l-50 35l8 21q15 0 44 -0.5t43 -0.5q25 0 67.5 0.5t60.5 0.5l-7 -25l-79 -30v-264q0 -262 7 -285l88 -31l-7 -25q-18 0 -61 0.5t-64 0.5h-648q-21 0 -65 -0.5t-63 -0.5l7 24l75 30q6 150 6 294z" />
    <glyph glyph-name="afii10043" unicode="&#x429;" horiz-adv-x="972" 
d="M123 347v259l-77 29l7 24q17 0 56 -0.5t58 -0.5q22 0 52 0.5t42 0.5l-9 -24l-42 -31v-260q0 -217 4 -294q40 -9 106 -9q75 0 117 9q5 125 5 296v261l-77 29l8 23q20 0 57.5 -0.5t56.5 -0.5q20 0 59 0.5t60 0.5l-8 -25l-69 -28v-264q0 -199 5 -292q34 -9 107 -9
q79 0 116 9q4 77 4 294v259l-50 35l8 21q15 0 44 -0.5t43 -0.5q25 0 67.5 0.5t60.5 0.5l-7 -25l-79 -30v-264q0 -254 7 -298l73 -6q-27 -158 -41 -213l-27 -12q-5 28 -14 93t-14 96h-669q-21 0 -65 -0.5t-64 -0.5l8 24l75 30q6 150 6 294z" />
    <glyph glyph-name="afii10044" unicode="&#x42a;" horiz-adv-x="738" 
d="M271 344v271l-148 7q-48 -96 -61 -115l-15 -4q-2 32 -3 87.5t1 78.5l4 4q22 -3 76 -15h194q29 0 69 0.5t55 0.5l-9 -24l-75 -29v-222q51 12 106 12q114 0 174.5 -50t60.5 -136q0 -213 -329 -213q-102 0 -192 3l9 25l77 27q6 40 6 292zM597 207v1q0 147 -161 147
q-40 0 -77 -7q0 -233 3 -313q53 0 92 7t73 25t52 53t18 87z" />
    <glyph glyph-name="afii10045" unicode="&#x42b;" horiz-adv-x="863" 
d="M124 344v264l-79 28l7 23q20 0 58.5 -1t57.5 -1q21 0 62.5 1t61.5 1l-7 -24l-73 -28v-224q56 12 111 12q110 0 169 -48.5t59 -133.5q0 -216 -325 -216q-96 0 -187 3l7 24l72 28q6 40 6 292zM448 207v1q0 146 -159 146q-40 0 -77 -7q0 -233 3 -313q111 1 172 38.5
t61 134.5zM572 636l8 23q20 0 58.5 -1t57.5 -1q21 0 62.5 1t61.5 1l-8 -24l-72 -28v-263q0 -250 5 -292l92 -29l-7 -24q-17 0 -61.5 0.5t-72.5 0.5q-26 0 -72.5 -0.5t-65.5 -0.5l7 24l80 29q6 25 6 292v264z" />
    <glyph glyph-name="afii10046" unicode="&#x42c;" horiz-adv-x="603" 
d="M123 344v264l-80 28l9 23q20 0 59 -0.5t58 -0.5q21 0 62.5 0.5t62.5 0.5l-8 -24l-75 -28v-224q54 12 113 12q119 0 180 -48t61 -134q0 -54 -20.5 -94t-52.5 -62.5t-78.5 -36.5t-89.5 -18.5t-96 -4.5q-98 0 -190 3l6 23l73 29q6 40 6 292zM462 206v1q0 147 -170 147
q-48 0 -81 -7q0 -232 3 -312q56 0 97.5 7.5t77.5 25.5t54.5 52.5t18.5 85.5z" />
    <glyph glyph-name="afii10047" unicode="&#x42d;" horiz-adv-x="673" 
d="M112 304l-5 10q4 10 31 33.5t44 25.5q184 -10 348 -11q-4 70 -28.5 124t-62.5 84.5t-81 46t-89 15.5q-70 0 -121 -23q-13 -73 -33 -120l-19 -11q-27 62 -41 119q119 80 252 80q132 0 227.5 -89t95.5 -246q0 -77 -22.5 -139.5t-58.5 -103t-84 -68t-97 -39t-100 -11.5
q-76 0 -142 25.5t-85 50.5q32 84 51 115l18 8q21 -77 28 -138q52 -18 109 -17q54 0 101 15.5t88 48t66 91t27 136.5q-310 -4 -417 -12z" />
    <glyph glyph-name="afii10048" unicode="&#x42e;" horiz-adv-x="1009" 
d="M124 343v265l-79 28l9 23q20 0 57.5 -0.5t56.5 -0.5q21 0 62.5 0.5t61.5 0.5l-6 -24l-74 -28v-231h126q16 130 100 215.5t216 85.5q62 0 117.5 -23t99 -65.5t69 -108.5t26.5 -148q1 -89 -25 -158.5t-71 -110.5t-99.5 -61.5t-115.5 -20.5q-141 0 -230.5 94t-90.5 251h-122
q0 -234 5 -274l92 -29l-8 -24q-17 0 -61 0.5t-71 0.5q-26 0 -72.5 -0.5t-64.5 -0.5l7 24l79 29q6 25 6 291zM642 640h-1q-94 0 -149 -84t-55 -216q0 -134 61 -228.5t166 -94.5q54 0 93.5 26t62 71t33 98t10.5 114q0 136 -63.5 225t-157.5 89z" />
    <glyph glyph-name="afii10049" unicode="&#x42f;" horiz-adv-x="643" 
d="M519 609v-260q0 -172 5 -297l93 -30l-7 -24q-24 0 -70 1t-68 1q-23 0 -67 -1t-65 -1l6 25l78 29q5 88 5 251q-53 0 -87 -17.5t-68 -67.5l-47 -70l-55.5 -82t-30.5 -43q-48 -42 -127 -43l-9 11q17 15 45.5 52.5t74.5 104t52 74.5q45 66 113 90v3q-97 13 -140.5 58.5
t-43.5 110.5q0 87 71 134.5t212 47.5q126 0 213 -15l-10 -24zM429 340v288q-224 7 -224 -143q0 -68 48.5 -106.5t148.5 -38.5h27z" />
    <glyph glyph-name="afii10065" unicode="&#x430;" horiz-adv-x="455" 
d="M285 257v22q-1 72 -27 98.5t-72 26.5q-30 0 -61 -18q-5 -68 -12 -101l-11 -5q-9 5 -32.5 36t-30.5 50q15 14 52.5 35.5t68.5 33.5q45 17 70 17q70 0 103.5 -47.5t33.5 -105.5q0 -34 -1 -111.5t-1 -111.5q25 -41 78 -58l-7 -16q-21 -13 -50 -13q-79 0 -99 57h-2
q-60 -59 -121 -59q-60 0 -93 37t-33 80q0 61 40 81q64 39 207 72zM125 123v-1q0 -40 25.5 -59t55.5 -19q38 0 68 31q9 10 9 23l2 127q-85 -23 -125 -47q-20 -11 -27.5 -22.5t-7.5 -32.5z" />
    <glyph glyph-name="afii10066" unicode="&#x431;" horiz-adv-x="522" 
d="M283 452h1q88 0 144 -60t56 -161q0 -114 -64.5 -179t-157.5 -65q-100 0 -158.5 77t-58.5 223q0 215 129 329q81 77 184 77q92 0 122 24l10 -11q-6 -19 -23.5 -44.5t-40.5 -41.5q-14 -7 -34 -7q-17 0 -50 1t-54 1q-75 0 -120 -52.5t-45 -155.5q0 -19 3 -40h2q60 85 155 85
zM269 414h-1q-60 0 -92.5 -51t-32.5 -133q0 -87 34 -147.5t94 -60.5q54 0 85 51t32 153q0 86 -31 137t-88 51z" />
    <glyph glyph-name="afii10067" unicode="&#x432;" horiz-adv-x="497" 
d="M96 191v199l-65 25l9 21q139 11 194 11q101 0 148 -25t47 -81q0 -86 -117 -101v-6q77 -6 113 -31.5t36 -74.5q0 -133 -255 -133q-34 0 -93 1t-89 1l7 23l62 28q3 30 3 143zM178 412v-162q81 0 121.5 19t40.5 67q0 45 -35.5 60.5t-96.5 15.5h-30zM178 217v-11
q0 -142 1 -177h20q42 0 76 7t62 30.5t28 61.5q0 45 -40.5 67.5t-146.5 21.5z" />
    <glyph glyph-name="afii10068" unicode="&#x433;" horiz-adv-x="408" 
d="M96 233v155l-64 29l9 23q14 0 46.5 -0.5t47.5 -0.5h167q47 10 77 10l2 -3q-5 -44 -29 -135l-15 -8q-7 18 -20.5 56t-15.5 44l-121 -8v-176q0 -141 1 -168l81 -29l-8 -23q-15 0 -53 0.5t-60 0.5t-62 -0.5t-55 -0.5l8 23l62 29q2 22 2 182z" />
    <glyph glyph-name="afii10069" unicode="&#x434;" horiz-adv-x="527" 
d="M213 423l70 35l4 -4q0 -24 9 -51l21 -54.5l49.5 -123.5l72.5 -183l64 -7q-29 -164 -34 -183l-26 -14q-3 16 -11 75.5t-13 86.5h-316l-20.5 -75t-21.5 -74l-27 -12q-7 124 -10 197l49 6q37 82 144 342q3 12 1 19zM239 40h1q80 0 105 8l-106 287h-3l-61 -167.5t-44 -120.5
q27 -7 108 -7z" />
    <glyph glyph-name="afii10070" unicode="&#x435;" horiz-adv-x="454" 
d="M319 233h-190q-1 -5 -1 -14q0 -83 45.5 -131.5t114.5 -48.5q20 0 34 6q55 39 84 54l5 -16q-4 -15 -24.5 -39.5t-32.5 -32.5q-51 -24 -105 -24q-94 0 -153 61t-59 163q0 104 64.5 172.5t152.5 68.5q72 0 120.5 -46t48.5 -127q0 -25 -10 -32q-35 -14 -94 -14zM130 271h199
q5 12 5 30q0 48 -23.5 82t-64.5 34q-55 0 -85.5 -51t-30.5 -95z" />
    <glyph glyph-name="afii10072" unicode="&#x436;" horiz-adv-x="709" 
d="M316 240v149l-58 29l6 22q15 0 45 -0.5t43 -0.5q19 0 53.5 0.5t48.5 0.5l-6 -22l-54 -29v-149q50 9 68 31q52 63 90 122l1 47q9 0 29 -0.5t32 -0.5q56 0 82 1l-8 -23l-86 -36q-41 -43 -116 -132v-2q31 -15 48 -37q120 -163 164 -215l-9 -9q-46 0 -74 11.5t-52 41.5
q-28 32 -111 144q-14 19 -25.5 24t-32.5 2q0 -107 2 -159l67 -29l-7 -22q-17 0 -51.5 0.5t-52.5 0.5t-52.5 -0.5t-51.5 -0.5l7 22l59 29q2 70 2 159q-39 6 -62 -25l-52 -69t-59 -76q-42 -53 -121 -53l-9 9q30 36 92.5 118.5l73.5 96.5q17 23 44 38v2q-54 67 -115 131l-95 36
l10 23q24 -1 73 -1q12 0 32 0.5t29 0.5l1 -47q27 -43 92 -122q20 -23 66 -31z" />
    <glyph glyph-name="afii10073" unicode="&#x437;" horiz-adv-x="430" 
d="M99 306l-15 -9q-24 40 -38 87q85 68 174 68q69 0 108.5 -31t39.5 -81q0 -38 -33 -64q-25 -18 -66 -32v-5q38 -7 59 -16q65 -28 65 -90q0 -69 -59.5 -107.5t-144.5 -38.5q-50 0 -93.5 18t-63.5 39q22 60 43 93l16 7q12 -31 25 -107q31 -11 63 -10q57 1 88.5 29.5
t31.5 73.5q0 81 -111 81q-36 0 -70 -4l-3 13l35 37q24 -3 42 -3q38 0 63 20t25 56t-24 58t-68 22q-34 0 -62 -13q-13 -59 -27 -91z" />
    <glyph glyph-name="afii10074" unicode="&#x438;" horiz-adv-x="562" 
d="M96 230v157l-60 31l7 22q14 0 45 -0.5t46 -0.5q16 0 45.5 0.5t43.5 0.5l-6 -23l-42 -29v-121q0 -79 -7 -180h7l201 315l-6 37h59q18 0 52.5 0.5t49.5 0.5l-7 -22l-58 -29v-160q0 -154 4 -177l66 -31l-7 -22q-15 0 -52 0.5t-56 0.5q-15 0 -45.5 -0.5t-43.5 -0.5l7 23
l44 29q5 73 5 139q0 53 6 164l-7 -2l-198 -315l6 -37h-55q-20 0 -59 -0.5t-55 -0.5l8 22l58 30q4 24 4 179z" />
    </font>
</defs>
</svg>
