<?xml version="1.0" standalone="no"?>
<!DOCTYPE svg PUBLIC "-//W3C//DTD SVG 1.1//EN" "http://www.w3.org/Graphics/SVG/1.1/DTD/svg11.dtd" >
<svg>
<metadata>
Created by FontForge 20090622 at Wed Jul 15 09:32:47 2015
 By deploy user
Copyright (c) 1991, 1998 Adobe Systems Incorporated.  All Rights Reserved.Berthold Akzidenz-Grotesk is either a registered trademark or trademark of Berthold Types Limited in the United States and/or other countries.
</metadata>
<defs>
<font id="AkzidenzGroteskBE-BoldCn" horiz-adv-x="396" >
  <font-face 
    font-family="Akzidenz Grotesk BE Cn"
    font-weight="700"
    font-stretch="condensed"
    units-per-em="1000"
    panose-1="2 11 8 6 0 0 0 0 0 0"
    ascent="750"
    descent="-250"
    x-height="512"
    cap-height="706"
    bbox="-101 -250 974 919"
    underline-thickness="50"
    underline-position="-50"
    unicode-range="U+0020-U+FB02"
  />
<missing-glyph horiz-adv-x="250" 
 />
    <glyph glyph-name=".notdef" horiz-adv-x="250" 
 />
    <glyph glyph-name=".null" horiz-adv-x="0" 
 />
    <glyph glyph-name="nonmarkingreturn" horiz-adv-x="333" 
 />
    <glyph glyph-name="space" unicode=" " horiz-adv-x="250" 
 />
    <glyph glyph-name="space" unicode="&#xa0;" horiz-adv-x="250" 
 />
    <glyph glyph-name="exclam" unicode="!" horiz-adv-x="229" 
d="M78 387v319h113v-313l-19 -203h-78zM75 0v132h119v-132h-119z" />
    <glyph glyph-name="quotedbl" unicode="&#x22;" 
d="M343 690l-41 -256h-23l-38 244q-2 12 -2 17q0 28 17.5 41t37.5 13q23 0 38 -15.5t11 -43.5zM156 690l-41 -256h-23l-38 244q-2 12 -2 17q0 28 17.5 41t37.5 13q23 0 38 -15.5t11 -43.5z" />
    <glyph glyph-name="numbersign" unicode="#" horiz-adv-x="583" 
d="M559 307v-77h-150l-33 -230h-80l33 230h-111l-32 -230h-81l33 230h-138v77h149l16 107h-141v77h151l31 215h80l-30 -215h110l31 215h78l-29 -215h138v-77h-149l-16 -107h140zM229 307h111l15 107h-111z" />
    <glyph glyph-name="dollar" unicode="$" horiz-adv-x="417" 
d="M188 703v80h51v-80q39 -5 66 -20.5t39.5 -37t19.5 -49t6.5 -56.5t-0.5 -60h-112v66q0 18 -1.5 29.5t-14 25t-36.5 13.5q-55 0 -55 -74q0 -33 25 -60l149 -155q35 -36 47 -65.5t12 -84.5q0 -167 -145 -181v-94h-51v94q-42 3 -71.5 17t-44 30.5t-22 42t-8.5 39t-1 33.5v78
h110v-79q0 -66 61 -66q21 0 34 8.5t18 24t6 26t1 26.5q0 49 -32 82l-141 143q-36 37 -48.5 68t-12.5 70q0 44 12.5 76t27.5 48t40.5 26t37.5 12t33 4z" />
    <glyph glyph-name="percent" unicode="%" horiz-adv-x="708" 
d="M190 -23l266 737l63 -22l-265 -737zM26 328v225q0 19 2.5 32.5t12 36.5t36 36t68.5 13q34 0 58.5 -9.5t36.5 -21t18 -29.5t7 -27.5t1 -22.5v-235q0 -53 -31.5 -80.5t-86.5 -27.5q-43 0 -70 11.5t-37 32.5t-12.5 34t-2.5 32zM106 561v-241q0 -11 2 -18t11.5 -13.5
t26.5 -6.5q18 0 27.5 8t10.5 15.5t1 19.5v237q0 13 -0.5 19t-4 14t-12.5 11t-23 3t-22.5 -4t-12 -12.5t-4 -14.5t-0.5 -17zM443 104v226q0 14 1 24t7 29.5t17.5 31.5t35.5 22t58 10t58.5 -9.5t36.5 -21t18 -29.5t7 -27.5t1 -22.5v-235q0 -53 -31.5 -80.5t-86.5 -27.5
q-43 0 -70 11.5t-37 32.5t-12.5 34t-2.5 32zM523 338v-242q0 -38 40 -38q18 0 27.5 8t10.5 15.5t1 19.5v237q0 13 -0.5 19t-4 14t-12.5 11t-23 3t-22.5 -4t-12 -12t-4 -14t-0.5 -17z" />
    <glyph glyph-name="ampersand" unicode="&#x26;" horiz-adv-x="521" 
d="M277 390l92 -181q20 50 21 111h103q-7 -133 -64 -212q16 -17 32 -22t45 -4v-85q-36 -6 -56 -6q-56 0 -93 37q-69 -40 -134 -40q-92 0 -144 55t-52 140q0 68 33 120t90 103q-52 95 -52 165q0 19 5.5 40.5t19.5 47.5t45.5 42.5t75.5 16.5q63 0 99.5 -35.5t36.5 -92.5
q0 -53 -22.5 -92.5t-80.5 -107.5zM299 115l-103 187q-52 -65 -52 -119q0 -42 26.5 -65.5t59.5 -23.5t69 21zM228 496q30 44 38.5 59.5t8.5 33.5q0 20 -10.5 28.5t-22.5 8.5q-18 0 -28 -14.5t-10 -34.5q0 -26 24 -81z" />
    <glyph glyph-name="quotesingle" unicode="'" horiz-adv-x="208" 
d="M156 690l-41 -256h-23l-38 244q-2 12 -2 17q0 28 17.5 41t37.5 13q23 0 38 -15.5t11 -43.5z" />
    <glyph glyph-name="parenleft" unicode="(" horiz-adv-x="292" 
d="M54 99v401q0 179 218 274v-93q-60 -36 -79.5 -86t-19.5 -115v-391q0 -61 21 -101t78 -83v-87q-39 13 -85 43t-76 66q-57 69 -57 172z" />
    <glyph glyph-name="parenright" unicode=")" horiz-adv-x="292" 
d="M238 493v-402q0 -178 -218 -273v93q60 36 79.5 86t19.5 115v391q0 61 -21 101t-78 83v87q38 -12 85 -42.5t76 -66.5q57 -71 57 -172z" />
    <glyph glyph-name="asterisk" unicode="*" horiz-adv-x="333" 
d="M130 606v100h72v-100l91 29l23 -66l-90 -32l57 -77l-57 -43l-56 78l-57 -78l-57 38l57 82l-95 27l20 68z" />
    <glyph glyph-name="plus" unicode="+" horiz-adv-x="500" 
d="M468 331v-80h-179v-179h-80v179h-178v80h178v179h80v-179h179z" />
    <glyph glyph-name="comma" unicode="," horiz-adv-x="187" 
d="M35 0v129h118v-129l-83 -135h-45l69 135h-59z" />
    <glyph glyph-name="hyphen" unicode="-" horiz-adv-x="333" 
d="M33 218v99h268v-99h-268z" />
    <glyph glyph-name="hyphen" unicode="&#xad;" horiz-adv-x="333" 
d="M33 218v99h268v-99h-268z" />
    <glyph glyph-name="period" unicode="." horiz-adv-x="187" 
d="M35 0v129h118v-129h-118z" />
    <glyph glyph-name="slash" unicode="/" horiz-adv-x="250" 
d="M12 0l130 706h98l-129 -706h-99z" />
    <glyph glyph-name="zero" unicode="0" 
d="M29 155v344q0 76 26 113q44 62 141 62q48 0 82.5 -14t51 -31t25.5 -44t10 -41t1 -34v-358q0 -81 -48 -124q-41 -37 -117 -37q-49 0 -84 13.5t-51.5 30t-25.5 43t-10 41t-1 36.5zM144 517v-374q0 -62 52 -62q19 0 31.5 6.5t17 19.5t5.5 21.5t1 22.5v361q0 24 -1.5 36.5
t-14 25.5t-36.5 13q-25 0 -38.5 -13t-15 -25t-1.5 -32z" />
    <glyph glyph-name="one" unicode="1" 
d="M48 466v92q40 9 83 43q24 18 56 64h78v-665h-117v508q-34 -31 -100 -42z" />
    <glyph glyph-name="two" unicode="2" 
d="M144 521v-80h-109v82q0 78 44 116q42 35 118 35q59 0 102.5 -23t56.5 -72q8 -32 8 -69v-68q0 -52 -17.5 -83t-78.5 -92q-81 -81 -98 -105t-20 -62h222v-100h-351q0 63 8.5 109.5t29 82t36.5 54.5t48 50q76 76 91 97t15 58v76q0 58 -49 58q-35 0 -45.5 -18t-10.5 -46z" />
    <glyph glyph-name="three" unicode="3" 
d="M145 534v-68h-110v82q0 66 51 98q42 28 115 28q44 0 76.5 -12.5t48 -28.5t25 -37.5t11 -33t1.5 -22.5v-78q0 -51 -20.5 -73t-75.5 -30q62 -10 81 -30t19 -85v-101q0 -81 -49 -116.5t-119 -35.5q-80 0 -125 39t-45 98v81h115v-71q0 -11 1 -18t6 -18t17.5 -16.5t32.5 -5.5
q50 0 50 54v99q0 56 -22 69.5t-88 13.5v78q62 0 84 15t22 66v50q0 13 -1 20t-5 17.5t-15 15.5t-29 5q-52 0 -52 -49z" />
    <glyph glyph-name="four" unicode="4" 
d="M22 219l170 449h139v-449h40v-93h-40v-126h-107v126h-202v93zM120 219h104l8 332z" />
    <glyph glyph-name="five" unicode="5" 
d="M41 308l7 357h309v-100h-216l-2 -137q50 35 98 35q56 0 90 -32q40 -35 40 -111v-165q0 -22 -2 -39.5t-11.5 -42.5t-26 -41.5t-49.5 -28.5t-78 -12q-79 0 -122 33q-49 38 -49 114v69h114v-68q0 -57 52 -57q14 0 24 3t20 17t10 40v159q0 13 -0.5 19.5t-3 19t-7.5 19
t-15.5 12t-25.5 5.5q-53 0 -65 -68h-91z" />
    <glyph glyph-name="six" unicode="6" 
d="M362 488h-110q0 26 -0.5 37.5t-3 26t-7.5 20t-15 9.5t-25 4q-26 0 -39.5 -13t-15 -24t-1.5 -29v-131q51 41 106 41q33 0 57 -12t35 -26.5t17.5 -36t7 -32t0.5 -22.5v-155q0 -17 -1 -30t-10 -38.5t-25 -42t-50 -30t-82 -13.5q-71 0 -115 31q-54 38 -54 125v382
q0 43 15.5 73t42.5 45t54.5 21t59.5 6q59 0 100 -22q40 -21 49.5 -54t9.5 -110zM145 268v-109q0 -21 1.5 -34t15 -28t39.5 -15q52 0 52 60v120q0 16 -1 25t-5.5 21.5t-16 19t-29.5 6.5q-56 0 -56 -66z" />
    <glyph glyph-name="seven" unicode="7" 
d="M20 489v176h358v-99q-76 -132 -116 -274q-44 -161 -44 -292h-125q4 106 53.5 270.5t126.5 296.5h-156v-78h-97z" />
    <glyph glyph-name="eight" unicode="8" 
d="M358 528v-58q0 -50 -13 -71.5t-57 -43.5q27 -12 40.5 -20.5t25 -32t11.5 -59.5v-90q0 -73 -29 -106q-47 -56 -135 -56q-81 0 -127.5 38.5t-46.5 113.5v85q0 42 11 67t24 35t44 25q-22 11 -34.5 20t-23.5 31.5t-11 55.5v70q0 142 160 142q46 0 78.5 -12.5t48 -27.5t24 -39
t9.5 -36.5t1 -30.5zM143 246v-103q0 -21 6 -34.5t16.5 -18.5t16.5 -6t15 -1q55 0 55 60v103q0 66 -54 66q-25 0 -38.5 -13t-15 -24t-1.5 -29zM147 533v-81q0 -31 12.5 -44t39.5 -13q23 0 34.5 11t13 22t1.5 31v69q0 55 -50 55q-51 0 -51 -50z" />
    <glyph glyph-name="nine" unicode="9" 
d="M26 126v53h115q0 -48 1 -57q4 -43 52 -43q20 0 32 5t17 17.5t6 21.5t1 28v126q-18 -13 -29 -20t-30 -13t-42 -6q-61 0 -92 31.5t-31 84.5v164q0 81 41.5 118.5t132.5 37.5q164 0 164 -146v-386q0 -151 -175 -151q-82 0 -122.5 36.5t-40.5 98.5zM141 518v-116
q0 -22 1.5 -34t14 -25t36.5 -13q20 0 32.5 6t17.5 19t6 22t1 25v122q0 62 -53 62q-20 0 -32.5 -6.5t-17 -18.5t-5.5 -20.5t-1 -22.5z" />
    <glyph glyph-name="colon" unicode=":" horiz-adv-x="229" 
d="M76 382v130h120v-130h-120zM76 0v130h120v-130h-120z" />
    <glyph glyph-name="semicolon" unicode=";" horiz-adv-x="229" 
d="M75 382v130h119v-130h-119zM75 0v130h119v-130l-82 -134h-45l71 134h-63z" />
    <glyph glyph-name="less" unicode="&#x3c;" horiz-adv-x="500" 
d="M500 155v-87l-500 242v86l500 242v-87l-401 -198z" />
    <glyph glyph-name="equal" unicode="=" horiz-adv-x="500" 
d="M500 238v-78h-500v78h500zM500 419v-78h-500v78h500z" />
    <glyph glyph-name="greater" unicode="&#x3e;" horiz-adv-x="500" 
d="M500 310l-500 -242v87l401 198l-401 198v87l500 -242v-86z" />
    <glyph glyph-name="question" unicode="?" horiz-adv-x="417" 
d="M176 463h-111v74q0 32 1 49t9.5 45.5t24.5 44t48.5 27.5t79.5 12q46 0 78 -11t47.5 -24.5t24 -38.5t9.5 -39.5t1 -40.5q0 -74 -6.5 -97t-33.5 -63l-49 -73q-32 -47 -38 -65.5t-6 -72.5h-113q0 67 4.5 87.5t30.5 60.5l65 102q20 31 24 43.5t4 39.5v50q0 18 -2.5 29.5
t-13 21.5t-30.5 10q-48 0 -48 -54v-117zM142 0v130h117v-130h-117z" />
    <glyph glyph-name="at" unicode="@" horiz-adv-x="896" 
d="M787 76l33 -40q-167 -160 -366 -160q-49 0 -99 10.5t-102.5 37t-92.5 66t-65.5 103t-25.5 142.5q0 92 34.5 179t94.5 152.5t147 105.5t185 40q134 0 215.5 -78t81.5 -211q0 -88 -33 -170t-86.5 -132.5t-110.5 -50.5q-27 0 -45 9t-25.5 25t-10 26t-3.5 25
q-62 -84 -144 -84q-8 0 -17.5 1t-32 10t-38.5 24.5t-29 49.5t-13 80q0 108 64.5 195t147.5 87q77 0 114 -85l15 62h68l-33 -150q-28 -136 -28 -175q0 -15 4.5 -22t16.5 -17h10q47 0 99 90t52 199q0 115 -68 176.5t-180 61.5q-101 0 -192 -55.5t-147.5 -154.5t-56.5 -216
q0 -61 18.5 -111.5t50 -85t74 -58.5t88.5 -35t95 -11q184 0 336 145zM541 348q0 55 -25.5 80t-56.5 25q-42 0 -75.5 -36t-49.5 -84t-16 -95q0 -29 8 -50t17.5 -31t23 -15.5t19 -6t10.5 -0.5q58 0 101.5 66.5t43.5 146.5z" />
    <glyph glyph-name="A" unicode="A" horiz-adv-x="437" 
d="M10 0l137 706h149l132 -706h-132l-17 115h-120l-19 -115h-130zM222 527l-47 -303h90z" />
    <glyph glyph-name="B" unicode="B" horiz-adv-x="479" 
d="M50 0v706h219q75 0 108 -21q51 -33 51 -123v-63q0 -64 -20 -87t-63 -32q59 -11 74.5 -38t15.5 -91v-100q0 -28 -1.5 -45t-13 -43t-33.5 -41q-33 -22 -114 -22h-223zM180 605v-178q73 0 84 2q35 8 35 63q0 72 -5 84q-10 29 -62 29h-52zM180 325v-223h54q44 0 59 12.5
t15 58.5v83q0 42 -15 55.5t-57 13.5h-56z" />
    <glyph glyph-name="C" unicode="C" horiz-adv-x="458" 
d="M430 448h-129v90q0 44 -13 63.5t-53 19.5q-20 0 -33 -7t-18.5 -20t-7 -24t-1.5 -26v-378q0 -38 13 -59t52 -21q18 0 30 5.5t18 12.5t9 20.5t3.5 22.5t0.5 26v92h129v-100q0 -25 -1.5 -41.5t-11.5 -45.5t-28.5 -47t-57 -32t-93.5 -14q-85 0 -137 34q-26 17 -39 43.5
t-15 43t-2 44.5v384q0 49 6.5 78t28.5 53q52 56 158 56q55 0 93.5 -13t57 -29.5t28.5 -43t11.5 -41t1.5 -37.5v-109z" />
    <glyph glyph-name="D" unicode="D" horiz-adv-x="479" 
d="M50 0v706h210q29 0 46 -1.5t43.5 -12t46.5 -30.5q42 -43 42 -142v-330q0 -43 -5.5 -72t-22 -58.5t-54.5 -44.5t-97 -15h-209zM180 603v-500q71 0 82 2q22 3 33 17.5t12.5 26t1.5 30.5v352q0 45 -16.5 58.5t-61.5 13.5h-51z" />
    <glyph glyph-name="E" unicode="E" horiz-adv-x="417" 
d="M50 0v707h342v-108h-212v-166h199v-107h-199v-217h221v-109h-351z" />
    <glyph glyph-name="F" unicode="F" 
d="M50 0v706h345v-109h-214v-177h202v-105h-202v-315h-131z" />
    <glyph glyph-name="G" unicode="G" horiz-adv-x="479" 
d="M433 478h-130v67q0 18 -1 27t-6.5 22t-18.5 19t-35 6q-23 0 -37.5 -8t-20 -24.5t-7 -27.5t-1.5 -31v-372q0 -36 14 -53.5t48 -17.5q19 0 32 5.5t19 13t9.5 20.5t4 21t0.5 22v110h-81v106h211v-383h-111v42q-15 -16 -25 -25t-38 -20.5t-62 -11.5q-26 0 -50.5 6.5t-49 21.5
t-39 44.5t-14.5 71.5v402q0 28 2 47.5t13 49t31 48t59.5 32t95.5 13.5q85 0 135 -32q53 -34 53 -108v-103z" />
    <glyph glyph-name="H" unicode="H" horiz-adv-x="479" 
d="M50 0v706h130v-278h119v278h130v-706h-130v323h-119v-323h-130z" />
    <glyph glyph-name="I" unicode="I" horiz-adv-x="229" 
d="M50 0v706h129v-706h-129z" />
    <glyph glyph-name="J" unicode="J" 
d="M215 161v545h131v-546q0 -18 -0.5 -29.5t-4 -32t-10 -34t-19.5 -30t-31.5 -26t-47.5 -16.5t-66 -7q-165 0 -165 144v95h120v-67q0 -21 1.5 -32.5t12.5 -24t33 -12.5q16 0 26.5 6.5t14 19.5t4.5 22t1 25z" />
    <glyph glyph-name="K" unicode="K" horiz-adv-x="458" 
d="M50 0v706h132v-275l141 275h133l-160 -305l165 -401h-141l-138 345v-345h-132z" />
    <glyph glyph-name="L" unicode="L" horiz-adv-x="375" 
d="M50 0v706h129v-599h192v-107h-321z" />
    <glyph glyph-name="M" unicode="M" horiz-adv-x="688" 
d="M50 0v706h211l84 -494l83 494h209v-706h-129l12 612l-114 -612h-122l-116 612l10 -612h-128z" />
    <glyph glyph-name="N" unicode="N" horiz-adv-x="500" 
d="M450 706v-706h-164l-126 529l12 -529h-122v706h167l127 -518l-13 518h119z" />
    <glyph glyph-name="O" unicode="O" horiz-adv-x="479" 
d="M435 543v-392q0 -78 -38 -116q-48 -50 -155 -50q-110 0 -154 44.5t-44 121.5v395q0 82 37 121q50 54 160 54q93 0 147 -44q26 -22 36.5 -52t10.5 -82zM304 170v364q0 19 -1 30t-6.5 27t-19.5 23.5t-36 7.5q-19 0 -32.5 -6.5t-20 -14.5t-10 -23t-4 -24t-0.5 -25v-356
q0 -26 2.5 -41.5t18 -30t45.5 -14.5q23 0 37 7.5t19.5 22.5t6.5 25t1 28z" />
    <glyph glyph-name="P" unicode="P" horiz-adv-x="458" 
d="M50 0v707h262q34 0 58 -11t35.5 -25t17.5 -39.5t7 -41t1 -43.5v-92q0 -48 -4 -74t-18 -48t-42 -30.5t-76 -8.5h-110v-294h-131zM181 602v-207h63q37 0 48 11.5t11 51.5v72q0 22 -1 32t-6 21t-17.5 15t-33.5 4h-64z" />
    <glyph glyph-name="Q" unicode="Q" horiz-adv-x="479" 
d="M433 544v-397q0 -32 -3.5 -48.5t-15.5 -38.5l72 -74l-81 -79l-89 91q-17 -6 -42 -10q-21 -3 -42 -3q-89 0 -138.5 39t-49.5 114v412q0 50 14.5 83.5t52.5 56.5q51 31 129 31q76 0 124 -30q37 -22 53 -55.5t16 -91.5zM175 541v-368q0 -21 1 -31.5t6.5 -25t19.5 -21
t36 -6.5q19 0 31.5 5.5t19 13t9.5 24t3.5 28t0.5 35.5v346q0 18 -1 28t-6.5 24.5t-19 21.5t-35.5 7q-23 0 -37.5 -7.5t-19.5 -22.5t-6.5 -24.5t-1.5 -26.5z" />
    <glyph glyph-name="R" unicode="R" horiz-adv-x="479" 
d="M50 0v707h260q36 0 61.5 -10t38 -23t19 -37t7.5 -38.5t1 -41.5v-76q0 -63 -19.5 -86t-71.5 -34q17 -4 29 -9.5t29.5 -18.5t27.5 -37t10 -57v-144q0 -71 30 -95h-143q-19 34 -19 78v151q0 19 -0.5 27.5t-4 21.5t-10.5 18.5t-20 10t-33 4.5h-62v-311h-130zM180 605v-193h68
q21 0 34 5t18.5 16t6.5 20.5t1 26.5v67q0 21 -4.5 33.5t-15 17.5t-18 6t-22.5 1h-68z" />
    <glyph glyph-name="S" unicode="S" horiz-adv-x="458" 
d="M38 146v103h130v-82q0 -21 1 -31t6.5 -24.5t19 -20.5t36.5 -6q19 0 31.5 5.5t19 12.5t9.5 23.5t3.5 28t0.5 35.5q0 37 -9 57t-35 37l-124 83q-48 32 -66 70.5t-18 95.5q0 50 10 85t41 61q50 42 142 42q31 0 60.5 -7t57.5 -23t45 -47.5t17 -74.5v-70h-129v51q0 17 -1 26
t-6 22t-17.5 18.5t-32.5 5.5q-29 0 -44.5 -15t-15.5 -55q0 -41 9 -58t32 -33l128 -87q47 -33 67 -69q13 -22 16 -42.5t3 -68.5q0 -39 -1 -57.5t-6 -41t-16 -40.5q-43 -70 -168 -70q-90 0 -143 38.5t-53 122.5z" />
    <glyph glyph-name="T" unicode="T" 
d="M2 604v102h391v-102h-130v-604h-131v604h-130z" />
    <glyph glyph-name="U" unicode="U" horiz-adv-x="479" 
d="M48 162v544h131v-525q0 -20 1 -30.5t6.5 -25.5t18.5 -22t35 -7q21 0 34.5 7t18.5 22t6 26t1 31v524h131v-547q0 -174 -194 -174q-92 0 -140.5 45t-48.5 132z" />
    <glyph glyph-name="V" unicode="V" horiz-adv-x="417" 
d="M146 0l-140 706h138l69 -467l64 467h133l-133 -706h-131z" />
    <glyph glyph-name="W" unicode="W" horiz-adv-x="708" 
d="M141 0l-129 706h134l71 -532l77 532h123l74 -532l74 532h132l-136 -706h-137l-67 481l-77 -481h-139z" />
    <glyph glyph-name="X" unicode="X" horiz-adv-x="479" 
d="M170 376l-139 330h142l67 -199l68 199h142l-141 -334l156 -372h-143l-83 244l-84 -244h-141z" />
    <glyph glyph-name="Y" unicode="Y" horiz-adv-x="417" 
d="M143 217l-141 489h137l71 -356l69 356h137l-141 -497v-209h-132v217z" />
    <glyph glyph-name="Z" unicode="Z" horiz-adv-x="417" 
d="M52 597v109h343v-70l-230 -526h227v-110h-369v82l225 515h-196z" />
    <glyph glyph-name="bracketleft" unicode="[" horiz-adv-x="333" 
d="M50 -172v932h240v-90h-122v-752h123v-90h-241z" />
    <glyph glyph-name="backslash" unicode="\" horiz-adv-x="250" 
d="M240 0h-98l-130 706h99z" />
    <glyph glyph-name="bracketright" unicode="]" horiz-adv-x="333" 
d="M284 760v-932h-240v90h122v752h-123v90h241z" />
    <glyph glyph-name="asciicircum" unicode="^" horiz-adv-x="729" 
d="M407 706l180 -369h-97l-124 259l-128 -259h-96l188 369h77z" />
    <glyph glyph-name="underscore" unicode="_" horiz-adv-x="500" 
d="M510 -75v-50h-520v50h520z" />
    <glyph glyph-name="grave" unicode="`" horiz-adv-x="250" 
d="M148 574l-133 132h153l66 -132h-86z" />
    <glyph glyph-name="a" unicode="a" 
d="M151 354h-109q0 64 4 87t24 43q39 39 130 39q54 0 91 -19q61 -31 61 -94v-285q0 -64 3.5 -88.5t19.5 -36.5h-125q-13 14 -14 45q-16 -19 -26.5 -28.5t-31 -18.5t-45.5 -9q-29 0 -49.5 10.5t-30 24t-15 36.5t-6 36t-0.5 34q0 75 11.5 103t66.5 55l124 62q0 52 -1 57
q-3 34 -41 34q-29 0 -35 -17t-6 -70zM233 108v150l-58 -38q-17 -12 -22 -28.5t-5 -56.5q0 -30 6 -43t22 -13q23 0 57 29z" />
    <glyph glyph-name="b" unicode="b" horiz-adv-x="417" 
d="M44 0v707h119v-235q55 51 107 51q39 0 73.5 -29.5t34.5 -90.5v-289q0 -38 -12 -65t-31 -39t-35 -16.5t-31 -4.5q-29 0 -52.5 11.5t-32.5 21t-21 25.5v-47h-119zM258 158v215q0 58 -44 58q-18 0 -29.5 -6t-16 -18t-5.5 -20.5t-1 -21.5v-207q0 -21 2.5 -33.5t14 -23.5
t32.5 -11q47 0 47 68z" />
    <glyph glyph-name="c" unicode="c" 
d="M367 318h-118v62q0 57 -44 57q-17 0 -28 -6.5t-15 -19.5t-5 -21.5t-1 -22.5v-222q0 -13 1 -21t5 -20.5t14 -19t27 -6.5q46 0 46 66v59h118v-58q0 -155 -163 -155q-77 0 -121 35q-45 36 -45 114v227q0 63 29 99q44 57 137 57q76 0 121 -36q42 -35 42 -107v-61z" />
    <glyph glyph-name="d" unicode="d" horiz-adv-x="417" 
d="M254 471v236h118v-707h-120l1 50q-13 -19 -22 -29t-30 -20.5t-47 -10.5q-34 0 -61 15.5t-39 38.5q-15 29 -15 109v234q0 48 14 76q15 31 43 45.5t54 14.5q22 0 43.5 -10t31.5 -17.5t29 -24.5zM157 366v-218q0 -13 1 -20t4.5 -17.5t14 -15.5t26.5 -5q50 0 50 62v220
q0 59 -50 59q-16 0 -26.5 -6t-14 -18t-4.5 -20t-1 -21z" />
    <glyph glyph-name="e" unicode="e" 
d="M156 230v-84q0 -63 44 -63q20 0 32 15q7 9 8.5 20.5t1.5 50.5h116v-41q0 -76 -45 -107t-111 -31q-164 0 -164 164v216q0 85 55 123q43 30 108 30q77 0 124 -45q35 -36 35 -102v-146h-204zM157 377v-63h85v63q0 51 -41 51q-44 0 -44 -51z" />
    <glyph glyph-name="f" unicode="f" horiz-adv-x="250" 
d="M184 575v-63h52v-79h-53v-433h-119v433h-53v79h54v90q0 30 10.5 51.5t23 32t34.5 16t34 6t32 0.5q10 0 42 -2v-97q-5 0 -15 1h-11q-31 0 -31 -35z" />
    <glyph glyph-name="g" unicode="g" horiz-adv-x="417" 
d="M253 471v41h119v-530q0 -23 -1 -38t-10 -41.5t-26 -42.5t-52 -29t-84 -13q-44 0 -76 11t-47 24t-23.5 36t-10 35.5t-1.5 33.5h118q0 -20 5 -32q11 -22 41 -22q48 0 48 61v79q-13 -14 -22 -22.5t-31.5 -18t-50.5 -9.5q-35 0 -58.5 11t-34 31.5t-14.5 40t-4 45.5v271
q0 15 2 29.5t11 41t33.5 42.5t61.5 16q24 0 46 -9t33 -17.5t28 -24.5zM156 371v-229q0 -57 47 -57q49 0 49 58v226q0 17 -1.5 27.5t-13 23t-33.5 12.5q-48 0 -48 -61z" />
    <glyph glyph-name="h" unicode="h" horiz-adv-x="417" 
d="M44 0v707h117v-236q15 15 24.5 23.5t32 18.5t47.5 10q16 0 32.5 -5t34.5 -16.5t29 -37.5t11 -62v-402h-118v364q0 19 -1.5 29.5t-12 22t-30.5 11.5q-47 0 -47 -55v-372h-119z" />
    <glyph glyph-name="i" unicode="i" horiz-adv-x="208" 
d="M44 586v121h119v-121h-119zM44 0v512h120v-512h-120z" />
    <glyph glyph-name="j" unicode="j" horiz-adv-x="208" 
d="M45 587v120h119v-120h-119zM45 -13v526h119v-561q0 -79 -32.5 -103.5t-90.5 -24.5q-32 0 -49 3v99q26 -1 37.5 6.5t13.5 18t2 36.5z" />
    <glyph glyph-name="k" unicode="k" 
d="M44 0v706h118v-369l98 175h132l-131 -213l146 -299h-135l-110 261v-261h-118z" />
    <glyph glyph-name="l" unicode="l" horiz-adv-x="208" 
d="M44 0v706h120v-706h-120z" />
    <glyph glyph-name="m" unicode="m" horiz-adv-x="625" 
d="M44 0v512h120v-34q51 44 100 44q56 0 97 -51q19 17 31.5 26t35.5 17t50 8q45 0 74 -29t29 -87v-406h-119v378q0 13 -1 20.5t-4.5 18t-13 16t-24.5 5.5q-47 0 -47 -65v-373h-119v376q0 14 -1 22t-4.5 19.5t-13 17t-25.5 5.5q-46 0 -46 -61v-379h-119z" />
    <glyph glyph-name="n" unicode="n" horiz-adv-x="417" 
d="M44 0v512h121l-2 -38q16 16 26 24t31 16t46 8q53 0 82 -34q24 -27 24 -88v-400h-117v376q0 18 -2 29.5t-11.5 22t-28.5 10.5q-50 0 -50 -69v-369h-119z" />
    <glyph glyph-name="o" unicode="o" 
d="M38 145v229q0 148 162 148q66 0 108 -28q50 -35 50 -115v-246q0 -69 -42.5 -106t-121.5 -37q-37 0 -65.5 8.5t-44.5 24t-26.5 30t-14 35.5t-4.5 31.5t-1 25.5zM157 385v-260q0 -53 41 -53q42 0 42 54v260q0 62 -40 62q-20 0 -30 -12t-11.5 -22.5t-1.5 -28.5z" />
    <glyph glyph-name="p" unicode="p" horiz-adv-x="417" 
d="M44 -176v688h118v-39q57 49 108 49q47 0 79 -34q29 -33 29 -101v-271q0 -49 -17 -77q-27 -49 -88 -49q-23 0 -45.5 9.5t-33 17t-32.5 26.5v-219h-118zM163 374v-230q0 -57 48 -57t48 53v237q0 56 -47 56q-49 0 -49 -59z" />
    <glyph glyph-name="q" unicode="q" horiz-adv-x="417" 
d="M256 476v36h117v-688h-118v220q-19 -19 -31 -28.5t-33.5 -17.5t-46.5 -8q-51 0 -78.5 34.5t-27.5 87.5v279q0 36 11 63t25 39.5t33.5 19.5t29 8t18.5 1q52 0 101 -46zM157 385v-242q0 -55 47 -55q50 0 50 61v236q0 29 -15.5 40t-32.5 11q-25 0 -39 -17q-10 -11 -10 -34z
" />
    <glyph glyph-name="r" unicode="r" horiz-adv-x="292" 
d="M44 0v512h119l-1 -65q13 23 24 37t35.5 26t57.5 11v-118q-24 8 -40 8q-27 0 -44 -10.5t-23.5 -30.5t-8 -33.5t-1.5 -35.5v-301h-118z" />
    <glyph glyph-name="s" unicode="s" horiz-adv-x="375" 
d="M27 126v54h110q0 -63 7 -84t40 -21q46 0 46 56q0 25 -6 38t-29 29l-99 70q-17 12 -33 32q-28 32 -28 91q0 75 41 103.5t113 28.5q146 0 146 -118v-56h-103q0 36 -1.5 51.5t-11 28t-30.5 12.5q-11 0 -19 -2t-15.5 -13t-7.5 -31q0 -32 34 -56l109 -77q6 -4 18 -16.5
t15 -17.5q17 -24 17 -80q0 -22 -1 -34.5t-5 -34.5t-14 -35t-26.5 -27t-45 -20.5t-66.5 -6.5q-88 0 -121.5 37t-33.5 99z" />
    <glyph glyph-name="t" unicode="t" horiz-adv-x="271" 
d="M71 512v185h119v-185h71v-79h-72v-292q0 -29 10.5 -42.5t43.5 -13.5q4 0 10.5 0.5t10.5 0.5v-85q-24 -6 -63 -6q-78 0 -103.5 26t-25.5 81v331h-65v79h64z" />
    <glyph glyph-name="u" unicode="u" horiz-adv-x="417" 
d="M44 126v386h119v-369q0 -13 1 -20.5t4.5 -18.5t13 -16.5t25.5 -5.5t26.5 6t14 18.5t4.5 21t1 22.5v362h120v-512h-120v41q-21 -17 -30 -23.5t-32.5 -16.5t-47.5 -10q-32 0 -60.5 18t-35.5 61q-3 16 -3 56z" />
    <glyph glyph-name="v" unicode="v" horiz-adv-x="354" 
d="M114 0l-113 512h119l53 -355l61 355h119l-123 -512h-116z" />
    <glyph glyph-name="w" unicode="w" horiz-adv-x="562" 
d="M108 0l-104 512h116l54 -338l60 338h97l54 -338l58 338h116l-116 -512h-112l-50 304l-60 -304h-113z" />
    <glyph glyph-name="x" unicode="x" horiz-adv-x="375" 
d="M115 278l-90 234h123l44 -171l46 171h115l-92 -234l110 -278h-128l-58 207l-58 -207h-123z" />
    <glyph glyph-name="y" unicode="y" horiz-adv-x="354" 
d="M134 0l-133 512h118l66 -329l51 329h117l-117 -548q-17 -81 -45 -111t-96 -30q-26 0 -79 9l17 94q22 -7 47 -7q23 0 36.5 20.5t16 38.5t1.5 22z" />
    <glyph glyph-name="z" unicode="z" horiz-adv-x="354" 
d="M43 415v97h282v-97l-178 -315h186v-100h-309v100l179 315h-160z" />
    <glyph glyph-name="braceleft" unicode="{" horiz-adv-x="354" 
d="M38 257v78q33 5 48.5 13.5t26 40t10.5 93.5v91q0 42 1.5 62.5t9.5 47t25 45.5q19 21 49 31.5t53 12t75 2.5v-75q-62 -2 -80.5 -24t-18.5 -94v-70q0 -32 -0.5 -47.5t-2 -41t-5.5 -38t-11 -30t-17.5 -26.5t-26.5 -17t-37 -12v-6q24 -4 42 -13t28.5 -25.5t17 -30.5t9 -41
t3 -44t0.5 -51v-73q0 -75 18 -98t81 -24v-75q-52 1 -75 2.5t-53 12t-49 31.5q-17 19 -25 44.5t-9.5 48t-1.5 71.5v80q0 89 -18 115.5t-67 33.5z" />
    <glyph glyph-name="bar" unicode="|" horiz-adv-x="229" 
d="M154 750v-1000h-80v1000h80z" />
    <glyph glyph-name="braceright" unicode="}" horiz-adv-x="354" 
d="M316 335v-78q-33 -5 -48.5 -13.5t-26 -40t-10.5 -93.5v-91q0 -42 -1.5 -62.5t-9.5 -47t-25 -45.5q-19 -21 -49 -31.5t-53 -12t-75 -2.5v75q62 2 80.5 24t18.5 94v70q0 32 0.5 47.5t2 41t5.5 38t11 30t17.5 26.5t26.5 17t37 12v6q-24 4 -42 13t-28.5 25.5t-17 30.5t-9 41
t-3 44t-0.5 51v73q0 75 -18 98t-81 24v75q52 -1 75 -2.5t53 -12t49 -31.5q17 -19 25 -44.5t9.5 -48t1.5 -71.5v-80q0 -89 17.5 -115.5t67.5 -33.5z" />
    <glyph glyph-name="asciitilde" unicode="~" horiz-adv-x="729" 
d="M567 366l38 -72q-62 -79 -137 -79q-34 0 -99 31q-79 39 -110 39q-27 0 -43.5 -12.5t-51.5 -54.5l-40 71l21 27t26 26t39 23t47 8q38 0 111 -33q76 -36 102 -36q48 0 97 62z" />
    <glyph glyph-name="exclamdown" unicode="&#xa1;" horiz-adv-x="229" 
d="M151 319v-319h-113v313l19 203h78zM154 706v-132h-119v132h119z" />
    <glyph glyph-name="cent" unicode="&#xa2;" 
d="M367 317h-118v63q0 55 -45 55q-22 0 -33.5 -12.5t-13 -23.5t-1.5 -28v-234q0 -59 49 -59q13 0 21.5 4t13 9.5t6.5 14.5t2.5 14.5t0.5 14.5v68h117v-67q0 -139 -136 -148v-99h-50v99q-58 8 -87 28q-54 36 -54 120v242q0 65 36 100q34 35 105 43v83h50v-83q58 -7 88 -27
q49 -32 49 -111v-66z" />
    <glyph glyph-name="sterling" unicode="&#xa3;" horiz-adv-x="479" 
d="M432 480h-115q0 72 -4 86q-11 41 -52 41q-62 0 -62 -91q0 -34 9 -65q7 -30 43 -112h106v-61h-85q9 -27 9 -53q0 -47 -30 -119q42 -25 63 -25q41 0 41 62l2 54h100v-75q0 -68 -30.5 -101t-82.5 -33q-56 0 -133 51q-51 -51 -101 -51q-35 0 -61.5 22t-26.5 61q0 41 27 63.5
t61 22.5q21 0 75 -19q9 20 9 35q0 37 -36 105h-112v61h86q-19 42 -27.5 63t-16 55.5t-7.5 68.5q0 97 57 140q47 37 117 37q27 0 51.5 -5.5t56 -21.5t50.5 -53.5t19 -93.5v-49zM149 73q-24 21 -44 21q-10 0 -18 -7t-8 -19q0 -10 7.5 -17t18.5 -7t18.5 5t25.5 24z" />
    <glyph glyph-name="currency" unicode="&#xa4;" horiz-adv-x="667" 
d="M624 570l-75 -75q18 -30 26 -45t16 -44t8 -64q0 -38 -8 -69t-16.5 -46.5t-26.5 -43.5l76 -77l-61 -59l-75 76q-29 -18 -45.5 -26.5t-46 -16t-65.5 -7.5q-35 0 -65.5 8.5t-46.5 17t-41 25.5l-76 -76l-60 60l76 75q-18 28 -26.5 43.5t-16.5 46t-8 67.5q0 85 51 155l-75 75
l60 60l75 -75q74 51 155 51q36 0 66 -8t45.5 -16.5t43.5 -26.5l76 75zM519 340q0 86 -56.5 137t-125.5 51q-84 0 -137 -54.5t-53 -130.5q0 -88 56.5 -140t127.5 -52q81 0 134.5 54t53.5 135z" />
    <glyph glyph-name="yen" unicode="&#xa5;" horiz-adv-x="417" 
d="M103 352l-91 314h133l63 -317l60 317h136l-91 -314h80v-74h-100l-17 -57h117v-71h-120v-150h-131v150h-120v71h118l-16 57h-102v74h81z" />
    <glyph glyph-name="brokenbar" unicode="&#xa6;" horiz-adv-x="229" 
d="M75 -175v350h80v-350h-80zM155 325h-80v350h80v-350z" />
    <glyph glyph-name="section" unicode="&#xa7;" horiz-adv-x="437" 
d="M393 581v-69h-114v57q0 13 -1 21t-6 18.5t-16.5 16t-30.5 5.5q-49 0 -49 -54q0 -26 11.5 -41.5t52.5 -50.5l119 -103q62 -53 62 -121q0 -32 -12 -60t-25.5 -44.5t-41.5 -45.5q20 -21 27.5 -32.5t13.5 -36t6 -64.5q0 -81 -48 -119q-43 -33 -125 -33q-53 0 -95 17
q-76 32 -76 123v85h116v-53q0 -21 1 -31t5.5 -23.5t16.5 -19.5t31 -6q51 0 51 55q0 38 -7.5 53t-46.5 48l-126 107q-72 61 -72 131q0 39 19 69.5t62 76.5q-16 19 -22.5 28.5t-11 27t-4.5 42.5q0 19 0.5 30t4 30.5t9.5 31.5t18.5 27t30 23.5t45.5 14.5t63 6q34 0 61 -5.5
t44 -13.5t29 -21t18 -23.5t9 -27t3.5 -24.5t0.5 -22zM282 170q34 39 34 64q0 33 -65 87l-47.5 39t-49.5 41q-32 -43 -32 -67q0 -15 5.5 -26t42 -45t112.5 -93z" />
    <glyph glyph-name="dieresis" unicode="&#xa8;" horiz-adv-x="250" 
d="M-26 602v124h119v-124h-119zM157 602v124h119v-124h-119z" />
    <glyph glyph-name="copyright" unicode="&#xa9;" horiz-adv-x="833" 
d="M557 258l56 -49q-76 -91 -188 -91q-107 0 -172.5 68.5t-65.5 165.5q0 105 67.5 172.5t168.5 67.5q50 0 92 -17.5t58.5 -32.5t39.5 -40l-56 -53q-22 22 -35 33.5t-40 23t-58 11.5q-64 0 -111.5 -44t-47.5 -120q0 -71 47 -115.5t112 -44.5q34 0 63.5 13t41 23.5t28.5 28.5z
M772 352q0 -146 -102 -250.5t-254 -104.5q-145 0 -250 101t-105 256q0 150 104 252.5t251 102.5q151 0 253.5 -103t102.5 -254zM740 352q0 137 -92.5 231t-229.5 94t-231 -95t-94 -228q0 -138 95 -231.5t229 -93.5q136 0 229.5 94.5t93.5 228.5z" />
    <glyph glyph-name="ordfeminine" unicode="&#xaa;" horiz-adv-x="229" 
d="M88 617h-61q0 40 4 51q15 45 79 45q20 0 37.5 -4t35 -20t17.5 -43v-174q0 -37 11 -52h-69q-6 10 -8 26q-9 -10 -14.5 -15.5t-15.5 -9.5t-24 -4q-21 0 -33.5 7t-17.5 22t-6 26t-1 33q0 42 16 57.5t95 52.5q0 32 -3 40.5t-19 8.5t-19.5 -10t-3.5 -37zM132 483v79
q-35 -24 -37 -27q-8 -7 -8 -33q0 -20 3 -27.5t13 -7.5q13 0 29 16z" />
    <glyph glyph-name="guillemotleft" unicode="&#xab;" horiz-adv-x="313" 
d="M278 226v-99l-102 94v94l102 94v-97l-42 -45zM133 227v-100l-102 93v92l102 97v-97l-40 -45z" />
    <glyph glyph-name="logicalnot" unicode="&#xac;" horiz-adv-x="667" 
d="M587 0v252h-587v79h667v-331h-80z" />
    <glyph glyph-name="registered" unicode="&#xae;" horiz-adv-x="833" 
d="M266 580h146q75 0 105 -11q35 -12 53.5 -41t18.5 -63q0 -83 -92 -106q31 -13 44.5 -34t19.5 -60q14 -93 34 -134h-91q-12 24 -24 98q-11 72 -31 88t-103 16v-202h-80v449zM347 518v-121h66q18 0 29.5 1t29.5 6.5t27.5 19t9.5 35.5q0 38 -32 53q-16 6 -79 6h-51zM773 352
q0 -145 -102 -250t-255 -105q-143 0 -249 101t-106 255q0 151 104.5 253.5t250.5 102.5q150 0 253.5 -103t103.5 -254zM741 352q0 136 -93 230.5t-232 94.5q-133 0 -228 -94t-95 -230t95 -230t229 -94q138 0 231 95.5t93 227.5z" />
    <glyph glyph-name="macron" unicode="&#xaf;" horiz-adv-x="250" 
d="M-8 590v81h266v-81h-266z" />
    <glyph glyph-name="macron" unicode="&#x2c9;" horiz-adv-x="250" 
d="M-8 590v81h266v-81h-266z" />
    <glyph glyph-name="degree" unicode="&#xb0;" horiz-adv-x="354" 
d="M177 755q67 0 114 -47.5t47 -113.5q0 -67 -47 -114t-114 -47t-114.5 47t-47.5 114t47.5 114t114.5 47zM177 675q-33 0 -56 -23t-23 -56t23 -56t56 -23t56 23t23 56t-23.5 56t-55.5 23z" />
    <glyph glyph-name="plusminus" unicode="&#xb1;" horiz-adv-x="500" 
d="M291 342v-181h-79v181h-181v79h181v179h79v-179h178v-79h-178zM469 79v-79h-438v79h438z" />
    <glyph glyph-name="twosuperior" unicode="&#xb2;" horiz-adv-x="292" 
d="M106 568v-55h-76v56q0 53 32 78q29 24 83 24q68 0 98 -35q21 -24 21 -62v-58q0 -35 -13 -56t-57 -60q-58 -54 -70 -68.5t-14 -37.5h159v-70h-248q0 78 20.5 117t67.5 81q55 50 65 63t10 37v50q0 36 -36 36q-25 0 -33.5 -10.5t-8.5 -29.5z" />
    <glyph glyph-name="threesuperior" unicode="&#xb3;" horiz-adv-x="292" 
d="M106 577v-47h-77v56q0 29 15 48.5t39.5 26.5t38 8.5t26.5 1.5q46 0 81 -20.5t35 -69.5v-51q0 -18 -2 -28.5t-14 -22.5t-36 -17q33 -6 43.5 -22t10.5 -54v-66q0 -30 -12 -51.5t-31.5 -32t-38 -14.5t-38.5 -4q-56 0 -88.5 25.5t-32.5 66.5v55h80v-48q0 -10 1 -16t10.5 -13
t26.5 -7q25 0 33.5 8t8.5 25v65q0 37 -15 44.5t-71 7.5v56q52 0 68 7.5t16 43.5v43q-3 26 -38 26q-6 0 -16 -2q-23 -5 -23 -28z" />
    <glyph glyph-name="acute" unicode="&#xb4;" horiz-adv-x="250" 
d="M14 591l65 134h156l-127 -134h-94z" />
    <glyph glyph-name="mu" unicode="&#xb5;" horiz-adv-x="417" 
d="M253 150v362h120v-512h-120v41q-20 -43 -53 -43q-19 0 -37 16v-190h-119v688h119v-385q0 -9 2.5 -17.5t13.5 -18t29 -9.5q21 0 31.5 13t12 24t1.5 31z" />
    <glyph glyph-name="mu" unicode="&#x3bc;" horiz-adv-x="417" 
d="M253 150v362h120v-512h-120v41q-20 -43 -53 -43q-19 0 -37 16v-190h-119v688h119v-385q0 -9 2.5 -17.5t13.5 -18t29 -9.5q21 0 31.5 13t12 24t1.5 31z" />
    <glyph glyph-name="paragraph" unicode="&#xb6;" horiz-adv-x="667" 
d="M309 706h230v-54h-34v-818h-58v818h-145v-818h-57v485q-25 5 -38.5 9t-33 15t-35.5 28q-51 52 -51 135q0 20 3.5 40.5t17 51t36 53t65.5 39t100 16.5z" />
    <glyph glyph-name="periodcentered" unicode="&#xb7;" horiz-adv-x="187" 
d="M35 216v129h118v-129h-118z" />
    <glyph glyph-name="periodcentered" unicode="&#x2219;" horiz-adv-x="187" 
d="M35 216v129h118v-129h-118z" />
    <glyph glyph-name="cedilla" unicode="&#xb8;" horiz-adv-x="250" 
d="M75 -96v123q3 0 11 -0.5t11 -0.5t10.5 0.5t10.5 0.5v-79q106 0 107 -68q0 -23 -12.5 -39t-32.5 -22.5t-36.5 -9t-33.5 -2.5q-46 0 -85 10v30q22 -2 38 -2q48 0 48 30q0 23 -36 29z" />
    <glyph glyph-name="onesuperior" unicode="&#xb9;" horiz-adv-x="292" 
d="M40 529v66q62 14 104 70h55v-441h-81v332q-20 -16 -78 -27z" />
    <glyph glyph-name="ordmasculine" unicode="&#xba;" horiz-adv-x="229" 
d="M25 505v126q0 26 8 42q19 39 84 39q30 0 49.5 -9t27 -25t9 -26t1.5 -23v-129q0 -19 -5 -36q-18 -47 -85 -47q-24 0 -42 7t-26.5 16t-13.5 22.5t-6 22.5t-1 20zM136 497v138q0 35 -22 35q-21 0 -21 -34v-138q0 -33 21 -33q22 0 22 32z" />
    <glyph glyph-name="guillemotright" unicode="&#xbb;" horiz-adv-x="313" 
d="M35 310v99l102 -94v-94l-102 -94v97l42 45zM179 309v100l102 -93v-92l-102 -97v97l40 45z" />
    <glyph glyph-name="onequarter" unicode="&#xbc;" horiz-adv-x="708" 
d="M40 529v66q64 15 104 71h55v-442h-81v332q-24 -17 -78 -27zM190 -23l266 738l63 -23l-266 -736zM437 147l127 297h95v-295h26v-66h-26v-83h-75v83h-147v64zM507 149h77l4 200z" />
    <glyph glyph-name="onehalf" unicode="&#xbd;" horiz-adv-x="708" 
d="M40 529v65q64 15 104 71h55v-442h-81v333q-22 -18 -78 -27zM173 -23l265 737l63 -23l-265 -736zM522 344v-55h-76v56q0 53 32 78q29 24 84 24q68 0 98 -35q21 -24 21 -62v-58q0 -35 -13 -56t-57 -60q-59 -54 -71 -68.5t-14 -37.5h160v-70h-249q0 78 20.5 117t67.5 81
q56 50 66 63t10 37v50q0 36 -36 36q-25 0 -34 -10.5t-9 -29.5z" />
    <glyph glyph-name="threequarters" unicode="&#xbe;" horiz-adv-x="708" 
d="M106 577v-47h-77v56q0 29 15 48.5t39.5 26.5t38 8.5t26.5 1.5q46 0 81 -20.5t35 -69.5v-51q0 -18 -2 -28.5t-14 -22.5t-36 -17q33 -6 43.5 -22t10.5 -54v-66q0 -30 -12 -51.5t-31.5 -32t-38 -14.5t-38.5 -4q-56 0 -88.5 25.5t-32.5 66.5v55h80v-48q0 -10 1 -16t10.5 -13
t26.5 -7q25 0 33.5 8t8.5 25v65q0 37 -15 44.5t-71 7.5v56q52 0 68 7.5t16 43.5v43q-3 26 -38 26q-6 0 -16 -2q-23 -5 -23 -28zM217 -23l265 737l63 -22l-265 -736zM437 147l127 296h95v-294h26v-66h-26v-83h-75v83h-147v64zM507 149h77l4 199z" />
    <glyph glyph-name="questiondown" unicode="&#xbf;" horiz-adv-x="417" 
d="M240 243h111v-74q0 -27 -1 -41.5t-5 -39.5t-14.5 -39t-27.5 -29t-46.5 -22t-68.5 -7q-46 0 -78 11t-47.5 24.5t-24 38t-9.5 39.5t-1 41q0 73 6.5 96.5t33.5 64.5l50 72q32 47 38 65.5t6 72.5h113q0 -67 -4.5 -87.5t-30.5 -60.5l-66 -102q-20 -31 -24 -43t-4 -39v-51
q0 -34 11 -47.5t33 -13.5q12 0 21 2t19 15t10 37v117zM275 706v-130h-117v130h117z" />
    <glyph glyph-name="Agrave" unicode="&#xc0;" horiz-adv-x="437" 
d="M10 0l137 706h149l132 -706h-132l-17 115h-120l-19 -115h-130zM222 527l-47 -303h90zM197 763l-133 132h153l66 -132h-86z" />
    <glyph glyph-name="Aacute" unicode="&#xc1;" horiz-adv-x="437" 
d="M10 0l137 706h149l132 -706h-132l-17 115h-120l-19 -115h-130zM222 527l-47 -303h90zM157 763l63 134h156l-127 -134h-92z" />
    <glyph glyph-name="Acircumflex" unicode="&#xc2;" horiz-adv-x="437" 
d="M10 0l137 706h149l132 -706h-132l-17 115h-120l-19 -115h-130zM222 527l-47 -303h90zM67 763l86 132h129l86 -132h-105l-44 72l-48 -72h-104z" />
    <glyph glyph-name="Atilde" unicode="&#xc3;" horiz-adv-x="437" 
d="M10 0l137 706h149l132 -706h-132l-17 115h-120l-19 -115h-130zM222 527l-47 -303h90zM121 762h-65q2 68 31 98q26 28 66 28q27 0 90 -27q37 -16 49 -16q25 0 32 41h64q-1 -24 -3 -40t-9.5 -39t-26 -35.5t-46.5 -12.5q-23 0 -91 28q-39 16 -47 16q-32 0 -44 -41z" />
    <glyph glyph-name="Adieresis" unicode="&#xc4;" horiz-adv-x="437" 
d="M10 0l137 706h149l132 -706h-132l-17 115h-120l-19 -115h-130zM222 527l-47 -303h90zM69 763v121h117v-121h-117zM270 763v122h117v-122h-117z" />
    <glyph glyph-name="Aring" unicode="&#xc5;" horiz-adv-x="437" 
d="M10 0l137 706h149l132 -706h-132l-17 115h-120l-19 -115h-130zM222 527l-47 -303h90zM225 919q37 0 63.5 -26t26.5 -64q0 -36 -26.5 -62.5t-63.5 -26.5t-63 26t-26 63q0 38 26.5 64t62.5 26zM225 869q-17 0 -29 -12t-12 -29t12 -29t29 -12t29 12t12 29t-12 29t-29 12z
" />
    <glyph glyph-name="AE" unicode="&#xc6;" horiz-adv-x="708" 
d="M3 0l262 706h420v-110h-225v-162h212v-106h-212v-219h226v-109h-356v146h-138l-49 -146h-140zM330 553l-103 -300h103v300z" />
    <glyph glyph-name="Ccedilla" unicode="&#xc7;" horiz-adv-x="458" 
d="M430 448h-129v90q0 43 -12.5 63t-52.5 20q-35 0 -48 -19t-13 -58v-378q0 -16 1 -25.5t6.5 -24.5t19.5 -22.5t36 -7.5q18 0 30.5 5.5t19 12t9.5 20t3.5 22.5t0.5 27v92h129v-100q0 -50 -9 -79.5t-33 -52.5q-42 -40 -132 -47v-41q106 0 107 -68q0 -23 -12.5 -39
t-32.5 -22.5t-36.5 -9t-33.5 -2.5q-46 0 -85 10v30q22 -2 38 -2q48 0 48 30q0 23 -36 29v86q-99 10 -134 49.5t-35 113.5l1 384q0 33 1 49.5t9.5 40t24.5 41.5q51 56 158 56q55 0 93.5 -13t57 -29.5t28.5 -43t11.5 -41t1.5 -37.5v-109z" />
    <glyph glyph-name="Egrave" unicode="&#xc8;" horiz-adv-x="417" 
d="M50 0v707h342v-108h-212v-166h199v-107h-199v-217h221v-109h-351zM186 763l-133 132h153l66 -132h-86z" />
    <glyph glyph-name="Eacute" unicode="&#xc9;" horiz-adv-x="417" 
d="M50 0v707h342v-108h-212v-166h199v-107h-199v-217h221v-109h-351zM146 763l63 134h156l-127 -134h-92z" />
    <glyph glyph-name="Ecircumflex" unicode="&#xca;" horiz-adv-x="417" 
d="M50 0v707h342v-108h-212v-166h199v-107h-199v-217h221v-109h-351zM56 763l86 132h129l86 -132h-105l-44 72l-48 -72h-104z" />
    <glyph glyph-name="Edieresis" unicode="&#xcb;" horiz-adv-x="417" 
d="M50 0v707h342v-108h-212v-166h199v-107h-199v-217h221v-109h-351zM67 763v121h117v-121h-117zM268 763v122h117v-122h-117z" />
    <glyph glyph-name="Igrave" unicode="&#xcc;" horiz-adv-x="229" 
d="M50 0v706h129v-706h-129zM93 763l-133 132h153l66 -132h-86z" />
    <glyph glyph-name="Iacute" unicode="&#xcd;" horiz-adv-x="229" 
d="M50 0v706h129v-706h-129zM53 763l63 134h156l-127 -134h-92z" />
    <glyph glyph-name="Icircumflex" unicode="&#xce;" horiz-adv-x="229" 
d="M50 0v706h129v-706h-129zM-37 763l86 132h129l86 -132h-105l-44 72l-48 -72h-104z" />
    <glyph glyph-name="Idieresis" unicode="&#xcf;" horiz-adv-x="229" 
d="M50 0v706h129v-706h-129zM-44 763v121h117v-121h-117zM157 763v122h117v-122h-117z" />
    <glyph glyph-name="Eth" unicode="&#xd0;" horiz-adv-x="479" 
d="M50 407v299h210q29 0 46 -1.5t43.5 -12t46.5 -30.5q42 -43 42 -142v-330q0 -43 -5.5 -72t-22 -58.5t-54.5 -44.5t-97 -15h-209v334h-50v73h50zM180 334v-231q72 0 82 2q17 3 27 10.5t14 20.5t5 21t1 22v352q0 45 -16.5 58.5t-61.5 13.5h-51v-196h78v-73h-78z" />
    <glyph glyph-name="Ntilde" unicode="&#xd1;" horiz-adv-x="500" 
d="M450 706v-706h-164l-126 529l12 -529h-122v706h167l127 -518l-13 518h119zM152 762h-65q2 68 31 98q26 28 66 28q27 0 90 -27q37 -16 49 -16q25 0 32 41h64q-1 -24 -3 -40t-9.5 -39t-26 -35.5t-46.5 -12.5q-23 0 -91 28q-39 16 -47 16q-32 0 -44 -41z" />
    <glyph glyph-name="Ograve" unicode="&#xd2;" horiz-adv-x="479" 
d="M435 543v-392q0 -78 -38 -116q-48 -50 -155 -50q-110 0 -154 44.5t-44 121.5v395q0 82 37 121q50 54 160 54q93 0 147 -44q26 -22 36.5 -52t10.5 -82zM304 170v364q0 19 -1 30t-6.5 27t-19.5 23.5t-36 7.5q-19 0 -32.5 -6.5t-20 -14.5t-10 -23t-4 -24t-0.5 -25v-356
q0 -26 2.5 -41.5t18 -30t45.5 -14.5q23 0 37 7.5t19.5 22.5t6.5 25t1 28zM217 763l-133 132h153l66 -132h-86z" />
    <glyph glyph-name="Oacute" unicode="&#xd3;" horiz-adv-x="479" 
d="M435 543v-392q0 -78 -38 -116q-48 -50 -155 -50q-110 0 -154 44.5t-44 121.5v395q0 82 37 121q50 54 160 54q93 0 147 -44q26 -22 36.5 -52t10.5 -82zM304 170v364q0 19 -1 30t-6.5 27t-19.5 23.5t-36 7.5q-19 0 -32.5 -6.5t-20 -14.5t-10 -23t-4 -24t-0.5 -25v-356
q0 -26 2.5 -41.5t18 -30t45.5 -14.5q23 0 37 7.5t19.5 22.5t6.5 25t1 28zM177 763l63 134h156l-127 -134h-92z" />
    <glyph glyph-name="Ocircumflex" unicode="&#xd4;" horiz-adv-x="479" 
d="M435 543v-392q0 -78 -38 -116q-48 -50 -155 -50q-110 0 -154 44.5t-44 121.5v395q0 82 37 121q50 54 160 54q93 0 147 -44q26 -22 36.5 -52t10.5 -82zM304 170v364q0 19 -1 30t-6.5 27t-19.5 23.5t-36 7.5q-19 0 -32.5 -6.5t-20 -14.5t-10 -23t-4 -24t-0.5 -25v-356
q0 -26 2.5 -41.5t18 -30t45.5 -14.5q23 0 37 7.5t19.5 22.5t6.5 25t1 28zM87 763l86 132h129l86 -132h-105l-44 72l-48 -72h-104z" />
    <glyph glyph-name="Otilde" unicode="&#xd5;" horiz-adv-x="479" 
d="M435 543v-392q0 -78 -38 -116q-48 -50 -155 -50q-110 0 -154 44.5t-44 121.5v395q0 82 37 121q50 54 160 54q93 0 147 -44q26 -22 36.5 -52t10.5 -82zM304 170v364q0 19 -1 30t-6.5 27t-19.5 23.5t-36 7.5q-19 0 -32.5 -6.5t-20 -14.5t-10 -23t-4 -24t-0.5 -25v-356
q0 -26 2.5 -41.5t18 -30t45.5 -14.5q23 0 37 7.5t19.5 22.5t6.5 25t1 28zM141 762h-65q2 68 31 98q26 28 66 28q27 0 90 -27q37 -16 49 -16q25 0 32 41h64q-1 -24 -3 -40t-9.5 -39t-26 -35.5t-46.5 -12.5q-23 0 -91 28q-39 16 -47 16q-32 0 -44 -41z" />
    <glyph glyph-name="Odieresis" unicode="&#xd6;" horiz-adv-x="479" 
d="M435 543v-392q0 -78 -38 -116q-48 -50 -155 -50q-110 0 -154 44.5t-44 121.5v395q0 82 37 121q50 54 160 54q93 0 147 -44q26 -22 36.5 -52t10.5 -82zM304 170v364q0 19 -1 30t-6.5 27t-19.5 23.5t-36 7.5q-19 0 -32.5 -6.5t-20 -14.5t-10 -23t-4 -24t-0.5 -25v-356
q0 -26 2.5 -41.5t18 -30t45.5 -14.5q23 0 37 7.5t19.5 22.5t6.5 25t1 28zM83 763v121h117v-121h-117zM284 763v122h117v-122h-117z" />
    <glyph glyph-name="multiply" unicode="&#xd7;" horiz-adv-x="500" 
d="M307 293l150 -152l-56 -56l-150 150l-152 -150l-56 56l152 152l-152 150l56 55l152 -150l150 150l56 -55z" />
    <glyph glyph-name="Oslash" unicode="&#xd8;" horiz-adv-x="479" 
d="M370 683l19 38l58 -29l-33 -64q19 -32 19 -72v-403q0 -41 -13.5 -73t-33.5 -49t-47 -28t-49 -14.5t-44 -3.5q-78 0 -134 43l-20 -39l-59 31l32 62q-19 38 -19 76v395q0 23 1.5 37.5t14 40t36.5 45.5q51 45 137 45q81 0 135 -38zM178 532v-228l125 241q0 12 -0.5 19
t-3.5 19t-8.5 18.5t-17.5 12t-29 5.5q-31 0 -46.5 -15.5t-17.5 -30t-2 -41.5zM303 402l-125 -241q0 -15 1 -24t6 -22t18.5 -19.5t34.5 -6.5q23 0 37 7.5t19.5 21.5t7 24.5t1.5 27.5v232z" />
    <glyph glyph-name="Ugrave" unicode="&#xd9;" horiz-adv-x="479" 
d="M48 162v544h131v-525q0 -20 1 -30.5t6.5 -25.5t18.5 -22t35 -7q21 0 34.5 7t18.5 22t6 26t1 31v524h131v-547q0 -174 -194 -174q-92 0 -140.5 45t-48.5 132zM217 763l-133 132h153l66 -132h-86z" />
    <glyph glyph-name="Uacute" unicode="&#xda;" horiz-adv-x="479" 
d="M48 162v544h131v-525q0 -20 1 -30.5t6.5 -25.5t18.5 -22t35 -7q21 0 34.5 7t18.5 22t6 26t1 31v524h131v-547q0 -174 -194 -174q-92 0 -140.5 45t-48.5 132zM177 763l63 134h156l-127 -134h-92z" />
    <glyph glyph-name="Ucircumflex" unicode="&#xdb;" horiz-adv-x="479" 
d="M48 162v544h131v-525q0 -20 1 -30.5t6.5 -25.5t18.5 -22t35 -7q21 0 34.5 7t18.5 22t6 26t1 31v524h131v-547q0 -174 -194 -174q-92 0 -140.5 45t-48.5 132zM87 763l86 132h129l86 -132h-105l-44 72l-48 -72h-104z" />
    <glyph glyph-name="Udieresis" unicode="&#xdc;" horiz-adv-x="479" 
d="M48 162v544h131v-525q0 -20 1 -30.5t6.5 -25.5t18.5 -22t35 -7q21 0 34.5 7t18.5 22t6 26t1 31v524h131v-547q0 -174 -194 -174q-92 0 -140.5 45t-48.5 132zM84 763v121h117v-121h-117zM285 763v122h117v-122h-117z" />
    <glyph glyph-name="Yacute" unicode="&#xdd;" horiz-adv-x="417" 
d="M143 217l-141 489h137l71 -356l69 356h137l-141 -497v-209h-132v217zM146 763l63 134h156l-127 -134h-92z" />
    <glyph glyph-name="Thorn" unicode="&#xde;" horiz-adv-x="458" 
d="M50 0v707h131v-118h131q34 0 58 -11t35.5 -25t17.5 -39.5t7 -41t1 -43.5v-92q0 -48 -4 -74t-18 -48t-42 -30.5t-76 -8.5h-110v-176h-131zM181 484v-207h63q37 0 48 11.5t11 51.5v72q0 22 -1 32t-6 21t-17.5 15t-33.5 4h-64z" />
    <glyph glyph-name="germandbls" unicode="&#xdf;" horiz-adv-x="417" 
d="M163 0h-119v589q0 19 1 31t9 33.5t23 34.5t46 23t75 10q83 0 122.5 -30.5t39.5 -97.5v-64q0 -56 -13 -71t-58 -25q61 -10 77 -31t16 -90v-196q0 -125 -123 -125q-24 0 -69 9v69q10 -1 30 -1q15 0 24.5 5t13 15.5t4.5 18t1 20.5v183q0 42 -13.5 55t-63.5 13v81q23 0 32 1
t19.5 6t13.5 16.5t3 31.5v73q0 49 -45 49q-20 0 -31 -6.5t-13 -15t-2 -23.5v-591z" />
    <glyph glyph-name="agrave" unicode="&#xe0;" 
d="M151 354h-109q0 64 4 87t24 43q39 39 130 39q54 0 91 -19q61 -31 61 -94v-285q0 -64 3.5 -88.5t19.5 -36.5h-125q-13 14 -14 45q-16 -19 -26.5 -28.5t-31 -18.5t-45.5 -9q-29 0 -49.5 10.5t-30 24t-15 36.5t-6 36t-0.5 34q0 75 11.5 103t66.5 55l124 62q0 52 -1 57
q-3 34 -41 34q-29 0 -35 -17t-6 -70zM233 108v150l-58 -38q-17 -12 -22 -28.5t-5 -56.5q0 -30 6 -43t22 -13q23 0 57 29zM176 574l-133 132h153l66 -132h-86z" />
    <glyph glyph-name="aacute" unicode="&#xe1;" 
d="M151 354h-109q0 64 4 87t24 43q39 39 130 39q54 0 91 -19q61 -31 61 -94v-285q0 -64 3.5 -88.5t19.5 -36.5h-125q-13 14 -14 45q-16 -19 -26.5 -28.5t-31 -18.5t-45.5 -9q-29 0 -49.5 10.5t-30 24t-15 36.5t-6 36t-0.5 34q0 75 11.5 103t66.5 55l124 62q0 52 -1 57
q-3 34 -41 34q-29 0 -35 -17t-6 -70zM233 108v150l-58 -38q-17 -12 -22 -28.5t-5 -56.5q0 -30 6 -43t22 -13q23 0 57 29zM135 591l65 134h156l-127 -134h-94z" />
    <glyph glyph-name="acircumflex" unicode="&#xe2;" 
d="M151 354h-109q0 64 4 87t24 43q39 39 130 39q54 0 91 -19q61 -31 61 -94v-285q0 -64 3.5 -88.5t19.5 -36.5h-125q-13 14 -14 45q-16 -19 -26.5 -28.5t-31 -18.5t-45.5 -9q-29 0 -49.5 10.5t-30 24t-15 36.5t-6 36t-0.5 34q0 75 11.5 103t66.5 55l124 62q0 52 -1 57
q-3 34 -41 34q-29 0 -35 -17t-6 -70zM233 108v150l-58 -38q-17 -12 -22 -28.5t-5 -56.5q0 -30 6 -43t22 -13q23 0 57 29zM46 574l86 132h129l86 -132h-105l-44 72l-48 -72h-104z" />
    <glyph glyph-name="atilde" unicode="&#xe3;" 
d="M151 354h-109q0 64 4 87t24 43q39 39 130 39q54 0 91 -19q61 -31 61 -94v-285q0 -64 3.5 -88.5t19.5 -36.5h-125q-13 14 -14 45q-16 -19 -26.5 -28.5t-31 -18.5t-45.5 -9q-29 0 -49.5 10.5t-30 24t-15 36.5t-6 36t-0.5 34q0 75 11.5 103t66.5 55l124 62q0 52 -1 57
q-3 34 -41 34q-29 0 -35 -17t-6 -70zM233 108v150l-58 -38q-17 -12 -22 -28.5t-5 -56.5q0 -30 6 -43t22 -13q23 0 57 29zM100 574h-65q2 68 31 98q26 28 66 28q27 0 90 -27q37 -16 49 -16q25 0 32 41h64q-1 -24 -3 -40t-9.5 -39t-26 -35.5t-46.5 -12.5q-23 0 -91 28
q-39 16 -47 16q-32 0 -44 -41z" />
    <glyph glyph-name="adieresis" unicode="&#xe4;" 
d="M151 354h-109q0 64 4 87t24 43q39 39 130 39q54 0 91 -19q61 -31 61 -94v-285q0 -64 3.5 -88.5t19.5 -36.5h-125q-13 14 -14 45q-16 -19 -26.5 -28.5t-31 -18.5t-45.5 -9q-29 0 -49.5 10.5t-30 24t-15 36.5t-6 36t-0.5 34q0 75 11.5 103t66.5 55l124 62q0 52 -1 57
q-3 34 -41 34q-29 0 -35 -17t-6 -70zM233 108v150l-58 -38q-17 -12 -22 -28.5t-5 -56.5q0 -30 6 -43t22 -13q23 0 57 29zM46 595v124h119v-124h-119zM229 595v124h119v-124h-119z" />
    <glyph glyph-name="aring" unicode="&#xe5;" 
d="M151 354h-109q0 64 4 87t24 43q39 39 130 39q54 0 91 -19q61 -31 61 -94v-285q0 -64 3.5 -88.5t19.5 -36.5h-125q-13 14 -14 45q-16 -19 -26.5 -28.5t-31 -18.5t-45.5 -9q-29 0 -49.5 10.5t-30 24t-15 36.5t-6 36t-0.5 34q0 75 11.5 103t66.5 55l124 62q0 52 -1 57
q-3 34 -41 34q-29 0 -35 -17t-6 -70zM233 108v150l-58 -38q-17 -12 -22 -28.5t-5 -56.5q0 -30 6 -43t22 -13q23 0 57 29zM202 751q37 0 63.5 -26t26.5 -64q0 -36 -26.5 -62.5t-63.5 -26.5t-63 26t-26 63q0 38 26.5 64t62.5 26zM202 701q-17 0 -29 -12t-12 -29t12 -29t29 -12
t29 12t12 29t-12 29t-29 12z" />
    <glyph glyph-name="ae" unicode="&#xe6;" horiz-adv-x="604" 
d="M42 349v56q0 48 27 78q36 40 110 40q67 0 122 -30q27 16 45 19q33 10 72 10q65 0 108.5 -37.5t43.5 -102.5v-153h-212v-90q0 -17 1.5 -26.5t12.5 -20t32 -10.5q26 0 37 15q6 8 7.5 19.5t1.5 53.5h119v-47q0 -67 -48 -103q-40 -30 -111 -30q-62 0 -124 41
q-67 -41 -128 -41q-63 0 -97 32q-20 19 -25 45.5t-5 82.5q0 30 1.5 44.5t10 34.5t28.5 35t54 29l114 47q0 48 -1 55q-5 35 -43 35q-27 0 -40 -20q-6 -11 -6 -61h-107zM358 375v-66h92v63q0 15 -1.5 24.5t-12 20.5t-31.5 11q-47 0 -47 -53zM239 108v143q-56 -24 -75.5 -42
t-19.5 -62q0 -13 1 -21t4.5 -20t13 -18.5t24.5 -6.5q28 0 52 27z" />
    <glyph glyph-name="ccedilla" unicode="&#xe7;" 
d="M367 318h-118v62q0 57 -44 57q-17 0 -28 -6.5t-15 -19.5t-5 -21.5t-1 -22.5v-222q0 -13 1 -21t5 -20.5t14 -19t27 -6.5q46 0 46 66v59h118v-58q0 -40 -11.5 -70t-27 -45t-39 -24.5t-37.5 -11.5t-34 -3v-46q106 0 107 -68q0 -23 -12.5 -39t-32.5 -22.5t-36.5 -9
t-33.5 -2.5q-46 0 -85 10v30q22 -2 38 -2q48 0 48 30q0 23 -36 29v90q-72 10 -105 46q-32 35 -32 102v227q0 63 29 99q44 57 137 57q76 0 121 -36q42 -35 42 -107v-61z" />
    <glyph glyph-name="egrave" unicode="&#xe8;" 
d="M156 230v-84q0 -63 44 -63q20 0 32 15q7 9 8.5 20.5t1.5 50.5h116v-41q0 -76 -45 -107t-111 -31q-164 0 -164 164v216q0 85 55 123q43 30 108 30q77 0 124 -45q35 -36 35 -102v-146h-204zM157 377v-63h85v63q0 51 -41 51q-44 0 -44 -51zM176 574l-133 132h153l66 -132
h-86z" />
    <glyph glyph-name="eacute" unicode="&#xe9;" 
d="M156 230v-84q0 -63 44 -63q20 0 32 15q7 9 8.5 20.5t1.5 50.5h116v-41q0 -76 -45 -107t-111 -31q-164 0 -164 164v216q0 85 55 123q43 30 108 30q77 0 124 -45q35 -36 35 -102v-146h-204zM157 377v-63h85v63q0 51 -41 51q-44 0 -44 -51zM135 591l65 134h156l-127 -134
h-94z" />
    <glyph glyph-name="ecircumflex" unicode="&#xea;" 
d="M156 230v-84q0 -63 44 -63q20 0 32 15q7 9 8.5 20.5t1.5 50.5h116v-41q0 -76 -45 -107t-111 -31q-164 0 -164 164v216q0 85 55 123q43 30 108 30q77 0 124 -45q35 -36 35 -102v-146h-204zM157 377v-63h85v63q0 51 -41 51q-44 0 -44 -51zM46 574l86 132h129l86 -132h-105
l-44 72l-48 -72h-104z" />
    <glyph glyph-name="edieresis" unicode="&#xeb;" 
d="M156 230v-84q0 -63 44 -63q20 0 32 15q7 9 8.5 20.5t1.5 50.5h116v-41q0 -76 -45 -107t-111 -31q-164 0 -164 164v216q0 85 55 123q43 30 108 30q77 0 124 -45q35 -36 35 -102v-146h-204zM157 377v-63h85v63q0 51 -41 51q-44 0 -44 -51zM45 595v124h119v-124h-119z
M228 595v124h119v-124h-119z" />
    <glyph glyph-name="igrave" unicode="&#xec;" horiz-adv-x="208" 
d="M44 0v512h120v-512h-120zM82 574l-133 132h153l66 -132h-86z" />
    <glyph glyph-name="iacute" unicode="&#xed;" horiz-adv-x="208" 
d="M44 0v512h120v-512h-120zM41 591l65 134h156l-127 -134h-94z" />
    <glyph glyph-name="icircumflex" unicode="&#xee;" horiz-adv-x="208" 
d="M44 0v512h120v-512h-120zM-48 574l86 132h129l86 -132h-105l-44 72l-48 -72h-104z" />
    <glyph glyph-name="idieresis" unicode="&#xef;" horiz-adv-x="208" 
d="M44 0v512h120v-512h-120zM-49 595v124h119v-124h-119zM134 595v124h119v-124h-119z" />
    <glyph glyph-name="eth" unicode="&#xf0;" 
d="M374 635l-60 -20q43 -83 43 -224l1 -258q0 -69 -42.5 -106t-121.5 -37q-37 0 -65.5 8.5t-44.5 24t-26.5 30t-14 35.5t-4.5 31.5t-1 25.5v229q0 61 28 97q42 52 107 52q46 0 70 -33q-8 43 -31 92l-113 -37l-23 52l103 36q-23 23 -50 45l99 41q23 -20 54 -53l69 23z
M157 385v-260q0 -53 41 -53q42 0 42 54v260q0 62 -40 62q-20 0 -30 -12t-11.5 -22.5t-1.5 -28.5z" />
    <glyph glyph-name="ntilde" unicode="&#xf1;" horiz-adv-x="417" 
d="M44 0v512h121l-2 -38q16 16 26 24t31 16t46 8q53 0 82 -34q24 -27 24 -88v-400h-117v376q0 18 -2 29.5t-11.5 22t-28.5 10.5q-50 0 -50 -69v-369h-119zM111 574h-65q2 68 31 98q26 28 66 28q27 0 90 -27q37 -16 49 -16q25 0 32 41h64q-1 -24 -3 -40t-9.5 -39t-26 -35.5
t-46.5 -12.5q-23 0 -91 28q-39 16 -47 16q-32 0 -44 -41z" />
    <glyph glyph-name="ograve" unicode="&#xf2;" 
d="M38 145v229q0 148 162 148q66 0 108 -28q50 -35 50 -115v-246q0 -69 -42.5 -106t-121.5 -37q-37 0 -65.5 8.5t-44.5 24t-26.5 30t-14 35.5t-4.5 31.5t-1 25.5zM157 385v-260q0 -53 41 -53q42 0 42 54v260q0 62 -40 62q-20 0 -30 -12t-11.5 -22.5t-1.5 -28.5zM176 574
l-133 132h153l66 -132h-86z" />
    <glyph glyph-name="oacute" unicode="&#xf3;" 
d="M38 145v229q0 148 162 148q66 0 108 -28q50 -35 50 -115v-246q0 -69 -42.5 -106t-121.5 -37q-37 0 -65.5 8.5t-44.5 24t-26.5 30t-14 35.5t-4.5 31.5t-1 25.5zM157 385v-260q0 -53 41 -53q42 0 42 54v260q0 62 -40 62q-20 0 -30 -12t-11.5 -22.5t-1.5 -28.5zM135 591
l65 134h156l-127 -134h-94z" />
    <glyph glyph-name="ocircumflex" unicode="&#xf4;" 
d="M38 145v229q0 148 162 148q66 0 108 -28q50 -35 50 -115v-246q0 -69 -42.5 -106t-121.5 -37q-37 0 -65.5 8.5t-44.5 24t-26.5 30t-14 35.5t-4.5 31.5t-1 25.5zM157 385v-260q0 -53 41 -53q42 0 42 54v260q0 62 -40 62q-20 0 -30 -12t-11.5 -22.5t-1.5 -28.5zM46 574
l86 132h129l86 -132h-105l-44 72l-48 -72h-104z" />
    <glyph glyph-name="otilde" unicode="&#xf5;" 
d="M38 145v229q0 148 162 148q66 0 108 -28q50 -35 50 -115v-246q0 -69 -42.5 -106t-121.5 -37q-37 0 -65.5 8.5t-44.5 24t-26.5 30t-14 35.5t-4.5 31.5t-1 25.5zM157 385v-260q0 -53 41 -53q42 0 42 54v260q0 62 -40 62q-20 0 -30 -12t-11.5 -22.5t-1.5 -28.5zM100 574h-65
q2 68 31 98q26 28 66 28q27 0 90 -27q37 -16 49 -16q25 0 32 41h64q-1 -24 -3 -40t-9.5 -39t-26 -35.5t-46.5 -12.5q-23 0 -91 28q-39 16 -47 16q-32 0 -44 -41z" />
    <glyph glyph-name="odieresis" unicode="&#xf6;" 
d="M38 145v229q0 148 162 148q66 0 108 -28q50 -35 50 -115v-246q0 -69 -42.5 -106t-121.5 -37q-37 0 -65.5 8.5t-44.5 24t-26.5 30t-14 35.5t-4.5 31.5t-1 25.5zM157 385v-260q0 -53 41 -53q42 0 42 54v260q0 62 -40 62q-20 0 -30 -12t-11.5 -22.5t-1.5 -28.5zM43 595v124
h119v-124h-119zM226 595v124h119v-124h-119z" />
    <glyph glyph-name="divide" unicode="&#xf7;" horiz-adv-x="500" 
d="M308 145q0 -23 -16.5 -39t-40.5 -16t-40 16t-16 40t17 40t40 16t39.5 -16t16.5 -41zM308 434q0 -20 -14.5 -37.5t-41.5 -17.5q-24 0 -40.5 15.5t-16.5 38.5q0 24 16 41t41 17t40.5 -17t15.5 -40zM500 330v-79h-500v79h500z" />
    <glyph glyph-name="oslash" unicode="&#xf8;" 
d="M313 489l25 38l41 -26l-36 -51q14 -23 14 -74v-244q0 -58 -32 -94q-40 -48 -124 -48q-42 0 -68 10t-56 32l-27 -41l-41 26l37 55q-7 19 -7 60v247q0 51 19 81q40 63 138 63q65 0 117 -34zM148 379v-147l100 156q-3 52 -48 52q-52 0 -52 -61zM246 299l-100 -158
q0 -19 1.5 -29.5t13 -22t34.5 -11.5q51 0 51 56v165z" />
    <glyph glyph-name="ugrave" unicode="&#xf9;" horiz-adv-x="417" 
d="M44 126v386h119v-369q0 -13 1 -20.5t4.5 -18.5t13 -16.5t25.5 -5.5t26.5 6t14 18.5t4.5 21t1 22.5v362h120v-512h-120v41q-21 -17 -30 -23.5t-32.5 -16.5t-47.5 -10q-32 0 -60.5 18t-35.5 61q-3 16 -3 56zM187 574l-133 132h153l66 -132h-86z" />
    <glyph glyph-name="uacute" unicode="&#xfa;" horiz-adv-x="417" 
d="M44 126v386h119v-369q0 -13 1 -20.5t4.5 -18.5t13 -16.5t25.5 -5.5t26.5 6t14 18.5t4.5 21t1 22.5v362h120v-512h-120v41q-21 -17 -30 -23.5t-32.5 -16.5t-47.5 -10q-32 0 -60.5 18t-35.5 61q-3 16 -3 56zM146 591l65 134h156l-127 -134h-94z" />
    <glyph glyph-name="ucircumflex" unicode="&#xfb;" horiz-adv-x="417" 
d="M44 126v386h119v-369q0 -13 1 -20.5t4.5 -18.5t13 -16.5t25.5 -5.5t26.5 6t14 18.5t4.5 21t1 22.5v362h120v-512h-120v41q-21 -17 -30 -23.5t-32.5 -16.5t-47.5 -10q-32 0 -60.5 18t-35.5 61q-3 16 -3 56zM57 574l86 132h129l86 -132h-105l-44 72l-48 -72h-104z" />
    <glyph glyph-name="udieresis" unicode="&#xfc;" horiz-adv-x="417" 
d="M44 126v386h119v-369q0 -13 1 -20.5t4.5 -18.5t13 -16.5t25.5 -5.5t26.5 6t14 18.5t4.5 21t1 22.5v362h120v-512h-120v41q-21 -17 -30 -23.5t-32.5 -16.5t-47.5 -10q-32 0 -60.5 18t-35.5 61q-3 16 -3 56zM53 595v124h119v-124h-119zM236 595v124h119v-124h-119z" />
    <glyph glyph-name="yacute" unicode="&#xfd;" horiz-adv-x="354" 
d="M134 0l-133 512h118l66 -329l51 329h117l-117 -548q-17 -81 -45 -111t-96 -30q-26 0 -79 9l17 94q22 -7 47 -7q23 0 36.5 20.5t16 38.5t1.5 22zM114 591l65 134h156l-127 -134h-94z" />
    <glyph glyph-name="thorn" unicode="&#xfe;" horiz-adv-x="417" 
d="M44 -176v882h118v-233q57 49 108 49q48 0 80 -35q29 -32 29 -100v-271q0 -49 -17 -77q-27 -49 -88 -49q-24 0 -46.5 9.5t-33 17t-32.5 26.5v-219h-118zM163 374v-230q0 -57 48 -57t48 53v237q0 56 -47 56q-49 0 -49 -59z" />
    <glyph glyph-name="ydieresis" unicode="&#xff;" horiz-adv-x="354" 
d="M134 0l-133 512h118l66 -329l51 329h117l-117 -548q-17 -81 -45 -111t-96 -30q-26 0 -79 9l17 94q22 -7 47 -7q23 0 36.5 20.5t16 38.5t1.5 22zM24 595v124h119v-124h-119zM207 595v124h119v-124h-119z" />
    <glyph glyph-name="dotlessi" unicode="&#x131;" horiz-adv-x="208" 
d="M44 0v512h120v-512h-120z" />
    <glyph glyph-name="Lslash" unicode="&#x141;" horiz-adv-x="375" 
d="M50 307v399h129v-226l95 124v-118l-95 -122v-257h192v-107h-321v192l-50 -67v119z" />
    <glyph glyph-name="lslash" unicode="&#x142;" horiz-adv-x="208" 
d="M44 354v352h120v-188l44 61v-105l-44 -63v-411h-120v250l-44 -61v106z" />
    <glyph glyph-name="OE" unicode="&#x152;" horiz-adv-x="688" 
d="M359 666v41h297v-110h-223v-165h211v-105h-211v-216h231v-111h-305v31q-54 -46 -138 -46q-50 0 -86 15t-53 33t-26.5 46.5t-10.5 43t-1 34.5v367q0 78 18 115q21 43 65.5 62.5t93.5 19.5q80 0 138 -55zM302 171v360q0 17 -0.5 26t-4 23t-9.5 21.5t-19 13t-32 5.5
q-22 0 -35.5 -8t-19 -24t-6.5 -27t-1 -31v-367q0 -74 64 -74q22 0 36 8t19.5 23.5t6.5 25t1 25.5z" />
    <glyph glyph-name="oe" unicode="&#x153;" horiz-adv-x="604" 
d="M363 230v-93q0 -56 46 -56q24 0 35 18q6 11 7 73h115q0 -68 -4.5 -94t-24.5 -48q-37 -40 -119 -40q-66 0 -119 34q-50 -34 -113 -34q-64 0 -103 34q-45 39 -45 120v219q0 81 44 121q44 39 111 39q53 0 107 -38q65 38 120 38q65 0 107 -40q39 -38 39 -110v-143h-203z
M362 380v-70h87v68q0 56 -43 56q-44 0 -44 -54zM159 378v-251q0 -49 39 -49q46 0 46 52v248q0 55 -41 55q-44 0 -44 -55z" />
    <glyph glyph-name="Scaron" unicode="&#x160;" horiz-adv-x="458" 
d="M38 146v103h130v-82q0 -21 1 -31t6.5 -24.5t19 -20.5t36.5 -6q19 0 31.5 5.5t19 12.5t9.5 23.5t3.5 28t0.5 35.5q0 37 -9 57t-35 37l-124 83q-48 32 -66 70.5t-18 95.5q0 50 10 85t41 61q50 42 142 42q31 0 60.5 -7t57.5 -23t45 -47.5t17 -74.5v-70h-129v51q0 17 -1 26
t-6 22t-17.5 18.5t-32.5 5.5q-29 0 -44.5 -15t-15.5 -55q0 -41 9 -58t32 -33l128 -87q47 -33 67 -69q13 -22 16 -42.5t3 -68.5q0 -39 -1 -57.5t-6 -41t-16 -40.5q-43 -70 -168 -70q-90 0 -143 38.5t-53 122.5zM162 763l-85 132h105l45 -73l48 73h104l-85 -132h-132z" />
    <glyph glyph-name="scaron" unicode="&#x161;" horiz-adv-x="375" 
d="M27 126v54h110q0 -63 7 -84t40 -21q46 0 46 56q0 25 -6 38t-29 29l-99 70q-17 12 -33 32q-28 32 -28 91q0 75 41 103.5t113 28.5q146 0 146 -118v-56h-103q0 36 -1.5 51.5t-11 28t-30.5 12.5q-11 0 -19 -2t-15.5 -13t-7.5 -31q0 -32 34 -56l109 -77q6 -4 18 -16.5
t15 -17.5q17 -24 17 -80q0 -22 -1 -34.5t-5 -34.5t-14 -35t-26.5 -27t-45 -20.5t-66.5 -6.5q-88 0 -121.5 37t-33.5 99zM121 574l-85 132h105l45 -73l48 73h104l-85 -132h-132z" />
    <glyph glyph-name="Ydieresis" unicode="&#x178;" horiz-adv-x="417" 
d="M143 217l-141 489h137l71 -356l69 356h137l-141 -497v-209h-132v217zM50 763v121h117v-121h-117zM251 763v122h117v-122h-117z" />
    <glyph glyph-name="Zcaron" unicode="&#x17d;" horiz-adv-x="417" 
d="M52 597v109h343v-70l-230 -526h227v-110h-369v82l225 515h-196zM157 763l-85 132h105l45 -73l48 73h104l-85 -132h-132z" />
    <glyph glyph-name="zcaron" unicode="&#x17e;" horiz-adv-x="354" 
d="M43 415v97h282v-97l-178 -315h186v-100h-309v100l179 315h-160zM120 574l-85 132h105l45 -73l48 73h104l-85 -132h-132z" />
    <glyph glyph-name="florin" unicode="&#x192;" horiz-adv-x="354" 
d="M323 672l-11 -97q-4 0 -14 0.5t-12 0.5q-21 0 -28 -13.5t-10 -50.5h52l-9 -79h-53l-55 -489q-3 -30 -16 -51.5t-27 -32t-36.5 -16t-35 -6t-31.5 -0.5q-12 0 -42 2l11 97q5 0 15 -0.5t11 -0.5q32 0 35 35l52 462h-52l9 79h53l6 56q4 30 17 51.5t27 32t36 16t34.5 6
t31.5 0.5q10 0 42 -2z" />
    <glyph glyph-name="circumflex" unicode="&#x2c6;" horiz-adv-x="250" 
d="M-25 574l86 132h129l86 -132h-105l-44 72l-48 -72h-104z" />
    <glyph glyph-name="caron" unicode="&#x2c7;" horiz-adv-x="250" 
d="M59 574l-85 132h105l45 -73l48 73h104l-85 -132h-132z" />
    <glyph glyph-name="breve" unicode="&#x2d8;" horiz-adv-x="250" 
d="M193 706h77q-28 -130 -143 -130q-41 0 -71 14.5t-45 40t-20 40t-10 35.5h80q19 -50 68 -50t64 50z" />
    <glyph glyph-name="dotaccent" unicode="&#x2d9;" horiz-adv-x="250" 
d="M56 574v132h137v-132h-137z" />
    <glyph glyph-name="ring" unicode="&#x2da;" horiz-adv-x="250" 
d="M124 731q37 0 63.5 -26t26.5 -64q0 -36 -26.5 -62.5t-63.5 -26.5t-63 26t-26 63q0 38 26.5 64t62.5 26zM124 681q-17 0 -29 -12t-12 -29t12 -29t29 -12t29 12t12 29t-12 29t-29 12z" />
    <glyph glyph-name="ogonek" unicode="&#x2db;" horiz-adv-x="250" 
d="M100 -1h93q-56 -45 -56 -72q0 -17 13.5 -20.5t52.5 -3.5v-84h-52q-56 0 -77 18q-27 22 -27 62q0 18 8 36.5t17.5 30.5t27.5 33z" />
    <glyph glyph-name="tilde" unicode="&#x2dc;" horiz-adv-x="250" 
d="M24 574h-65q2 68 31 98q26 28 66 28q27 0 90 -27q37 -16 49 -16q25 0 32 41h64q-1 -24 -3 -40t-9.5 -39t-26 -35.5t-46.5 -12.5q-23 0 -91 28q-39 16 -47 16q-32 0 -44 -41z" />
    <glyph glyph-name="hungarumlaut" unicode="&#x2dd;" horiz-adv-x="250" 
d="M-64 574l57 132h146l-121 -132h-82zM111 574l59 132h145l-118 -132h-86z" />
    <glyph glyph-name="endash" unicode="&#x2013;" 
d="M28 217v99h340v-99h-340z" />
    <glyph glyph-name="emdash" unicode="&#x2014;" horiz-adv-x="521" 
d="M30 218v100h460v-100h-460z" />
    <glyph glyph-name="quoteleft" unicode="&#x2018;" horiz-adv-x="187" 
d="M152 438h-118v134l76 135h42l-61 -135h61v-134z" />
    <glyph glyph-name="quoteright" unicode="&#x2019;" horiz-adv-x="187" 
d="M32 573v133h118v-133l-80 -135h-45l69 135h-62z" />
    <glyph glyph-name="quotesinglbase" unicode="&#x201a;" horiz-adv-x="187" 
d="M35 0v129h118v-129l-83 -135h-45l69 135h-59z" />
    <glyph glyph-name="quotedblleft" unicode="&#x201c;" horiz-adv-x="375" 
d="M336 570v-130h-119v130l79 136h47l-68 -136h61zM152 570v-130h-119v130l85 136h46l-74 -136h62z" />
    <glyph glyph-name="quotedblright" unicode="&#x201d;" horiz-adv-x="375" 
d="M37 576v130h119v-130l-79 -136h-47l68 136h-61zM221 576v130h119v-130l-85 -136h-46l74 136h-62z" />
    <glyph glyph-name="quotedblbase" unicode="&#x201e;" horiz-adv-x="375" 
d="M38 0v130h118v-130l-70 -137h-43l58 137h-63zM219 0v130h118v-130l-73 -137h-45l64 137h-64z" />
    <glyph glyph-name="dagger" unicode="&#x2020;" horiz-adv-x="437" 
d="M23 423v113h136v170h120v-170h139v-113h-139v-423h-120v423h-136z" />
    <glyph glyph-name="daggerdbl" unicode="&#x2021;" horiz-adv-x="437" 
d="M22 459v109h140v138h116v-138h140v-109h-140v-209h140v-108h-140v-142h-116v142h-140v108h140v209h-140z" />
    <glyph glyph-name="bullet" unicode="&#x2022;" horiz-adv-x="333" 
d="M297 353q0 -59 -37 -94.5t-90 -35.5q-58 0 -95.5 38t-37.5 92q0 53 38 91.5t93 38.5t92 -36.5t37 -93.5z" />
    <glyph glyph-name="ellipsis" unicode="&#x2026;" horiz-adv-x="1000" 
d="M108 0v129h118v-129h-118zM441 0v129h118v-129h-118zM774 0v129h118v-129h-118z" />
    <glyph glyph-name="perthousand" unicode="&#x2030;" horiz-adv-x="1000" 
d="M190 -23l266 738l63 -23l-265 -736zM26 328v226q0 14 1 24t7 29.5t17.5 31.5t35.5 22t58 10t58.5 -9.5t36.5 -21t18 -29.5t7 -27.5t1 -22.5v-235q0 -53 -31.5 -80.5t-86.5 -27.5q-43 0 -70 11.5t-37 32.5t-12.5 34t-2.5 32zM106 565v-245q0 -38 40 -38q18 0 27.5 8
t10.5 15.5t1 19.5v237q0 10 -0.5 15t-2.5 12t-6 10.5t-12 6.5t-20 3q-21 0 -29.5 -10.5t-8.5 -33.5zM443 104v226q0 14 1 24t7 29.5t17.5 31.5t35.5 22t58 10t58.5 -9.5t36.5 -21t18 -29.5t7 -27.5t1 -22.5v-235q0 -53 -31.5 -80.5t-86.5 -27.5q-43 0 -70 11.5t-37 32.5
t-12.5 34t-2.5 32zM523 341v-245q0 -11 2 -18t11.5 -13.5t26.5 -6.5q18 0 27.5 8t10.5 15.5t1 19.5v237q0 10 -0.5 15t-2.5 12t-6 10.5t-12 6.5t-20 3q-21 0 -29.5 -10.5t-8.5 -33.5zM734 104v226q0 14 1 24t7 29.5t17.5 31.5t35.5 22t58 10t58.5 -9.5t36.5 -21t18 -29.5
t7 -27.5t1 -22.5v-235q0 -53 -31.5 -80.5t-86.5 -27.5q-43 0 -70 11.5t-37 32.5t-12.5 34t-2.5 32zM814 341v-245q0 -11 2 -18t11.5 -13.5t26.5 -6.5q18 0 27.5 8t10.5 15.5t1 19.5v237q0 10 -0.5 15t-2.5 12t-6 10.5t-12 6.5t-20 3q-21 0 -29.5 -10.5t-8.5 -33.5z" />
    <glyph glyph-name="guilsinglleft" unicode="&#x2039;" horiz-adv-x="167" 
d="M133 227v-100l-102 93v92l102 97v-97l-40 -45z" />
    <glyph glyph-name="guilsinglright" unicode="&#x203a;" horiz-adv-x="167" 
d="M34 310v99l102 -94v-94l-102 -94v97l42 45z" />
    <glyph glyph-name="fraction" unicode="&#x2044;" horiz-adv-x="125" 
d="M-101 -23l265 737l63 -22l-265 -737z" />
    <glyph glyph-name="fraction" unicode="&#x2215;" horiz-adv-x="125" 
d="M-101 -23l265 737l63 -22l-265 -737z" />
    <glyph glyph-name="Euro" unicode="&#x20ac;" 
d="M364 650v-96q-27 27 -85 27q-89 0 -99 -137h160l-22 -79h-144q0 -5 -0.5 -15t-0.5 -14q0 -5 0.5 -16.5t0.5 -15.5h126l-21 -78h-99q10 -142 99 -142q58 0 85 27v-98q-27 -21 -103 -21q-158 0 -183 234h-61l21 78h32q0 4 -0.5 15t-0.5 17q0 4 0.5 14t0.5 15h-53l21 79h39
q22 230 184 230q72 0 103 -24z" />
    <glyph glyph-name="trademark" unicode="&#x2122;" horiz-adv-x="687" 
d="M636 706v-332h-57l2 205l3 68l-16 -56l-68 -217h-52l-84 272l4 -67l2 -205h-56v332h79l83 -262l81 262h79zM181 657v-283h-58v283h-107v49h270v-49h-105z" />
    <glyph glyph-name="minus" unicode="&#x2212;" horiz-adv-x="500" 
d="M500 333v-81h-500v81h500z" />
    <glyph glyph-name="fi" unicode="&#xfb01;" horiz-adv-x="458" 
d="M184 575v-63h52v-79h-53v-433h-119v433h-52v79h53v90q0 30 10.5 51.5t23 32t34.5 16t34 6t32 0.5q11 0 41 -2v-97q-5 0 -15 1h-10q-31 0 -31 -35zM294 586v121h119v-121h-119zM294 0v512h120v-512h-120z" />
    <glyph glyph-name="fl" unicode="&#xfb02;" horiz-adv-x="458" 
d="M184 575v-63h52v-79h-53v-433h-119v433h-52v79h53v90q0 30 10.5 51.5t23 32t34.5 16t34 6t32 0.5q11 0 41 -2v-97q-5 0 -15 1h-10q-31 0 -31 -35zM294 0v707h120v-707h-120z" />
    </font>
</defs>
</svg>
